#VERSION:0.83;
#TITLE:Serotonin;
#SUBTITLE:;
#ARTIST:U1 Overground;
#TITLETRANSLIT:Serotonin;
#SUBTITLETRANSLIT:;
#ARTISTTRANSLIT:;
#GENRE:;
#ORIGIN:;
#CREDIT:;
#BANNER:Serotonin.png;
#BACKGROUND:Serotonin-bg.png;
#PREVIEWVID:;
#JACKET:Serotonin-jacket.jpg;
#CDIMAGE:;
#DISCIMAGE:;
#LYRICSPATH:;
#CDTITLE:;
#MUSIC:Serotonin.mp3;
#OFFSET:-2.780000;
#SAMPLESTART:90.679962;
#SAMPLELENGTH:14.999983;
#SELECTABLE:YES;
#BPMS:0.000=150.000,
153.000=75.000,
169.000=150.000;
#STOPS:26.000=0.400,
153.000=0.800;
#DELAYS:;
#WARPS:;
#TIMESIGNATURES:0.000=4=4;
#TICKCOUNTS:0.000=4;
#COMBOS:0.000=1;
#SPEEDS:0.000=1.000=0.000=0;
#SCROLLS:0.000=1.000;
#FAKES:;
#LABELS:0.000=Song Start;
#BGCHANGES:;
#KEYSOUNDS:;
#ATTACKS:
;

//---------------dance-single - ----------------
#NOTEDATA:;
#CHARTNAME:;
#STEPSTYPE:dance-single;
#DESCRIPTION:;
#CHARTSTYLE:;
#DIFFICULTY:Beginner;
#METER:1;
#RADARVALUES:0.137362,0.233054,0.007817,0.000000,0.000000,123.000000,122.000000,1.000000,0.000000,0.000000,0.000000,0.000000,0.000000,0.000000,0.137362,0.233054,0.007817,0.000000,0.000000,123.000000,122.000000,1.000000,0.000000,0.000000,0.000000,0.000000,0.000000,0.000000;
#CREDIT:;
#NOTES:
0000
0000
0000
0000
,
0000
0000
0000
0000
,
0000
0000
0000
0000
,
1000
0000
0000
0000
,
1000
0000
0000
0000
,
0001
0000
0000
0000
,
0001
0000
0000
0000
,
1000
0000
1000
0000
,
0001
0000
0001
0000
,
1000
0000
1000
0000
,
0001
0000
0000
0000
,
0100
0000
0100
0000
,
0010
0000
0010
0000
,
0100
0000
0100
0000
,
0001
0000
0000
0000
,
1000
0000
1000
0000
,
0001
0000
0001
0000
,
0010
0000
0010
0000
,
0001
0000
0100
0000
,
0100
0000
0010
0000
,
1000
0000
0000
0000
,
0001
0000
1000
0000
,
0001
0000
0000
0000
,
1000
0000
1000
0000
,
0001
0000
0001
0000
,
0010
0000
0010
0000
,
0100
0000
0100
0000
,
1000
0000
1000
0000
,
0001
0000
0001
0000
,
0100
0000
0100
0000
,
0010
0000
0000
0000
,
1000
0000
0001
0000
,
1000
0000
0001
0000
,
1000
0000
0010
0000
,
1000
0000
0001
0000
,
0100
0000
0010
0000
,
0100
0000
0000
0000
,
1000
0000
0001
0000
,
1000
0010
0000
0100
,
0001
0100
0000
0010
,
1000
0010
0100
0001
,
1000
0001
0100
0010
,
0000
0000
1000
1000
,
1000
0000
0001
0001
,
0001
0000
0100
0000
,
0010
0000
0100
0000
,
0001
0000
1000
0100
,
1000
0000
0001
0000
,
0001
0000
0010
0000
,
0010
0000
0001
0000
,
0000
0000
0100
0000
,
0100
0000
0010
0000
,
0010
0000
1000
0000
,
0000
0001
0000
1000
,
0000
0010
0000
1000
,
0000
0001
0000
0000
,
0000
0100
0000
0010
,
0000
1000
0000
0010
,
0000
0000
0000
0100
,
0000
0100
0000
0010
,
0000
0010
0000
1000
,
0000
1000
0000
0001
,
0000
1000
0000
0001
,
0000
0100
0000
0010
,
0000
0000
0100
0000
,
0100
0000
0010
0000
,
0010
1001
0000
0000
;

//---------------dance-single - ----------------
#NOTEDATA:;
#CHARTNAME:;
#STEPSTYPE:dance-single;
#DESCRIPTION:;
#CHARTSTYLE:;
#DIFFICULTY:Easy;
#METER:5;
#RADARVALUES:0.273606,0.310739,0.007817,0.453405,0.000000,245.000000,244.000000,1.000000,58.000000,0.000000,0.000000,0.000000,0.000000,0.000000,0.273606,0.310739,0.007817,0.453405,0.000000,245.000000,244.000000,1.000000,58.000000,0.000000,0.000000,0.000000,0.000000,0.000000;
#CREDIT:;
#NOTES:
0000
0000
0000
0000
,
0000
0000
0000
0000
,
0000
0000
0000
0000
,
0001
0001
0001
0000
,
1000
0010
1000
0000
,
0010
0100
0010
0100
,
0010
0010
0010
1000
,
0001
1000
0000
0002
,
0103
0002
0023
0230
,
1300
0100
0000
2000
,
3200
0302
0203
2300
,
0000
3010
0000
0001
,
0000
0020
2030
3002
,
2003
3002
1000
1003
,
0010
0100
0000
0010
,
0100
0010
0100
0010
,
0000
1000
0100
0010
,
0000
0001
0100
1000
,
0100
0002
0013
2000
,
3010
0001
1000
0001
,
0000
2000
3200
0320
,
0130
2000
3010
0002
,
0003
0010
1000
0100
,
0001
0100
1000
0010
,
0001
0010
1000
0001
,
0010
1000
0010
0001
,
0100
1000
0100
0001
,
0001
1000
1000
0010
,
0010
0100
0100
0001
,
0001
1000
1000
0001
,
0010
0100
1000
0001
,
1000
0010
0100
0010
,
1000
0002
0203
0310
,
1000
0010
1000
0200
,
0310
0002
0013
0200
,
2300
3001
1000
0001
,
0010
0001
0100
0010
,
0100
0010
1000
0010
,
1000
0000
1000
0000
0001
0000
1000
1000
,
0010
0000
1000
0000
0100
0100
1000
0000
,
0001
0010
0010
0000
0001
0000
0100
0000
,
0010
0100
0001
1000
,
0001
0110
0010
0100
,
0100
1000
1000
0001
,
0001
0010
0010
0001
,
0001
0100
0100
0010
,
0010
1000
1000
0001
,
0001
0010
0010
0001
,
0001
0100
0100
0010
,
0010
1000
1000
0001
,
0000
0001
1000
0001
,
0010
0200
2300
3002
,
0023
0031
0100
0010
,
0100
0002
2003
3020
,
0230
0310
1000
0010
,
1000
0002
0203
2300
,
3200
0301
0010
1000
,
0010
0002
0203
2300
,
3200
0301
0010
1000
,
0010
0002
2003
3002
,
0203
0310
1000
0010
,
0200
0302
2003
3002
,
0103
0010
1000
0010
,
0100
0002
2003
3020
,
0130
0010
1000
0010
,
0100
0002
2003
3002
,
0203
0310
0000
0000
;

//---------------dance-single - ----------------
#NOTEDATA:;
#CHARTNAME:;
#STEPSTYPE:dance-single;
#DESCRIPTION:;
#CHARTSTYLE:;
#DIFFICULTY:Medium;
#METER:11;
#RADARVALUES:0.416552,0.573987,0.125077,0.445588,0.042995,373.000000,357.000000,16.000000,57.000000,0.000000,0.000000,0.000000,0.000000,0.000000,0.416552,0.573987,0.125077,0.445588,0.042995,373.000000,357.000000,16.000000,57.000000,0.000000,0.000000,0.000000,0.000000,0.000000;
#CREDIT:;
#NOTES:
0000
0000
0000
0000
,
0000
0000
0000
0000
,
0000
0000
0000
0000
,
1000
0000
1000
0000
0001
1000
0001
0000
,
1000
0000
1000
0000
0010
0100
0010
0000
,
0100
0001
0100
0000
0100
1000
0100
0000
,
1001
0000
0000
0101
0000
0000
0220
0000
0330
0000
0000
0000
2000
0000
0000
0000
,
3020
0000
0130
0000
0001
0100
0001
0000
,
1000
0010
1000
0010
1000
0000
0010
0000
,
0100
0001
0100
0000
0001
0000
0010
0000
,
0100
1000
0100
0000
1000
0000
0020
0000
,
0230
0301
1000
0010
,
0100
0000
0001
0001
2000
0000
3002
0000
,
0203
0320
1000
2030
,
3010
0100
0020
0000
2030
0000
3002
0000
,
0013
0001
2000
0000
3100
0010
0200
0000
,
2300
0000
3001
0100
0001
0000
1000
0000
,
1100
0000
1000
0000
1001
0000
0001
0100
,
0001
0000
0010
0001
0020
0000
0032
0000
,
2003
3010
0100
0010
,
1000
0000
0001
0100
0001
0000
2000
0000
,
3020
0230
0320
0130
,
1001
1000
0001
0110
,
0110
0000
0100
0001
0100
0000
1001
0000
,
1001
0000
0001
1000
0001
0000
1010
0000
,
1010
0000
0100
0010
0100
0000
0101
0000
,
0101
0000
0100
1000
0100
0000
0100
0010
,
1000
0000
0001
0010
0001
0000
0100
0001
,
0100
0000
0010
0100
0010
0000
1000
0000
,
0100
0000
1000
0100
1000
0000
0001
0000
,
0010
0000
0100
0010
0100
0100
0010
0000
,
0100
0000
1000
0001
1000
0000
1000
0100
,
1000
0002
0203
0310
,
1000
0000
0100
1000
0100
1000
0002
0000
,
0023
0230
2300
3001
,
0101
0000
0010
0000
0100
0000
0001
1000
,
0001
1000
0001
0000
1000
0000
0100
0000
,
1000
0000
0010
0000
0100
0000
0010
0100
,
0010
0000
0100
0000
0001
0000
1000
0000
0010
0000
1000
0000
0100
0000
0010
0001
,
0010
0000
0001
0000
0100
0000
0010
0100
0010
0000
1000
0000
0100
0000
1000
0001
,
1000
0000
0001
0000
0010
0000
0001
0001
0001
0000
1000
0000
0100
0000
1000
1000
,
1000
0000
0010
0000
0100
0000
0010
0000
1000
0000
0001
0000
0010
0001
0010
0001
,
0010
0001
0010
0000
0001
0000
1000
0000
0001
0000
1000
0000
0001
0000
1000
0000
,
0010
0100
0010
0100
0010
1000
0100
1000
,
0100
0000
0001
0010
0001
0010
0001
0010
,
0100
1000
0100
1000
0010
0100
0010
0100
,
0010
1000
0001
0100
0010
0100
0001
0010
,
0100
1000
0010
1000
0010
1000
0100
1000
,
0001
0000
0100
0010
0100
0010
1000
0010
,
1000
0000
0000
0000
1001
0000
0000
0001
0000
0000
0100
0000
0010
0000
0100
0000
,
0001
0000
1000
0000
0100
0000
0000
0010
0000
0000
0001
0000
0100
0000
0001
0000
,
0020
0032
2003
3200
,
2300
0000
3010
0100
0010
0100
0000
0000
,
0001
0100
0002
0000
0203
0000
0320
0000
,
2030
0000
3100
1000
0100
1000
0001
0000
,
0100
0020
0230
0302
,
2003
3010
0100
0010
,
1000
0100
2000
0000
3002
0000
0203
0000
,
0310
0000
1000
0100
1000
0001
1000
0010
,
0100
0000
0010
1000
0010
1000
0100
1000
,
0100
0010
0001
0100
,
0001
2000
3001
0200
,
0320
2030
3100
1000
,
0001
0000
0100
0010
0100
0001
0020
0000
,
0032
0103
0010
1000
,
0100
2000
3002
0203
,
0320
2030
0000
3000
;

//---------------dance-single - ----------------
#NOTEDATA:;
#CHARTNAME:;
#STEPSTYPE:dance-single;
#DESCRIPTION:;
#CHARTSTYLE:;
#DIFFICULTY:Hard;
#METER:15;
#RADARVALUES:0.773915,1.077716,0.297058,0.109443,0.922444,693.000000,655.000000,38.000000,14.000000,0.000000,0.000000,0.000000,0.000000,0.000000,0.773915,1.077716,0.297058,0.109443,0.922444,693.000000,655.000000,38.000000,14.000000,0.000000,0.000000,0.000000,0.000000,0.000000;
#CREDIT:;
#NOTES:
// measure 0
0000
0000
0000
0000
,  // measure 1
0000
0000
0000
0000
,  // measure 2
0000
0000
0000
0000
,  // measure 3
0001
0100
0001
0100
0001
0010
0001
0010
,  // measure 4
0100
1000
0100
1000
0010
1000
0010
1000
,  // measure 5
0001
1000
0001
1000
0001
1000
0001
1000
0001
0100
0001
0100
0001
0100
0001
0100
,  // measure 6
0001
0000
0000
1001
0000
0000
0202
0000
0303
0000
0000
0000
1000
0000
0010
0000
,  // measure 7
1000
0000
0001
1000
0001
0000
1000
0010
1000
0000
0001
0000
1002
0000
0000
0000
,  // measure 8
0103
0000
0010
0100
0010
0000
1000
0001
1000
0000
0001
0000
1000
0000
0100
0000
,  // measure 9
0010
0000
0001
0010
0001
0000
1000
0100
1000
0000
0010
0100
0010
0000
0100
0000
,  // measure 10
0001
0000
1000
0010
1000
0000
0001
0010
0001
0000
0100
0000
0020
0000
0000
0000
,  // measure 11
0130
0000
0001
1000
0001
0000
1000
0010
1000
0000
0001
0000
0100
0000
0010
0000
,  // measure 12
0100
0000
0001
1000
0001
0000
0100
0001
0100
0000
0010
0000
0100
0000
0001
0000
,  // measure 13
0010
0001
2000
0000
3010
0100
0102
0000
,  // measure 14
1003
0010
1020
0000
0130
0001
0010
0001
,  // measure 15
1000
0000
0010
1000
0010
0000
1000
0001
1000
0000
0001
0100
0010
0000
1000
0000
,  // measure 16
0010
0000
0100
0010
0100
0000
0010
1000
0001
0000
1001
0000
0000
0000
0001
0100
,  // measure 17
0001
0000
0100
0010
0000
0010
0000
1000
0000
1000
0100
0000
0001
0000
0100
0000
,  // measure 18
0010
0000
0001
0010
0100
0000
0010
0100
1000
0000
0001
1000
0001
0000
0100
0000
,  // measure 19
0010
0000
0100
0000
0001
0000
1000
0010
1000
0010
1000
0000
0100
0000
0010
0000
,  // measure 20
0001
0000
0010
0100
1000
0100
0010
0002
,  // measure 21
0000
0000
1003
0000
0200
0000
0000
0000
1300
0000
0100
0000
1000
0000
0000
1000
,  // measure 22
0001
0000
0000
0000
0001
0000
1000
0000
0001
0010
0100
0000
1000
0000
0100
0010
,  // measure 23
0001
0000
0001
0100
0010
0000
0100
0010
2000
0000
0000
0000
3001
0000
0100
0001
,  // measure 24
0100
0000
0010
0000
1000
0100
1000
0000
0010
1000
0010
0000
1000
0001
0000
0000
,  // measure 25
0001
0100
0000
0000
0100
0010
0000
0000
0010
1000
0000
0000
1000
0100
0000
0000
,  // measure 26
0100
0010
0000
0000
0010
0001
0000
0000
0001
1000
0000
0000
1000
0000
0001
0000
,  // measure 27
0010
0000
0100
0010
0100
0000
0010
0000
0001
0000
1000
0000
0001
1000
0000
1000
,  // measure 28
0010
0100
0010
1000
0100
0010
0001
0100
,  // measure 29
0010
0000
1000
0001
1000
0000
0001
0000
0100
0000
0010
0000
1000
0001
1000
0001
,  // measure 30
0100
0000
0000
0000
0000
0000
0010
0000
0000
0000
0000
0000
1000
0000
0000
0001
0000
0000
1000
0000
0000
0001
0000
0000
1000
0000
0000
0000
0100
0000
0000
0000
0010
0000
0000
0000
0001
0000
0000
0000
0000
0000
1000
0000
0000
0000
0000
0000
,  // measure 31
1000
0010
0000
0010
1000
0001
1000
0000
0001
0100
0001
0000
0100
0000
0010
0000
,  // measure 32
1000
0000
0000
0010
0000
0000
1000
0000
0000
0000
0000
0000
0001
0000
0000
0010
0000
0000
0001
0000
0000
0010
0000
0000
0001
0000
0000
0000
0000
0000
0100
0000
0000
0000
0000
0000
0010
0000
0000
0000
1000
0000
0000
0000
0100
0000
0000
0000
,  // measure 33
0010
0000
0000
0000
0001
0000
0000
0000
0100
0000
0000
0000
0001
0000
0000
0000
1000
0000
0000
0000
0010
0000
0000
0000
1000
0000
0000
0100
0000
0000
1000
0000
0000
0000
0000
0000
0001
0000
0000
0010
0000
0000
0100
0000
0000
0000
0000
0000
,  // measure 34
0010
0100
1000
0000
0100
0010
0001
0000
1001
0000
0000
0000
1000
0000
0000
0000
,  // measure 35
1001
0000
0000
0000
0001
0100
0000
0000
0100
0000
0010
0000
1000
0001
1000
0000
,  // measure 36
0001
0100
0001
0000
0100
0010
0100
0001
1000
0000
0001
0000
1000
0010
1000
0000
,  // measure 37
0001
1000
0001
0000
0010
0001
0010
0000
0100
0010
0001
0010
0100
1000
0001
1000
,  // measure 38
0001
0000
0000
0000
0010
0000
0000
0000
0021
0000
0000
0000
0000
0000
0001
0000
0031
0000
0000
0000
0100
0000
0000
0000
0001
1000
0001
1000
0100
0000
1000
0001
,  // measure 39
0000
1001
0000
0000
1010
0000
0000
0000
0010
0100
0010
0000
0100
0000
0001
1000
0001
0000
1000
0100
1000
0000
0000
0000
1001
0000
0000
0000
0000
0000
0001
0100
,  // measure 40
0010
0000
0100
0010
1000
0001
1000
0000
0001
0010
0002
0000
0000
0000
0103
0010
0000
0000
1010
0000
0000
1001
0000
0000
0001
0010
0001
0010
0001
0000
1000
0000
,  // measure 41
0010
0000
0000
0000
0000
0000
0000
0000
0000
0000
0000
0000
0000
0000
0000
0000
0000
0000
0000
0000
0000
0000
0000
0000
1010
0000
0000
0000
0000
0000
0000
0000
0000
0000
0000
0000
0000
0000
0000
0000
0000
0000
0000
0000
0000
0000
0000
0000
1001
0000
0000
0000
0000
0000
0000
0000
0000
0000
0000
0000
0001
0000
0000
0000
0000
0000
0000
0000
0000
0000
0000
0000
0100
0000
0000
0000
0000
0000
0000
0000
0000
0000
0000
0000
0010
0000
0000
0000
0000
0000
0100
0000
0000
0000
0000
0000
0001
0000
0000
0000
0000
0000
0000
0000
0001
0000
0000
0000
0000
0000
0000
0000
0001
0000
0000
0000
0000
0000
0000
0000
1000
0000
0000
0000
0000
0000
0000
0000
1000
0000
0000
0000
0000
0000
0000
0000
1000
0000
0000
0000
0000
0000
0000
0000
0020
0000
0000
0000
0000
0000
0000
0000
0000
0000
0000
0000
0000
0000
0000
0000
0000
0000
0000
0000
0000
0000
0000
0000
0030
0000
0000
0000
0000
0000
0000
0000
0000
0000
0000
0000
1000
0000
0000
0000
0000
0000
0001
0000
0000
0000
0000
0000
,  // measure 42
1000
0000
0001
0100
0001
0000
0010
0000
0100
0000
1000
0000
0100
0000
0000
0000
1000
0000
0000
0000
0010
0000
1000
0000
0000
0000
0100
0000
1000
0000
0000
0000
,  // measure 43
0001
0100
0001
0000
1000
0010
0000
0100
0010
0000
0100
0001
0000
0010
0001
0000
,  // measure 44
1000
0010
1000
0000
0001
0010
0000
0001
0100
0000
0001
1000
0000
0100
1000
0000
,  // measure 45
0010
0100
0010
0000
1000
0100
0010
0001
1000
0001
0000
0000
0001
0100
0000
0000
,  // measure 46
0100
0010
0100
0000
0001
0010
0001
0000
1000
0000
0100
0010
0100
0010
0100
1000
,  // measure 47
0100
1000
0001
0000
0010
0001
0010
0000
0001
0000
1000
0001
0000
0000
0001
0000
,  // measure 48
0010
0001
0000
0100
0001
0000
0100
0000
0010
1000
0000
1000
0100
0010
0100
0010
,  // measure 49
0001
1000
0001
0000
0101
0000
0000
0110
0000
0000
0100
0000
0100
0000
0001
0000
,  // measure 50
1000
0001
1000
0000
1100
0000
0000
0110
0000
0000
0011
0000
0000
1001
0000
0000
,  // measure 51
1000
0000
0001
0000
0100
0010
0000
0010
0100
0000
0001
1000
0000
1000
0001
0000
,  // measure 52
0100
0000
0001
0000
1001
0000
0000
1010
0000
0000
0110
0000
0000
0101
0000
0000
,  // measure 53
1001
0000
0000
0000
1000
0010
0000
0010
1000
0000
0001
0100
0000
0100
0010
0100
,  // measure 54
0010
0100
0001
0100
0001
0000
0000
1001
0000
0000
0101
0000
0000
0110
0000
0000
,  // measure 55
0010
0000
1000
0000
0100
1000
0000
1000
0001
0000
0010
0001
0000
0001
1000
0000
,  // measure 56
0001
0100
0001
0100
0010
0000
0000
0110
0000
0000
1010
0000
0000
1001
0000
0000
,  // measure 57
0101
0000
0000
0000
0001
0000
0010
0000
0001
0000
0100
0000
0010
0100
0010
0100
,  // measure 58
0010
0100
0010
0000
1000
0100
0000
0100
1000
0000
0001
1000
0000
1000
0001
0000
,  // measure 59
0100
0001
0100
0000
0001
1000
0001
1000
0001
0000
0100
0000
1010
0000
0010
0000
,  // measure 60
1001
0000
1000
0000
0001
0100
0001
0100
0000
0000
1001
0000
0000
1010
0000
0000
,  // measure 61
1000
0100
1000
0100
0010
0100
0010
0001
0010
0000
0001
0000
1000
0001
0100
0010
,  // measure 62
0100
0010
0100
0000
0001
0010
0000
0010
0100
0000
0100
1000
0000
1000
0001
0000
,  // measure 63
0010
0001
0010
0001
0100
0010
0100
0010
1000
0000
1000
0000
0001
0100
0000
0100
,  // measure 64
0010
0100
0010
0000
0100
0001
0100
0001
0010
0001
0010
0000
0001
1000
0001
1000
,  // measure 65
0100
1000
0100
0000
0010
0100
0010
0100
0010
0000
0001
0000
1000
0010
1000
0010
,  // measure 66
0100
0001
0100
0001
0020
0000
0000
0000
0000
0000
0000
0000
0000
0000
0000
0000
,  // measure 67
0000
0030
0000
0000
;
