#VERSION:0.83;
#TITLE:Saishunsenkoku;
#SUBTITLE:;
#ARTIST:mafumafu;
#TITLETRANSLIT:;
#SUBTITLETRANSLIT:;
#ARTISTTRANSLIT:;
#GENRE:;
#ORIGIN:;
#CREDIT:;
#BANNER:;
#BACKGROUND:Saishuu Senkoku-bg.png;
#PREVIEWVID:;
#JACKET:saishuu senkoku-jacket.png;
#CDIMAGE:;
#DISCIMAGE:;
#LYRICSPATH:;
#CDTITLE:;
#MUSIC:Saishuu Senkoku.ogg;
#OFFSET:-0.635000;
#SAMPLESTART:49.243668;
#SAMPLELENGTH:14.999998;
#SELECTABLE:YES;
#BPMS:0.000=177.120,
112.000=88.560,
120.000=177.120;
#STOPS:134.000=0.339;
#DELAYS:;
#WARPS:;
#TIMESIGNATURES:0.000=4=4;
#TICKCOUNTS:0.000=4;
#COMBOS:0.000=1;
#SPEEDS:0.000=1.000=0.000=0;
#SCROLLS:0.000=1.000;
#FAKES:;
#LABELS:0.000=Song Start;
#BGCHANGES:;
#KEYSOUNDS:;
#ATTACKS:
;

//---------------dance-single - ----------------
#NOTEDATA:;
#CHARTNAME:;
#STEPSTYPE:dance-single;
#DESCRIPTION:;
#CHARTSTYLE:;
#DIFFICULTY:Beginner;
#METER:4;
#RADARVALUES:0.188411,0.231548,0.000000,0.000000,0.000000,155.000000,155.000000,0.000000,0.000000,0.000000,0.000000,0.000000,0.000000,0.000000,0.188411,0.231548,0.000000,0.000000,0.000000,155.000000,155.000000,0.000000,0.000000,0.000000,0.000000,0.000000,0.000000,0.000000;
#CREDIT:;
#NOTES:
0000
0000
0000
0000
,
0000
0000
0000
0000
,
0000
0000
0000
0000
,
0000
0000
0000
0000
,
0000
0000
0000
0000
,
0000
0000
0000
0000
,
0000
0000
0000
0000
,
0000
0000
0000
0000
,
1000
0000
0001
0000
,
1000
0010
1000
0000
,
0001
0000
0100
0000
,
0001
0001
0001
0000
,
1000
0000
0010
0000
,
0100
0000
0010
0000
,
1000
0000
0001
0000
,
0100
0000
0001
0000
,
0010
0000
0010
0000
,
0010
0000
0001
0000
,
0001
0000
0001
0000
,
1000
0000
1000
0000
,
0001
0000
0001
0000
,
0100
0100
0100
0000
,
0010
0000
0010
0000
,
1000
0000
1000
1000
,
1000
0000
0001
0000
,
0001
0000
0100
0000
,
0100
0000
0010
0000
,
0010
0000
0010
0000
,
1000
0000
0001
0000
,
1000
0000
0010
0000
,
0010
0010
0010
0000
,
0100
0100
0100
0000
,
0001
0001
0001
0000
,
1000
0000
1000
1000
,
0001
1000
0000
0001
,
0100
0001
0000
0000
,
1000
0001
1000
0000
,
0001
0000
0000
1000
,
0010
1000
0000
0010
,
0000
0010
0000
0100
,
0000
0100
0000
0001
,
0000
0001
0000
1000
,
0000
0001
0000
1000
,
1000
1000
0000
0000
,
0000
0000
0000
0010
,
0010
0010
0000
0100
,
0000
0001
0000
0100
,
0100
0100
0000
0010
,
0000
1000
0000
0001
,
0000
1000
0000
0001
,
0000
0100
0000
0010
,
0010
0010
0000
1000
,
1000
1000
0000
0001
,
0000
0001
0000
0100
,
0000
0100
0000
0010
,
0010
0010
0000
1000
,
0000
0001
0000
1000
,
0000
0001
0000
0100
,
0000
0010
0000
1000
,
0000
0001
0000
1000
,
0000
0100
0000
0010
,
0000
0001
0000
0100
,
0000
0100
0000
0010
,
0000
0010
0000
1000
,
0000
1000
0000
0001
,
0000
0001
0000
0100
,
0000
0100
0000
0010
,
0000
1000
0000
1000
,
0000
0001
0000
0001
,
0000
1000
0000
1000
,
0000
0100
0000
0010
,
0000
0001
0000
1000
,
0000
0001
0000
0100
,
0000
0010
0000
1000
,
0000
0010
0000
1000
,
0000
0001
0000
0100
,
0000
0001
0000
1000
,
0000
0001
0000
1000
;

//---------------dance-single - ----------------
#NOTEDATA:;
#CHARTNAME:;
#STEPSTYPE:dance-single;
#DESCRIPTION:;
#CHARTSTYLE:;
#DIFFICULTY:Easy;
#METER:6;
#RADARVALUES:0.274716,0.297705,0.000000,0.025527,0.000000,226.000000,226.000000,0.000000,3.000000,0.000000,0.000000,0.000000,0.000000,0.000000,0.274716,0.297705,0.000000,0.025527,0.000000,226.000000,226.000000,0.000000,3.000000,0.000000,0.000000,0.000000,0.000000,0.000000;
#CREDIT:;
#NOTES:
0000
0000
0000
0000
,
0000
0000
0000
0000
,
0000
0000
0000
0000
,
0000
0000
0000
0000
,
0000
0000
0000
0000
,
0000
0000
0000
0000
,
0000
0000
0000
0000
,
0000
0000
0000
0000
,
0001
1000
0001
0000
,
1000
0100
1000
0000
,
0001
0010
0001
0000
,
0100
0100
0010
0000
,
1000
0001
1000
0000
,
0001
0100
0001
0000
,
1000
0100
1000
0000
,
0010
0100
0001
0000
,
0100
0000
0001
0000
,
1000
0000
0100
0000
,
0100
0000
0010
0000
,
0010
0000
0000
0000
,
0001
1000
0001
1000
,
0010
0000
0100
0100
,
0010
0000
1000
0000
,
0001
1000
0100
0010
,
0001
0000
1000
0000
,
0001
1000
0100
0000
,
1000
0100
0010
0100
,
1000
0000
0001
0100
,
0010
0010
0100
0100
,
0001
1000
0001
1000
,
0010
0010
0010
0010
,
0100
0100
0100
0100
,
0001
1000
0001
1000
,
0010
0010
0100
0000
,
0100
0001
1000
0001
,
0100
0010
0100
0010
,
1000
0100
1000
0100
,
0010
0001
0010
0000
,
0001
0100
0001
0100
,
0010
1000
0010
1000
,
0000
0001
1000
0001
,
0100
0001
0100
0010
,
0000
1000
0010
1000
,
0010
0100
0010
0100
,
0000
0001
0010
0001
,
0010
0100
0010
0100
,
0000
1000
0100
1000
,
0100
0010
0001
0010
,
0000
0001
0100
0001
,
0000
1000
0100
1000
,
0000
0010
0000
0100
,
0100
0100
0000
0010
,
0010
0010
0000
1000
,
0001
1000
0000
0001
,
0001
0001
0000
0100
,
0001
0100
0000
0010
,
1000
0010
0000
1000
,
0100
0010
0001
0100
,
0000
0100
0000
0010
,
0010
0010
0000
1000
,
0000
0001
0000
2000
,
0000
3002
0000
0203
,
0000
0000
0000
0310
,
1000
0100
0010
0001
,
0100
0001
0000
1000
,
0100
1000
0000
0010
,
0010
0100
0100
0001
,
1000
0001
0000
1000
,
0100
1000
0000
0001
,
0001
0100
0100
1000
,
1000
0100
0100
0001
,
0001
0010
0010
1000
,
1000
0010
0010
0001
,
0001
0100
0100
0010
,
0010
1000
1000
0001
,
0001
0100
0100
0010
,
0010
1000
1000
0001
,
0001
1000
1000
0010
;

//---------------dance-single - ----------------
#NOTEDATA:;
#CHARTNAME:;
#STEPSTYPE:dance-single;
#DESCRIPTION:;
#CHARTSTYLE:;
#DIFFICULTY:Medium;
#METER:11;
#RADARVALUES:0.446109,0.660823,0.459481,0.102107,0.021272,367.000000,313.000000,54.000000,12.000000,0.000000,0.000000,0.000000,0.000000,0.000000,0.446109,0.660823,0.459481,0.102107,0.021272,367.000000,313.000000,54.000000,12.000000,0.000000,0.000000,0.000000,0.000000,0.000000;
#CREDIT:;
#NOTES:
0000
0000
0000
0000
,
0000
0000
0000
0000
,
0000
0000
0000
0000
,
0000
0000
0000
0000
,
0000
0000
0000
0000
,
0000
0000
0000
0000
,
0000
0000
0000
0000
,
0000
0000
0000
0000
,
1001
0001
1000
0010
,
0100
0000
0001
0000
0010
0001
0010
0000
,
1001
1000
0100
1000
,
0010
0000
0100
0000
0010
0100
0010
0100
,
0001
0000
1000
0000
0001
0100
0001
0000
,
1000
0000
0010
0000
1000
0010
1000
0000
,
0001
0100
0001
0010
,
0001
1000
0001
1000
0100
0010
0100
0010
,
0001
0000
0000
1000
0000
0000
0002
0000
0000
0000
0000
0000
0000
0000
0000
0000
,
1003
0000
0000
0001
0000
0000
0200
0000
0000
0000
0000
0000
0000
0000
0000
0000
,
0301
0000
0000
1000
0000
0000
0020
0000
0000
0000
0000
0000
0000
0000
0000
0000
,
2030
0000
0000
3001
,
0101
0000
1000
0000
0010
1000
0001
1000
,
0010
0000
0100
0000
0001
0001
1000
0000
,
1001
0100
0010
1000
,
0010
0001
0010
1000
,
0101
0000
0100
0000
0010
0100
0010
0000
,
1000
0000
0100
0000
1000
0100
1000
0000
,
0100
0000
0010
0000
0001
1000
0001
1000
,
0100
0000
0010
0000
0100
0010
0100
0010
,
0001
0001
0001
0000
1000
1000
1000
0000
,
0010
0000
0010
0000
0100
0000
0100
0100
0001
0000
0001
0000
1000
0000
1000
0000
,
1001
0110
1001
0110
,
1100
0011
1100
0011
,
1000
0001
1000
0001
0100
0001
0100
0001
,
1000
0000
0000
0010
0000
0000
0100
0000
0110
0000
0000
0000
1001
0000
0000
0000
,
1010
0000
0110
0000
0101
0000
0001
1000
,
0001
1000
0010
0110
,
0101
1001
0101
1001
,
0101
1010
0000
1010
,
0110
0101
0110
1010
,
0110
0101
0110
1010
,
0000
0101
1010
0110
,
0000
0100
0010
1001
,
1001
0110
0000
0110
,
1001
0110
0000
1100
,
0011
0000
1100
0000
0000
0000
0001
0100
,
0001
0100
0001
0000
0000
0000
1000
0000
,
1010
0010
0110
0100
,
0101
0001
1001
1001
,
0000
0110
0000
1001
,
0000
0000
1000
0100
1000
0000
0010
0000
,
0010
0000
0100
0000
0100
0000
0001
0010
,
0001
0000
1000
0100
1000
0000
0010
0100
,
0010
0000
0100
0001
0100
0000
0001
0000
,
1000
1001
0000
0100
,
0100
0000
0010
0000
0010
0000
1000
0100
,
1000
0000
0001
0010
0001
0000
0100
0000
,
0010
0010
1000
0001
,
0100
0000
0001
0000
0010
0000
0001
1000
,
0000
0000
0001
0100
0000
0000
0001
1000
,
0000
0000
0010
1000
0000
0000
0200
0000
,
0000
0320
0032
2003
,
3020
2030
3200
0000
,
1300
0001
0010
0001
,
0100
0000
0010
0100
0010
0000
1000
0000
,
0001
0000
0100
0001
0100
0000
0001
0000
,
0010
0100
1000
0001
,
1000
0000
0001
0100
0001
0000
0100
0000
,
0010
0000
1000
0010
1000
0000
0100
0000
,
0001
0100
1000
0001
,
0010
0000
0001
0010
0001
0000
0100
0000
,
0010
0100
0010
1000
,
0001
1000
0001
0100
,
0001
0000
0100
0001
0100
0000
0001
0000
,
0010
0000
0100
0010
0100
0000
1000
0000
,
0100
1000
0100
0010
,
0001
0000
0010
0000
0001
0000
0100
0010
,
0100
0000
0010
0100
0010
0000
1000
0001
,
1000
0000
0001
1000
0001
0000
0200
0000
,
0000
0000
0000
0000
,
0000
0000
0000
0000
,
0000
0000
0000
0000
,
0000
0000
0000
0300
;

//---------------dance-single - ----------------
#NOTEDATA:;
#CHARTNAME:;
#STEPSTYPE:dance-single;
#DESCRIPTION:;
#CHARTSTYLE:;
#DIFFICULTY:Hard;
#METER:14;
#RADARVALUES:0.749999,0.904283,0.314829,0.161669,0.510534,617.000000,580.000000,37.000000,19.000000,0.000000,0.000000,0.000000,0.000000,0.000000,0.749999,0.904283,0.314829,0.161669,0.510534,617.000000,580.000000,37.000000,19.000000,0.000000,0.000000,0.000000,0.000000,0.000000;
#CREDIT:;
#NOTES:
// measure 0
0000
0000
0000
0000
,  // measure 1
0000
0000
0000
0000
,  // measure 2
0000
0000
0000
0000
,  // measure 3
0000
0000
0000
0000
,  // measure 4
0000
0000
0000
0000
,  // measure 5
0000
0000
0000
0000
,  // measure 6
0000
0000
0000
0000
,  // measure 7
0000
0000
0000
0000
,  // measure 8
0010
0000
0000
0000
1001
0000
0000
1000
0010
0000
0100
0000
0001
0000
0010
0000
,  // measure 9
0100
1000
0010
0100
0001
0001
1000
0000
,  // measure 10
1001
0000
0000
0001
0100
0000
0001
0000
1000
0000
0100
0000
0010
0000
0001
0000
,  // measure 11
0100
0000
0010
0000
1000
0000
0100
0000
1000
0000
0001
0010
0001
0000
1000
0000
,  // measure 12
0001
0000
0000
0000
0101
0000
0000
0001
0100
0000
0001
0000
0010
0000
0100
0000
,  // measure 13
1000
0010
1000
0010
0100
0001
0100
0001
,  // measure 14
0010
0000
0000
0000
0011
0000
0000
0010
0001
0000
0100
0000
0001
0000
0100
0000
,  // measure 15
0010
0000
1000
0000
0010
0000
1000
0000
0001
0100
0001
0000
0100
0000
0010
0000
,  // measure 16
1000
0000
0000
1001
0000
0000
2002
0000
0000
0000
0000
0000
3003
0000
0000
0000
,  // measure 17
0110
0000
0000
0110
0000
0000
0220
0000
0000
0000
0000
0000
0330
0000
0000
0000
,  // measure 18
1001
0000
0000
0110
0000
0000
2002
0000
0000
0000
0000
0000
3003
0000
0000
0000
,  // measure 19
0001
1000
0001
0000
0100
0000
0010
0000
0100
0000
0100
0000
0000
0000
0000
0000
,  // measure 20
1001
0000
0000
0001
0010
0000
0001
0000
0100
0000
0010
0000
1000
0000
0100
0000
,  // measure 21
0010
0001
0100
0010
1000
1000
0001
0000
,  // measure 22
0101
0000
0000
0001
0010
0000
0100
0000
1000
0000
0001
0000
1000
0000
0010
0000
,  // measure 23
0100
0000
0001
0000
0010
0000
0001
0000
1000
0100
1000
0000
0010
0000
0100
0000
,  // measure 24
0101
0000
0000
0001
0010
0000
0001
0000
1000
0000
0100
0000
1000
0000
0010
0000
,  // measure 25
0100
0001
0010
0001
0100
0100
0010
0000
,  // measure 26
1001
0000
0000
0001
0100
0000
0001
0000
0010
0100
0010
0000
0001
0000
1000
0000
,  // measure 27
0100
0000
0100
0000
1000
0000
0010
0000
1000
0001
1000
0000
0001
0100
0001
0000
,  // measure 28
1000
0000
0000
0000
0001
0000
0000
0000
0100
0000
0000
0000
0100
0000
0010
0000
1000
0000
0000
0100
0000
0000
0010
0000
0002
0000
0000
0000
0003
0000
0000
0000
,  // measure 29
0010
0000
0001
0000
0010
0000
0100
0000
2000
0000
0000
0000
3001
0000
1000
0000
0100
0000
0000
1000
0000
0000
0001
0000
0100
0000
0001
0000
0010
0000
0100
0000
,  // measure 30
1000
0001
1000
0001
1000
0000
0000
0000
0010
0100
0010
0100
0010
0000
0000
0000
,  // measure 31
1000
1000
0100
0001
0100
0000
0010
0001
,  // measure 32
1000
0001
0010
0100
1000
0100
0010
0001
,  // measure 33
1000
0000
0000
1010
0000
0000
1001
0000
0101
0000
0000
0000
1001
0000
0000
0000
,  // measure 34
0110
0000
0000
0000
0100
0001
0000
0100
0001
0000
1000
0000
0010
0000
0010
0000
,  // measure 35
0100
0000
0001
0000
0010
0001
0000
1000
0001
0000
1000
0000
0100
0000
1000
0000
,  // measure 36
0001
0000
0001
0000
0100
0000
0010
0000
1000
0000
0100
0000
0010
0001
0000
0100
,  // measure 37
0001
1000
0010
0100
0010
0000
0110
0000
,  // measure 38
0101
0000
0000
0000
0100
0010
0000
0100
0001
0000
0010
0000
0001
0000
0010
0000
,  // measure 39
0100
0000
1000
0000
0010
0000
0010
0000
0100
0000
0001
0000
0010
0001
0000
1000
,  // measure 40
0001
0000
1000
0000
0001
1000
0000
0001
0100
0000
0010
0000
1000
0100
1000
0000
,  // measure 41
0100
0010
0100
0000
0010
0001
0010
0000
0001
0000
1000
0000
1010
0000
0000
0000
,  // measure 42
0101
0000
0000
0000
0001
1000
0000
0010
1000
0000
0001
0000
0100
0001
0100
0000
,  // measure 43
0010
0000
0010
0000
1000
0100
0000
1000
0010
0000
0100
0000
0001
0000
0001
0000
,  // measure 44
1000
0001
1000
0000
0010
0000
0010
0000
0100
0010
0100
0000
0001
1000
0000
0001
,  // measure 45
1000
0010
1000
0100
0010
0001
0101
0000
,  // measure 46
1100
0000
0000
0000
0100
0010
0000
0010
1000
0000
0001
0000
0100
0000
0100
0000
,  // measure 47
0001
0000
0001
0000
0100
0010
0100
0000
0010
1000
0010
0000
1000
0000
0000
0000
,  // measure 48
0001
0000
0100
0000
0001
1000
0000
1000
0100
0000
1000
0000
0010
0100
0010
0000
,  // measure 49
0100
0000
0001
0000
0100
0001
0100
0000
0010
0000
1000
0000
1001
0000
0000
0000
,  // measure 50
0110
0000
0000
0000
0001
1000
0000
1000
0010
0000
1000
0000
0001
0100
0000
0100
,  // measure 51
0010
0000
1000
0000
0100
0010
0100
0000
0010
0000
0001
0000
1000
0000
0010
0000
,  // measure 52
1000
0000
0010
0000
0100
0000
0001
0000
0100
0000
0001
0000
0010
0001
0000
0001
,  // measure 53
1000
0010
1000
0100
0010
0000
0011
0000
,  // measure 54
1001
0000
0000
0000
1000
0010
0000
0010
0100
0000
0001
0000
1000
0010
1000
0000
,  // measure 55
0001
0100
0001
0000
1001
0000
1000
0000
0010
0000
0100
0000
0110
0000
0000
0000
,  // measure 56
0001
0010
0001
0000
1000
0000
0100
0000
1000
0000
0010
0000
0100
0010
0100
0000
,  // measure 57
0010
0000
1000
0100
1000
0000
0001
0000
1000
0001
1000
0000
1001
0000
0000
0101
,  // measure 58
0000
0000
0000
0000
1001
0000
0000
1010
0000
0000
0010
0000
1000
0000
0001
0000
,  // measure 59
1000
0001
0100
0001
0100
0010
0200
0000
,  // measure 60
0000
0302
0023
0230
,  // measure 61
2300
0000
3002
0000
0203
0000
0310
1000
,  // measure 62
0001
1000
0000
0001
0100
0000
0001
0000
0010
0001
0010
0000
0001
0000
1000
0000
,  // measure 63
0100
1000
0000
0100
1000
0000
0010
0000
0100
0010
0100
0000
0001
0010
0000
0001
,  // measure 64
0010
0000
0100
0000
1000
0001
1000
0000
0100
1000
0100
0000
1000
0000
0100
0000
,  // measure 65
0010
0001
0100
0100
0010
0010
1000
0001
,  // measure 66
1000
0100
0000
1000
0100
0000
0010
0000
0001
1000
0000
0001
1000
0000
0100
0000
,  // measure 67
0010
0100
0010
0000
0001
0000
0010
0000
0100
1000
0100
0000
1000
0000
1000
0000
,  // measure 68
0001
0000
0010
0000
0001
0010
0001
0000
1000
0001
1000
0000
0100
0010
0100
0000
,  // measure 69
0010
0000
0001
0000
1000
0000
0100
0000
0010
0000
0001
0000
0100
0010
0100
0000
,  // measure 70
0010
0000
1000
0000
0001
0100
0000
0100
0002
0000
0000
0000
1003
0001
1000
0000
,  // measure 71
0010
1000
0000
1000
0001
0000
0100
0000
0002
0000
0000
0000
1003
0001
1000
0000
,  // measure 72
0100
0000
1000
0000
0010
0100
0000
0100
0001
0000
0010
0000
0001
1000
0001
0000
,  // measure 73
0010
0000
0100
0000
0010
0001
0010
0000
0001
0000
1000
0001
1000
0000
0100
0000
,  // measure 74
1000
0100
0010
1000
0010
0001
0100
0001
,  // measure 75
0100
0000
0010
0000
0001
0000
0010
0000
1000
0001
1000
0000
0010
0000
0100
0000
,  // measure 76
0001
0000
0100
0000
0010
0000
0100
0000
0001
0000
0100
0000
0010
0100
0000
0100
,  // measure 77
0001
0000
1000
0000
0001
1000
0001
1000
0001
1000
0001
2000
0002
0000
0000
0000
,  // measure 78
0000
0000
0000
0000
,  // measure 79
0000
0000
0000
0000
,  // measure 80
0000
0000
0000
0000
,  // measure 81
0000
0000
0000
3003
;

//---------------dance-single - ----------------
#NOTEDATA:;
#CHARTNAME:;
#STEPSTYPE:dance-single;
#DESCRIPTION:;
#CHARTSTYLE:;
#DIFFICULTY:Challenge;
#METER:1;
#RADARVALUES:0.166531,0.261649,0.093598,0.000000,0.178687,137.000000,126.000000,11.000000,0.000000,0.000000,0.000000,0.000000,0.000000,0.000000,0.166531,0.261649,0.093598,0.000000,0.178687,137.000000,126.000000,11.000000,0.000000,0.000000,0.000000,0.000000,0.000000,0.000000;
#CREDIT:;
#NOTES:
// measure 0
0000
0000
0000
0000
,  // measure 1
0000
0000
0000
0000
,  // measure 2
0000
0000
0000
0000
,  // measure 3
0000
0000
0000
0000
,  // measure 4
0000
0000
0000
0000
,  // measure 5
0000
0000
0000
0000
,  // measure 6
0000
0000
0000
0000
,  // measure 7
0000
0000
0000
0000
,  // measure 8
1001
0000
0000
0000
0101
0000
0000
0100
0001
0100
0001
0000
1000
0000
0100
0000
,  // measure 9
0010
0001
1000
0001
0010
0100
1000
0000
,  // measure 10
1001
0000
0000
0000
1000
0010
1000
0010
1000
0000
0001
0000
1000
0000
0100
0000
,  // measure 11
1000
0001
1000
0000
0001
0000
1000
0000
0010
0100
0010
0100
0010
0100
0010
0100
,  // measure 12
0001
0000
0000
0000
0101
0000
0000
0001
1000
0010
1000
0010
1000
0000
0010
0000
,  // measure 13
0100
0001
1000
0001
0100
0100
0100
0000
,  // measure 14
0110
0000
0000
0010
1000
0001
1000
0001
1000
0000
0001
0000
0010
0000
0100
0010
,  // measure 15
0001
0000
1000
0100
0010
0000
0100
0000
1000
0001
1000
0001
1000
0001
1000
0001
,  // measure 16
0100
0000
0000
0110
0000
0000
0010
0100
0010
0100
0010
0100
0010
0100
0010
0000
,  // measure 17
1010
0000
0000
1001
0000
0000
0001
0100
0001
0100
0001
0100
0001
0100
0001
0000
,  // measure 18
0011
0000
0000
0110
0000
0000
0100
1000
0100
1000
0100
1000
0100
1000
0001
0100
,  // measure 19
0001
0100
0001
0100
0001
0100
0001
0100
0001
0000
1000
0000
0000
0000
1000
0000
,  // measure 20
0010
0000
0000
0000
0110
0000
0000
0100
0001
0000
0000
0000
0000
0000
0000
0000
;
