#TITLE:Milky Way Galaxy;
#SUBTITLE:;
#ARTIST:3R2;
#TITLETRANSLIT:;
#SUBTITLETRANSLIT:;
#ARTISTTRANSLIT:;
#GENRE:;
#CREDIT:;
#BANNER:Milky Way Galaxy.png;
#BACKGROUND:;
#LYRICSPATH:;
#CDTITLE:;
#MUSIC:Milky Way Galaxy.ogg;
#OFFSET:-0.151000;
#SAMPLESTART:71.379990;
#SAMPLELENGTH:15.000000;
#SELECTABLE:YES;
#BPMS:0.000000=175.000000
;
#STOPS:
;
#BGCHANGES:;
#KEYSOUNDS:;
#ATTACKS:;

//---------------dance-single - ----------------
#NOTES:
     dance-single:
     :
     Beginner:
     1:
     0.187711,0.246242,0.010346,0.000000,0.000000,127.000000,126.000000,1.000000,0.000000,0.000000,0.000000,0.187711,0.246242,0.010346,0.000000,0.000000,127.000000,126.000000,1.000000,0.000000,0.000000,0.000000:
0000
0000
0000
0000
,
0000
0000
0000
0000
,
0000
0000
0000
0000
,
0000
0000
0000
0000
,
1000
0000
1000
0000
,
0001
0000
0001
0000
,
0100
0000
0100
0000
,
0010
0000
0000
0000
,
1000
0000
1000
0000
,
0001
0000
0000
0000
,
0001
0000
0001
0000
,
0100
0000
0000
0000
,
0010
0000
0000
0000
,
0010
0000
0000
0000
,
1000
1000
1000
0000
,
0001
0001
0001
0000
,
0100
0100
0100
0000
,
0010
0010
0010
0000
,
1000
0001
1000
0000
,
0001
1000
0001
0000
,
0100
0000
0100
0000
,
0010
0000
0010
0000
,
1000
0100
1000
0000
,
0100
0010
0100
0000
,
0010
0001
0010
0000
,
0001
1000
0001
0000
,
1000
0100
1000
0000
,
0100
0010
0100
0000
,
0010
0000
0000
0000
,
0001
0000
0000
0000
,
1000
0000
0000
0000
,
0100
0000
0000
0000
,
1000
0000
0000
0000
,
0001
0000
0000
0000
,
0010
0000
0000
0000
,
0001
0000
0000
0000
,
1000
0000
0000
0000
,
1000
0000
0000
0000
,
0100
0000
0000
0000
,
0100
0000
0000
0000
,
0010
0000
0000
0000
,
0010
0000
0000
0000
,
0001
0000
0000
0000
,
0001
0000
0000
0000
,
1000
0000
0000
0000
,
1000
0000
0000
0000
,
0100
0000
0100
0000
,
0100
0000
0100
0000
,
0010
0000
0010
0000
,
0010
0000
0010
0000
,
0010
0010
0010
0010
,
0010
0000
0000
0000
,
0001
0000
0001
0000
,
1000
0000
1000
0000
,
0001
0000
0001
0000
,
0100
0000
0100
0000
,
0010
0000
0010
0000
,
1000
0000
1000
0000
,
0001
1000
0001
0000
,
0100
0010
0100
0000
,
0010
1000
0010
0000
,
1000
0100
1000
0000
,
0001
0100
0001
0000
,
1000
0010
1000
0000
,
0001
1000
0001
0000
,
1000
0000
1000
0000
,
0100
0000
0100
0000
,
0010
0000
0010
0000
,
1001
0000
0000
0000
;

//---------------dance-single - ----------------
#NOTES:
     dance-single:
     :
     Easy:
     7:
     0.329603,0.566977,0.382813,0.113809,0.000000,223.000000,186.000000,37.000000,11.000000,0.000000,0.000000,0.329603,0.566977,0.382813,0.113809,0.000000,223.000000,186.000000,37.000000,11.000000,0.000000,0.000000:
0000
0000
0000
0000
,
0000
0000
0000
0000
,
0000
0000
0000
0000
,
0000
0000
0000
0000
,
1000
0000
1000
0000
,
0001
0000
0001
0000
,
0010
0000
0010
0000
,
0100
0000
0100
0000
,
1000
1000
1000
0000
,
0001
0001
0001
0000
,
0100
0100
0010
0010
,
1000
0000
0000
0000
,
0001
1000
0001
0000
,
0100
0010
1000
0000
,
0001
1000
0001
0000
,
0100
0001
0010
0000
,
0100
1000
0010
0000
,
1000
0001
0100
0000
,
0001
0010
0001
0000
,
1000
0100
1000
0000
,
0010
0010
0010
0000
,
0100
0100
0100
0000
,
0001
0001
1001
0000
,
1000
1000
1010
0000
,
0100
0100
0100
0000
,
0001
0001
1001
0000
,
1000
1000
1000
0010
,
0010
0100
0001
0010
,
0200
0000
0000
0000
,
2300
0000
0000
0000
,
3002
0000
0000
0000
,
0023
0000
0000
0000
,
0032
0000
0000
0000
,
0203
0000
0000
0000
,
0320
0000
0000
0000
,
2030
0000
0000
0000
,
3002
0000
0000
0000
,
0103
0100
0100
0100
,
0000
0010
0000
0010
,
0000
0010
0000
0010
,
0000
1000
0000
1000
,
0000
0001
0001
0100
,
0010
1000
0100
1000
,
0010
0010
0010
0010
,
0100
0001
0010
0001
,
1001
1000
0100
1000
,
1100
0100
0010
0001
,
0011
0001
0100
0010
,
0110
0010
0110
0100
,
0101
0001
1001
1000
,
1010
1010
1100
1100
,
0101
0000
0000
0000
,
0011
1100
0101
0000
,
1100
1010
1010
0000
,
0011
0101
0101
0000
,
0110
1001
1001
0000
,
0011
0011
1100
0000
,
1000
0100
0001
0000
,
1000
0010
0001
0000
,
0001
0100
1000
0010
,
0001
1000
0100
0001
,
0010
1000
0100
0001
,
1001
1000
0100
0010
,
0011
0100
0010
0100
,
0110
0010
1000
0001
,
1001
1000
0001
1000
,
1001
0001
0100
0010
,
0110
0010
0100
0001
,
2002
0000
3003
0000
;

//---------------dance-single - ----------------
#NOTES:
     dance-single:
     :
     Medium:
     10:
     0.424198,0.566977,0.217272,0.155194,0.031039,287.000000,266.000000,21.000000,15.000000,0.000000,0.000000,0.424198,0.566977,0.217272,0.155194,0.031039,287.000000,266.000000,21.000000,15.000000,0.000000,0.000000:
0000
0000
0000
0000
,
0000
0000
0000
0000
,
0000
0000
0000
0000
,
0000
0000
0000
0000
,
0001
0000
1000
0001
1000
0000
0010
0000
,
0100
0000
0001
0000
0010
0001
0010
0000
,
0100
0000
1000
0100
1000
0000
0001
0000
,
1000
0010
0100
0100
,
0010
0000
1000
0010
1000
0000
0001
0000
,
0100
0001
0100
0010
,
1000
0001
1000
0000
0001
1000
0001
0000
,
0200
0000
0000
0000
,
0310
0000
0010
0000
1000
0001
1000
0000
,
0010
0000
0010
0000
0100
0001
0100
0000
,
0001
0000
0001
0000
1000
0001
1000
0000
,
0010
1000
0010
0000
0100
0000
0100
0000
,
0001
1000
0001
0000
1000
0000
0010
0000
,
0100
0010
1000
0100
,
0010
0000
0000
0010
0000
0000
0001
0000
0000
1000
0000
0000
0001
0000
1000
0000
,
0001
0000
0000
0100
0000
0000
0010
0000
0000
1000
0000
0000
0010
0000
0100
0000
,
0001
0001
0100
0010
,
1001
1000
0001
0001
,
0101
0100
0010
0010
,
1000
0100
1000
0000
0001
0100
0001
0000
,
1000
0000
0000
1010
0000
0000
0010
0000
0000
0100
0000
0000
0010
0000
0100
0000
,
0001
0001
1000
1000
,
0010
0100
0010
0000
0100
0010
0100
0000
,
0020
0000
1000
1000
,
2030
0000
0000
0000
,
3002
0000
0000
0000
,
0203
0000
0000
0000
,
0320
0000
0000
0000
,
2030
0000
0000
0000
,
3200
0000
0000
0000
,
0320
0000
0000
0000
,
0030
0002
0023
0230
,
2300
0000
0000
0000
,
3010
0010
0010
0010
,
0100
0100
0100
0100
,
0001
0001
0001
0001
,
1000
1000
1000
1000
,
0001
0001
0001
0001
,
0100
0100
0100
0100
,
0010
0010
0010
0010
,
1000
0001
1000
0000
0001
0000
0100
0000
,
0001
0100
0001
0000
1000
0000
0010
0000
,
0100
0010
0100
0000
0010
0000
1000
0000
,
0100
1000
0100
0000
0010
0000
0001
0000
,
1001
0010
0110
0001
,
1001
0100
0110
0010
,
1010
1000
0110
0011
,
0101
0000
0000
0000
,
1000
0000
0001
0000
0100
0001
0100
0001
,
1000
0000
0010
0000
1000
0010
1000
0010
,
0100
0000
0010
0000
0100
0010
0100
0010
,
0100
0000
0001
0000
1000
0001
1000
0001
,
1000
0000
0100
0000
1000
0100
1000
0000
,
0010
0000
0100
0000
0001
0100
0001
0000
,
1000
0000
1010
0000
0010
0100
0010
0000
,
1000
0000
0101
0000
1000
0010
1000
0000
,
0010
0100
0001
0000
0100
0010
0100
0000
,
0010
0000
1000
0000
0010
1000
0010
0000
,
1000
0000
0001
0000
0100
0001
0100
0000
,
0001
0000
1000
0000
0010
1000
0010
0000
,
1010
0000
0101
0000
1000
0001
1000
0000
,
0101
0000
1010
0000
0001
0100
0001
0000
,
1010
0100
0110
0010
,
1001
0000
0000
0000
,
2002
0000
3003
0000
;

//---------------dance-single - ----------------
#NOTES:
     dance-single:
     :
     Hard:
     15:
     0.767104,0.921337,0.362120,0.279350,0.719067,519.000000,484.000000,35.000000,27.000000,0.000000,0.000000,0.767104,0.921337,0.362120,0.279350,0.719067,519.000000,484.000000,35.000000,27.000000,0.000000,0.000000:
// measure 0
0000
0000
0000
0000
,  // measure 1
0000
0000
0000
0000
,  // measure 2
0000
0000
0000
0000
,  // measure 3
0000
0000
0000
0000
,  // measure 4
0100
0010
1000
0100
0010
0001
0000
0101
,  // measure 5
0000
0110
0000
1010
0000
1001
0000
0001
,  // measure 6
0000
0100
0010
1000
0010
0100
0000
0100
,  // measure 7
0102
0000
2003
0000
3001
0100
1000
0100
,  // measure 8
0001
1000
0010
1000
0100
0010
0000
0001
,  // measure 9
1001
1000
0010
0100
,  // measure 10
0001
1000
0001
0000
1000
0001
1000
0000
,  // measure 11
2002
0000
0000
0000
0000
0000
0000
3003
,  // measure 12
1000
0001
0000
1000
0001
0000
0100
0001
0000
0100
0001
0000
0010
0000
0100
0000
,  // measure 13
1000
0010
0000
1000
0010
0000
1000
0100
0000
1000
0100
0000
0010
0000
0001
0000
,  // measure 14
0100
0010
0000
0100
0010
0000
1000
0001
0000
1000
0001
0000
0010
0000
1000
0000
,  // measure 15
0010
0001
0000
0010
0001
0000
1000
0001
0000
1000
0001
0000
0100
0000
0001
0000
,  // measure 16
0100
1000
0000
0100
0001
0000
0100
1000
0000
0100
0001
0000
0010
0000
1000
0000
,  // measure 17
0010
0001
0000
0010
1000
0000
0010
0001
0000
0001
0100
0000
0010
0000
1000
0000
,  // measure 18
0100
0010
0000
0001
0010
0000
0100
0010
0000
0001
0010
0000
0001
0000
1000
0000
,  // measure 19
0100
0000
0000
1100
0000
0000
1001
0000
0000
0101
0000
0000
0100
0000
0010
0000
,  // measure 20
1000
0001
0000
0010
0001
0000
0100
0001
0000
0010
0001
0000
1000
0000
1010
0000
,  // measure 21
0010
0100
0000
0001
0100
0000
0010
0100
0000
0001
0100
0000
0010
0000
1000
0000
,  // measure 22
1001
0000
0000
1100
0000
0000
1010
0000
0000
0110
0000
0000
0100
0000
0001
0000
,  // measure 23
0010
0010
1000
1000
0010
0010
0001
0001
,  // measure 24
1000
0001
0000
0001
0100
0000
0100
0010
0000
0010
1000
0000
0001
0000
1000
0000
,  // measure 25
0010
0100
0000
0100
0001
0000
0001
0010
0000
0010
1000
0000
1000
0000
0010
0000
,  // measure 26
0001
0100
0000
0100
1000
0000
1000
0100
0000
0100
0001
0000
0001
0000
1000
0000
,  // measure 27
1010
0000
0000
0110
0000
0000
0101
0000
0000
1001
0000
0000
1010
0000
0110
0000
,  // measure 28
0201
0000
0302
0000
,  // measure 29
2003
0010
3020
0100
,  // measure 30
0230
0000
0000
0001
0000
0000
0001
0000
,  // measure 31
2300
0010
0000
0010
0000
0010
0000
0010
,  // measure 32
3200
0000
0302
0000
,  // measure 33
2003
0000
3002
0000
,  // measure 34
0203
0000
0000
0001
0000
0000
0000
0000
,  // measure 35
0300
0002
0023
0230
,  // measure 36
2300
0001
0001
0001
,  // measure 37
3002
0100
0100
0100
,  // measure 38
0203
0010
0010
0010
,  // measure 39
0320
1000
1000
1000
,  // measure 40
2030
0010
0010
0010
,  // measure 41
3200
0001
0001
0001
,  // measure 42
0320
0100
0001
0100
,  // measure 43
1030
0000
0001
0000
1000
0100
0010
0001
,  // measure 44
0100
0010
0000
0100
0010
0000
1000
0000
0001
0000
1000
0000
0010
0000
0100
0000
,  // measure 45
0001
0010
0000
0001
0010
0000
0100
0000
1000
0000
0100
0000
0001
0000
0100
0000
,  // measure 46
1000
0001
0000
1000
0001
0000
1000
0001
1000
0000
0001
0100
0001
0000
0100
0001
,  // measure 47
0100
0000
0000
1001
0000
0000
1000
0001
1000
0000
0001
1000
0001
0000
1000
0000
,  // measure 48
1100
0000
0000
1001
0000
0000
0001
0000
0101
0000
0000
0110
0000
0000
0010
1000
,  // measure 49
0001
0000
0000
1001
0000
0000
1000
0001
0100
0000
0000
0110
0000
0000
0010
0000
,  // measure 50
0100
0000
0001
0000
0010
0000
0001
0000
1000
0100
1000
0100
0010
0001
0010
0001
,  // measure 51
0100
0000
0100
0000
0100
0000
0000
0000
0001
1000
0001
1000
0001
0000
0000
0000
,  // measure 52
1000
0010
0000
1000
0010
0000
1000
0001
1000
0001
1000
0000
0001
0000
0100
0000
,  // measure 53
0001
0010
0000
0001
1000
0000
0100
1000
0001
0000
1000
0000
0010
0100
0010
0000
,  // measure 54
1000
0001
0000
1000
0001
0000
0010
0001
0100
0000
0001
1000
0010
0000
1000
0000
,  // measure 55
0001
0100
0000
0001
0100
0000
0010
0100
0000
0100
0010
1000
0001
1000
0001
0000
,  // measure 56
1000
0100
0000
0100
0010
0000
0001
0010
0001
0010
0001
0000
1000
0001
1000
0000
,  // measure 57
0010
1000
0000
0100
1000
0000
0001
1000
0001
0000
0100
0001
0010
0000
0001
0000
,  // measure 58
1000
0010
0000
1000
0010
0000
1000
0001
1000
0000
0001
0010
0001
0000
0100
0000
,  // measure 59
0110
0000
0000
1001
0000
0000
0001
0000
1000
0100
1000
0000
0001
0010
0001
0000
,  // measure 60
0100
0010
0000
0010
0100
0000
0001
0000
1000
0001
1000
0000
0001
0000
1000
0000
,  // measure 61
0010
0001
0000
0001
0010
0000
1000
0000
0001
0100
0001
0000
0100
0001
0100
0000
,  // measure 62
0010
1000
0000
1000
0100
0000
0100
0001
0100
0000
1000
0010
1000
0000
0001
0000
,  // measure 63
0100
0001
0000
0001
0010
0000
0001
0000
0100
0001
0100
0000
0100
0001
0100
0000
,  // measure 64
0010
1000
0000
0001
1000
0000
0100
0010
0000
0001
0010
0001
0010
0001
0010
0000
,  // measure 65
0001
1000
0000
0100
1000
0000
0010
1000
0010
1000
0010
0000
1000
0001
1000
0000
,  // measure 66
1001
0000
0000
1010
0000
0000
0010
0000
0100
0000
0001
0000
0010
0000
0001
0000
,  // measure 67
1001
0000
0000
0000
0000
0100
0010
0100
,  // measure 68
2002
0000
3003
0000
;

//---------------dance-double - ----------------
#NOTES:
     dance-double:
     :
     Easy:
     1:
     0.339950,0.422129,0.300042,0.217272,0.000000,230.000000,201.000000,29.000000,21.000000,0.000000,0.000000,0.339950,0.422129,0.300042,0.217272,0.000000,230.000000,201.000000,29.000000,21.000000,0.000000,0.000000:
00000000
00000000
00000000
00000000
,
00000000
00000000
00000000
00000000
,
00000000
00000000
00000000
00000000
,
00000000
00000000
00000000
00000000
,
10000000
01000000
00010000
00000000
,
00001000
00000000
00000010
00000001
,
00000010
00000001
00000100
00000000
,
00000010
00000100
00001000
00010000
,
00100000
00000000
00010000
00000000
,
10000000
00010000
10000000
00000000
,
00010000
00001000
00010000
00000000
,
00022000
00000000
00000000
00033000
,
00000010
00000010
00001000
00001000
,
00000001
00000010
00000100
00001000
,
00100000
10000000
00010000
01000000
,
00010000
00001000
00010000
01000000
,
00010000
10000000
00100000
00010000
,
00001000
00000100
00000001
00000010
,
00001000
00000010
00000001
00000100
,
00000010
00010000
00000100
00010000
,
00011000
00001000
00100000
01100000
,
10000000
00010000
00001000
00010000
,
01000000
00011000
00000010
00000100
,
00000001
00000001
00000001
00000001
,
00001000
00001000
00001000
00001000
,
00010000
00010000
10000000
10000000
,
00100000
00100000
01000000
01000000
,
00001000
00000010
00000001
00000010
,
00002000
00000000
00003002
00000000
,
00000203
00000000
00000320
00000000
,
00020030
00000000
00032000
00000000
,
02003000
00000000
03020000
00000000
,
20030000
00000000
30020000
00000000
,
02030000
00000000
03100000
00100000
,
10000000
01000000
00010000
00000000
,
00000000
00010000
00001000
00010000
,
00002000
00000000
00000000
00000000
,
00023000
00000000
00000000
00000000
,
00032000
00000000
00000000
00000000
,
02003000
00000000
00000000
00000000
,
03200000
10000000
00010000
10000000
,
00302000
00000000
00000000
00000000
,
00013000
00000100
00010000
00000100
,
00100000
00000000
00001000
00010000
,
00011000
00000000
00001000
00000000
,
00101000
00000000
01000000
00000000
,
10100000
10000000
00010000
00000000
,
00011000
00001000
00000100
00000000
,
00000101
00000000
00011000
00000000
,
11000000
00000000
00011000
00000000
,
00000110
00000000
00011000
10010000
,
22000000
00000000
00000000
33000000
,
00010000
10000000
01000000
00100000
,
00001000
00000100
00000010
00001000
,
00000100
00010000
00001000
00001000
,
00100000
00110000
00010000
01000000
,
10000000
11000000
01000000
00010000
,
00100000
00001000
00011000
00011000
,
00010000
00000100
00010000
00000010
,
00001000
00001100
00000001
00000010
,
00000011
00000001
00000100
00001000
,
00011000
00010000
01000000
10000000
,
11000000
01000000
00100000
00001000
,
00011000
00010000
00000100
00010000
,
00001010
00000100
00000001
00000100
,
00000010
00001000
00000100
00001000
,
00000010
00000110
00000100
00010000
,
00011000
00000000
00000000
00000000
,
00010100
00000000
00000000
00000000
;
