#VERSION:0.83;
#TITLE:JET WORLD;
#SUBTITLE:;
#ARTIST:Mutsuhiko Izumi;
#TITLETRANSLIT:;
#SUBTITLETRANSLIT:;
#ARTISTTRANSLIT:;
#GENRE:;
#ORIGIN:;
#CREDIT:;
#BANNER:JET WORLD.png;
#BACKGROUND:JET WORLD-bg.png;
#PREVIEWVID:;
#JACKET:JET WORLD-jacket.png;
#CDIMAGE:;
#DISCIMAGE:;
#LYRICSPATH:;
#CDTITLE:;
#MUSIC:JET WORLD.ogg;
#OFFSET:0.000000;
#SAMPLESTART:12.196000;
#SAMPLELENGTH:15.000000;
#SELECTABLE:YES;
#DISPLAYBPM:138.000000;
#BPMS:0.000=138.462,
4.000=137.997;
#STOPS:;
#DELAYS:;
#WARPS:;
#TIMESIGNATURES:0.000=4=4;
#TICKCOUNTS:0.000=4;
#COMBOS:0.000=1;
#SPEEDS:0.000=1.000=0.000=0;
#SCROLLS:0.000=1.000;
#FAKES:;
#LABELS:0.000=Song Start;
#BGCHANGES:;
#KEYSOUNDS:;
#ATTACKS:
;

//---------------dance-double - ----------------
#NOTEDATA:;
#CHARTNAME:;
#STEPSTYPE:dance-double;
#DESCRIPTION:;
#CHARTSTYLE:;
#DIFFICULTY:Easy;
#METER:5;
#RADARVALUES:0.247986,0.280563,0.044227,0.154794,0.000000,157.000000,153.000000,4.000000,14.000000,0.000000,0.000000,0.000000,0.000000,0.000000,0.247986,0.280563,0.044227,0.154794,0.000000,157.000000,153.000000,4.000000,14.000000,0.000000,0.000000,0.000000,0.000000,0.000000;
#CREDIT:;
#DISPLAYBPM:138.000000;
#NOTES:
00000000
00000000
00000000
00000000
,
00000000
00000000
00000000
00000000
,
00000000
00000000
00000000
00000000
,
00000010
00000100
00001000
00001000
,
00010000
00010000
01000000
00100000
,
00100000
01000000
00010000
00010000
,
00001000
00001000
00000100
00000010
,
00000000
00000001
00000000
00000100
,
00000000
00001000
00000000
00000100
,
00000000
00001000
00000000
00010000
,
00000000
01000000
00000000
10000000
,
10000000
00100000
01000000
00100000
,
00010000
00100000
01000000
00100000
,
01000000
00010000
00001000
00000100
,
00000100
00001000
00010000
01000000
,
00000000
10000000
00000000
01000000
,
00000000
00010000
00000000
01000000
,
00000000
00010000
00000000
00001000
,
00000000
00000100
00000000
00000100
,
00002000
00000000
00000100
00000100
,
00010000
00000000
00000100
00003000
,
00020000
00000000
01000000
01000000
,
00001000
00001000
00001000
00030000
,
01000000
10000000
01000000
00010000
,
00001000
00000100
00000001
00000100
,
00001000
00000100
00000001
00000100
,
00001000
00010000
01000000
10000000
,
02200000
00000000
00000000
03300000
,
20020000
00000000
00000000
30030000
,
10000000
10000000
01000000
01000000
,
00100000
00100000
00010000
00010000
,
00001000
00001000
00000100
00000100
,
00000010
00000020
00000000
00000030
,
00000001
00000100
00001000
00010000
,
01000000
10000000
01000000
00010000
,
01000000
10000000
01000000
00010000
,
00001000
00000100
00000001
00000100
,
00000200
00000000
00000010
00000310
,
00001000
00001000
00010000
00010000
,
02000000
00000000
00100000
03100000
,
00010000
00001000
00000100
00000001
,
00000001
00000100
00001000
00000100
,
00000100
00001000
00010000
00001000
,
00001000
00010000
01000000
00010000
,
00010000
01000000
10000000
01000000
,
02200000
00000000
00000000
03300000
,
20020000
00000000
00000000
30030000
,
10000000
10000000
01000000
01000000
,
00100000
00100000
00010000
00010000
,
00001000
00001000
00000100
00000100
,
00000010
00000020
00000000
00000030
,
00000000
00000000
00000000
00000000
;

//---------------dance-double - ----------------
#NOTEDATA:;
#CHARTNAME:;
#STEPSTYPE:dance-double;
#DESCRIPTION:;
#CHARTSTYLE:;
#DIFFICULTY:Medium;
#METER:8;
#RADARVALUES:0.404359,0.473433,0.331701,0.055283,0.000000,256.000000,226.000000,30.000000,5.000000,0.000000,0.000000,0.000000,0.000000,0.000000,0.404359,0.473433,0.331701,0.055283,0.000000,256.000000,226.000000,30.000000,5.000000,0.000000,0.000000,0.000000,0.000000,0.000000;
#CREDIT:;
#DISPLAYBPM:138.000000;
#NOTES:
00000000
00000000
00000000
00000000
,
00000000
00000000
00000000
00000000
,
00000000
00000000
00000000
00000000
,
00100000
00001000
00010000
00000000
00000100
00000000
00000100
00000000
,
00000010
00010000
00001000
00000000
01000000
00000000
01000000
00000000
,
00100000
00001000
00010000
00000000
00000100
00000000
00000100
00000000
,
00000010
00010000
00001000
00000000
00100000
00001000
00010000
00000000
,
00001000
00000100
00000000
00000100
00000000
00000100
00000000
00000100
,
00000001
00000100
00001000
00000000
00010000
01000000
00010000
00000000
,
10000000
00010000
00000000
00010000
00000000
00010000
00000000
00010000
,
00100000
00001000
00010000
00000000
01000000
10000000
01000000
00000000
,
01100000
00000000
10000000
00000000
00010000
00001000
00000100
00000000
,
00000110
00000000
00000001
00000000
00001000
00010000
01000000
00000000
,
01100000
00000000
10000000
00000000
00010000
00001000
00000100
00000000
,
00000110
00000000
00000001
00000000
00000100
00001000
00010000
00000000
,
01000000
10000000
00000000
10000000
00000000
10000000
00000000
10000000
,
00100000
10000000
01000000
00000000
00100000
00010000
01000000
00000000
,
00100000
00010000
00000000
00010000
00000000
00010000
00000000
00010000
,
00001000
00000100
00001000
00000000
00000001
00000100
00000001
00000000
,
00000102
00000000
00001000
00001003
,
00000110
00000000
00001000
00000000
00010000
01000000
01100000
00000000
,
21000000
00000000
00010000
30010000
,
00100000
10000000
00100000
00000000
01000000
00010000
01000000
00000000
,
10000000
01000000
00010000
01000000
,
00010000
00000000
00001000
00000000
00000100
00000001
00000100
00000000
,
00001000
00000100
00000001
00000100
,
00000010
00000010
00000010
00000010
,
00000110
00001000
00010000
01100000
,
11000000
00000000
00010000
00000000
00001000
00000100
00000001
00000000
,
00000010
00001001
00000100
00001001
,
00000100
00000000
00001000
00000000
00010000
01000000
10000000
00000000
,
01000000
00010000
00001000
00000000
00000100
00001000
00010000
00000000
,
01000000
00010000
00001000
00000200
00000000
00000000
00000300
00000000
,
00000001
00000010
00000100
00000010
,
00001100
00010100
00001100
00000101
,
00001000
00000010
00000100
00000010
,
00000001
00000100
00001000
00010000
,
02000000
00000000
00100000
03100000
,
10000000
01000000
00010000
00000000
00001000
00000100
00000001
00000000
,
00000200
00000000
00000010
00000310
,
00000010
00010000
00001000
00000000
00000010
00010000
00001000
00000000
,
00001000
00000110
00001000
00000001
,
00000110
00001000
00010000
01100000
,
00010000
01100000
00010000
10000000
,
01100000
10010000
01100000
10010000
,
00110000
00000000
11000000
00000000
00010000
00001000
00000100
00000000
,
00000110
00000000
00001001
00000000
00001000
00000100
00000001
00000000
,
00001000
00000110
00000001
00000100
,
00000010
00000000
00000100
00000000
00001000
00010000
01000000
00000000
,
00100000
01000000
10000000
00000000
00100000
01000000
00010000
00000000
,
00100000
00001000
00010000
01000000
00000000
00000000
00000000
00000000
,
00000000
00000000
00000000
00000000
;

//---------------dance-double - ----------------
#NOTEDATA:;
#CHARTNAME:;
#STEPSTYPE:dance-double;
#DESCRIPTION:;
#CHARTSTYLE:;
#DIFFICULTY:Hard;
#METER:11;
#RADARVALUES:0.484915,0.476958,0.221134,0.121624,0.000000,307.000000,287.000000,20.000000,11.000000,0.000000,0.000000,0.000000,0.000000,0.000000,0.484915,0.476958,0.221134,0.121624,0.000000,307.000000,287.000000,20.000000,11.000000,0.000000,0.000000,0.000000,0.000000,0.000000;
#CREDIT:;
#DISPLAYBPM:138.000000;
#NOTES:
00000000
00000000
00000000
00000000
,
00000000
00000000
00000000
00000000
,
00000000
00000000
00000000
00000000
,
00000001
00000100
00002000
00000000
00010000
00000000
00003010
00000000
,
00000001
00000010
00002000
00000000
00010000
00000000
00003100
00000000
,
00000001
00000100
00002000
00000000
00010000
00000000
00003010
00000000
,
00000001
00000010
00002000
00000000
00010000
00000000
00003100
00000000
,
00000101
00000000
00001010
00000000
00000010
00001000
00000100
00000000
,
00000010
00010000
00001000
00000000
00100000
00001000
00010000
00000000
,
00110000
00000000
11000000
00000000
00100000
00010000
01000000
00000000
,
10000000
01000000
00010000
00000000
00001000
00000100
00000001
00000000
,
00000010
00000100
00001000
00000000
00010000
01000000
10000000
01000000
,
00100000
01000000
00010000
00000000
00001000
00000100
00000001
00000100
,
00000010
00000100
00001000
00000000
00010000
01000000
10000000
01000000
,
00100000
01000000
00010000
00000000
00001000
00000100
00000001
00000000
,
00010010
00000000
00001010
00000000
00000001
00000100
00001000
00000000
,
00010000
01000000
00010000
00000000
10000000
01000000
10000000
00000000
,
00110000
00000000
11000000
00000000
00100000
00010000
00001000
00000000
,
00010000
00000010
00000100
00001000
00010000
01000000
00100000
00000000
,
00100000
00001000
00010000
00000000
00010010
00000000
00001010
00000000
,
00000010
00000001
00000010
00000100
00000010
00001000
00000010
00010000
,
00000100
00010000
00001000
00000000
01001000
00000000
01010000
00000000
,
10000000
01000000
10000000
00000000
10000000
01000000
10000000
00000000
,
00010000
01000000
10000000
01000000
00010000
01000000
00010000
00000000
,
00001000
00000100
00000001
00000100
00001000
00000100
00001000
00000000
,
00010000
01000000
10000000
01000000
00010000
01000000
00010000
00000000
,
00001000
00000100
00000001
00000100
00001000
00000100
00001000
00000000
,
00010000
01000000
10000000
00000000
00010000
01000000
10000000
00000000
,
11000000
00000000
01010000
00000000
10000000
01000000
00010000
00000000
,
00001000
00000100
00001000
00000000
00010000
01000000
00100000
01000000
,
00010000
01000000
00010000
00000000
00001000
00000100
00000010
00000100
,
00001000
00000100
00001000
00000000
00010000
01000000
00100000
01000000
,
00010000
01000000
00010000
02000000
00000000
00000000
03000000
00000000
,
00100000
01000000
00010000
01000000
00010000
00001000
00010000
00001000
,
00000100
00001000
00000100
00000010
00001000
00000100
00000001
00000000
,
00000001
00000100
00000010
00000100
00000010
00001000
00000010
00001000
,
00020000
00000000
01000000
01030000
,
02200000
00000000
00000000
03300000
,
10000000
01000000
00010000
00000000
00001000
00000100
00000001
00000100
,
00000220
00000000
00000000
00000330
,
00000100
00001000
00010000
00000000
00010000
00001000
00000100
00000000
,
00000001
00000010
00000001
00000010
00001000
00010000
00001000
00010000
,
00100000
01000000
00100000
01000000
00010000
10000000
00010000
10000000
,
00010000
10000000
00010000
10000000
00100000
01000000
00100000
01000000
,
00001000
00010000
00001000
00010000
00001000
00001000
00001000
00000000
,
00010010
00000000
00001010
00000000
00000001
00000100
00001000
00000000
,
01001000
00000000
01010000
00000000
00100000
10000000
01000000
00000000
,
00100000
00010000
01000000
00000000
00100000
00010000
00001000
00000010
,
00000100
00001000
00000010
00000000
00000100
00001000
00010000
01000000
,
00100000
00010000
01000000
00000000
00100000
00010000
00001000
00000010
,
00000100
00001000
00000100
00000002
00000000
00000000
00000003
00000000
,
00000000
00000000
00000000
00000000
;

//---------------dance-single - ----------------
#NOTEDATA:;
#CHARTNAME:;
#STEPSTYPE:dance-single;
#DESCRIPTION:;
#CHARTSTYLE:;
#DIFFICULTY:Challenge;
#METER:15;
#RADARVALUES:0.794502,0.951566,0.497551,0.342757,0.000000,503.000000,458.000000,45.000000,31.000000,3.000000,0.000000,0.000000,0.000000,0.000000,0.794502,0.951566,0.497551,0.342757,0.000000,503.000000,458.000000,45.000000,31.000000,3.000000,0.000000,0.000000,0.000000,0.000000;
#CREDIT:;
#OFFSET:0.000000;
#BPMS:0.000000=276.924011
,8.000000=275.993988
;
#STOPS:;
#DELAYS:;
#WARPS:;
#TIMESIGNATURES:0.000000=4=4
;
#TICKCOUNTS:0.000000=4
;
#COMBOS:0.000000=1
;
#SPEEDS:0.000000=1.000000=0.000000=0
;
#SCROLLS:0.000000=1.000000
;
#FAKES:;
#LABELS:0.000000=Song Start
;
#DISPLAYBPM:276.000000;
#NOTES:
// measure 0
0000
0000
0000
0000
,  // measure 1
0000
0000
0000
0000
,  // measure 2
0000
0000
0000
0000
,  // measure 3
0000
0000
0000
0000
,  // measure 4
0000
0000
0000
0000
,  // measure 5
0000
0000
0000
0000
,  // measure 6
1000
0001
0000
0001
,  // measure 7
0100
0000
0110
0000
,  // measure 8
0010
1000
0000
1000
,  // measure 9
0100
0010
0001
0000
,  // measure 10
0001
0100
0000
0100
,  // measure 11
1000
0100
0001
0000
,  // measure 12
1000
0100
0000
0100
,  // measure 13
0001
0000
0100
0000
1000
0001
1000
0000
,  // measure 14
0010
0120
0000
0130
,  // measure 15
0001
1001
2000
0000
,  // measure 16
3010
1000
0100
0010
,  // measure 17
0001
0000
0100
0001
0000
0001
1000
0000
,  // measure 18
1200
0000
0000
0000
,  // measure 19
1300
0001
1000
0001
0010
0000
0001
0000
,  // measure 20
0101
0100
0010
1000
,  // measure 21
1001
0001
0100
1000
,  // measure 22
0100
0000
0100
0000
0001
1000
0001
0000
,  // measure 23
1000
0010
0000
0010
0100
0000
0001
0000
,  // measure 24
1000
0000
1000
0000
0001
1000
0001
0000
,  // measure 25
1000
0010
0000
0010
0100
0000
0001
0000
,  // measure 26
0010
0000
0010
0000
0001
0100
0001
0000
,  // measure 27
0010
0100
0000
0100
0010
0000
0001
0000
,  // measure 28
0100
0000
0100
0000
0010
1000
0001
0000
,  // measure 29
1000
0010
0000
0010
1000
0001
1000
0000
,  // measure 30
0001
0102
0000
1003
,  // measure 31
0010
1000
2100
0000
,  // measure 32
3010
0100
0001
0100
,  // measure 33
1000
0000
0100
0001
2000
0000
0000
0000
,  // measure 34
3020
0000
0000
0000
,  // measure 35
0130
0001
0100
0001
0000
0001
1000
0000
,  // measure 36
0001
1000
0010
1000
0001
1000
0010
1000
,  // measure 37
0001
0000
0100
0001
0000
0001
1000
0000
,  // measure 38
0020
1000
0100
0001
,  // measure 39
0230
1000
0010
0001
,  // measure 40
0310
0000
0010
0000
0010
0000
1000
0001
,  // measure 41
0000
1000
0001
0000
0010
0000
0100
0000
,  // measure 42
0020
0100
0001
0100
,  // measure 43
1030
1000
0110
0100
,  // measure 44
0001
0010
0100
1000
0000
0010
0100
0000
,  // measure 45
0001
0010
0100
1000
0000
0010
0100
0000
,  // measure 46
0001
0100
1000
0000
1000
0100
0001
0000
,  // measure 47
1000
0100
0001
0000
0001
0100
1000
0000
,  // measure 48
0010
1000
0010
0100
0010
0001
0010
0100
,  // measure 49
0010
1000
0010
0001
0010
0100
0010
1000
,  // measure 50
0001
0010
1000
0000
1000
0010
0001
0000
,  // measure 51
1000
0010
0001
0000
0001
0010
1000
0000
,  // measure 52
0100
0010
0100
1000
0100
0001
0100
1000
,  // measure 53
0100
0010
0100
0001
0100
1000
0100
0010
,  // measure 54
0001
0000
0001
0000
0001
0100
1000
0100
,  // measure 55
0001
0000
1000
0000
2002
0000
0000
3003
,  // measure 56
2010
0000
3002
0000
,  // measure 57
1003
0000
1000
0100
0001
0000
0100
0000
,  // measure 58
1000
0000
1000
0000
1000
0000
0001
0100
,  // measure 59
0000
0100
0001
0000
1001
0000
1010
0000
,  // measure 60
1000
0000
0001
0000
0001
0000
1000
0100
,  // measure 61
0000
0100
1000
0000
0001
0010
0001
0000
,  // measure 62
0100
0000
0100
0000
0100
0000
0010
1000
,  // measure 63
0000
1000
0100
0000
0001
0000
0100
0000
,  // measure 64
1100
0110
1001
0110
,  // measure 65
0001
0010
0100
1000
0100
0010
0001
0000
,  // measure 66
1000
0000
1000
0000
1000
0100
0001
0100
,  // measure 67
1000
1001
0100
1010
,  // measure 68
0001
0000
0001
0100
1000
0100
0001
0000
,  // measure 69
1001
0110
2002
3003
,  // measure 70
0100
0000
0001
1000
0001
1000
0001
0000
,  // measure 71
0110
1001
0110
1001
,  // measure 72
0020
0000
0000
0000
,  // measure 73
0130
0010
1000
0010
0000
1000
0100
0000
,  // measure 74
2100
0010
0001
0100
,  // measure 75
0010
0010
0001
0001
,  // measure 76
3100
0000
0100
0000
0110
0000
0010
1000
,  // measure 77
0000
1000
0001
0000
0001
0000
0100
0000
,  // measure 78
0002
0010
0100
1000
,  // measure 79
1003
0100
1000
0000
0010
0000
0110
0000
,  // measure 80
0100
0001
0100
0001
0000
0010
0001
0010
,  // measure 81
0001
1000
0001
1000
0000
0010
1000
0100
,  // measure 82
0010
0100
0010
0000
0010
0001
0010
0000
,  // measure 83
0010
0100
1000
0100
0010
0001
2000
0000
,  // measure 84
3001
0010
0001
0000
0001
1000
0001
0000
,  // measure 85
0001
0100
0001
0010
0000
0010
0100
1000
,  // measure 86
0100
1000
0010
1000
,  // measure 87
0001
1000
0001
0100
0000
0001
0010
0100
,  // measure 88
1000
0100
0020
000M
1030
0100
0020
0000
,  // measure 89
0031
0010
0100
1000
0001
0010
0100
1000
,  // measure 90
0001
0100
0010
0100
1000
0100
0010
0100
,  // measure 91
0001
0000
1001
0000
2200
0000
0000
3300
,  // measure 92
2002
0000
0000
3003
0202
0000
0000
0303
,  // measure 93
0100
0010
0100
0010
0200
0000
0301
0000
,  // measure 94
1001
0000
1000
0000
1100
0000
0100
0010
,  // measure 95
0000
0100
0010
0000
0011
0000
0101
0000
,  // measure 96
0110
0000
0010
0000
1010
0000
1000
0001
,  // measure 97
0000
0010
0001
0000
0010
0001
0100
0000
,  // measure 98
0110
0000
0010
0000
1010
0000
1000
0100
,  // measure 99
00M0
0001
0010
0M00
1000
0100
0010
0001
,  // measure 100
1001
1001
0110
2002
,  // measure 101
0000
3003
0000
0000
;
