#TITLE:星屑の夜果て;
#SUBTITLE:;
#ARTIST:BEMANI Sound Team "HuΣeR × MarL × SYUNN;
#TITLETRANSLIT:Hoshikuzu no yoru hate;
#SUBTITLETRANSLIT:;
#ARTISTTRANSLIT:;
#GENRE:;
#CREDIT:;
#BANNER:Hoshikuzu no yoru hate.png;
#BACKGROUND:;
#LYRICSPATH:;
#CDTITLE:;
#MUSIC:Hoshikuzu no yoru hate.ogg;
#OFFSET:-0.534000;
#SAMPLESTART:97.512985;
#SAMPLELENGTH:14.999997;
#SELECTABLE:YES;
#BPMS:0.000000=174.000000
,220.000000=87.000000
,236.000000=174.000000
;
#STOPS:
;
#BGCHANGES:;
#KEYSOUNDS:;
#ATTACKS:;

//---------------dance-single - ----------------
#NOTES:
     dance-single:
     :
     Beginner:
     3:
     0.158764,0.228652,0.022527,0.015018,0.000000,148.000000,145.000000,3.000000,2.000000,0.000000,0.000000,0.158764,0.228652,0.022527,0.015018,0.000000,148.000000,145.000000,3.000000,2.000000,0.000000,0.000000:
0000
0000
0000
0000
,
0000
0000
0000
0000
,
0000
0000
0000
0000
,
0000
0000
0000
0000
,
0000
0000
0000
0000
,
0000
0000
0000
0000
,
1000
0000
0001
0000
,
1000
0000
0000
0000
,
0010
0000
1000
0000
,
0010
0000
0000
0000
,
1000
0000
0001
0000
,
1000
0000
0000
0000
,
0001
0000
0100
0000
,
0001
0000
0000
0000
,
1000
0000
0001
0000
,
1000
0000
0001
0000
,
1000
0000
0000
0000
,
0010
0000
0000
0000
,
0100
0000
0000
0000
,
0010
0000
1000
0000
,
0001
0000
0000
0000
,
1000
0000
0001
0000
,
1000
0000
0001
0000
,
0100
0000
0100
0000
,
0010
0000
0010
0000
,
1000
0000
0001
0000
,
1000
1000
0000
0000
,
0001
0001
0000
0000
,
0100
0100
0000
0000
,
0010
0000
1000
0000
,
0001
0000
1000
0000
,
0010
0000
0100
0000
,
0001
0000
0100
0100
,
0000
0000
0010
0000
,
1000
0000
0010
0010
,
0000
0000
1000
0100
,
1000
0000
0000
0000
,
0001
0000
0001
0000
,
1000
0000
1000
0000
,
0100
0000
0100
0000
,
1000
0000
1000
0000
,
0001
0000
0001
0000
,
0010
0000
0010
0000
,
0001
0000
0000
0000
,
0001
0000
0000
0000
,
0100
0000
0100
0000
,
0010
0000
0010
0000
,
1000
0000
1000
0000
,
0001
0000
0001
0000
,
0100
0000
0100
0000
,
0010
0000
0000
0000
,
0010
0000
0000
0000
,
1000
0000
0000
0000
,
0001
0000
0000
0000
,
1000
0000
0000
0000
,
0001
0000
1000
1000
,
0010
0000
0010
0010
,
0100
0000
0001
0000
,
1000
0000
0001
0000
,
1000
0000
0001
0000
,
1000
0000
0010
0000
,
0100
0000
0010
0000
,
2000
0000
0000
0000
,
3001
0000
0001
0000
,
0100
0000
0100
0000
,
0020
0000
0000
0000
,
1030
0000
0000
0000
,
0001
0000
0001
0000
,
0100
0000
0100
0000
,
0010
0000
0010
0000
,
1000
0000
1000
0000
,
0001
0000
0001
0000
,
1000
0000
0001
0000
,
1000
0000
0010
0000
,
0100
0000
0001
0000
,
0001
0000
1000
0000
,
1000
0000
0100
0000
,
0100
0000
0010
0000
,
0001
0000
1000
0000
,
0001
0000
1000
0000
,
0100
0000
1000
0000
,
0100
0000
0010
0000
,
0001
0000
0010
0000
,
0001
0000
0100
0000
,
0010
0000
0100
0000
,
1001
0000
0000
0000
,
1001
0000
0000
0000
,
0110
0000
0000
0000
;

//---------------dance-single - ----------------
#NOTES:
     dance-single:
     :
     Easy:
     5:
     0.228491,0.326645,0.022527,0.022527,0.000000,213.000000,210.000000,3.000000,3.000000,0.000000,0.000000,0.228491,0.326645,0.022527,0.022527,0.000000,213.000000,210.000000,3.000000,3.000000,0.000000,0.000000:
0000
0000
0000
0000
,
0000
0000
0000
0000
,
0000
0000
0000
0000
,
0000
0000
0000
0000
,
0000
0000
0000
0000
,
0000
0000
0000
0000
,
1000
0000
0001
0000
,
1000
1000
0010
0000
,
0010
0000
0000
0000
,
0100
0000
0001
0000
,
1000
1000
0001
0000
,
0001
0100
1000
0000
,
0100
0000
0001
0000
,
0010
0000
0001
0000
,
0100
0100
0010
0000
,
1000
1000
0001
0000
,
0001
0100
0001
0000
,
1000
0000
0000
0000
,
0010
0000
0000
0000
,
0100
0001
0100
0000
,
0001
0000
1000
0000
,
0001
0000
0100
0000
,
0010
0000
1000
1000
,
0001
0000
0100
0001
,
0100
0000
0001
1000
,
0010
0000
1000
0001
,
0100
0000
0001
1000
,
0100
0000
1000
0100
,
0010
0000
1000
0100
,
0010
0000
0001
0000
,
0001
0010
0100
0000
,
0001
0010
0100
0000
,
0001
0100
1000
0000
,
0001
0100
1000
0000
,
1000
0100
0001
0000
,
1000
0100
0001
0000
,
1000
0010
0001
0000
,
1000
1000
1000
0000
,
0001
0001
0001
0000
,
0100
0000
0100
0000
,
0010
0000
0010
0000
,
1000
1000
1000
0000
,
0001
0001
0001
0000
,
0100
0000
0100
0000
,
0010
0000
0010
0000
,
1000
0001
1000
0000
,
0001
0100
0001
0000
,
1000
0100
1000
0000
,
0010
0100
0010
0000
,
0100
0001
0100
0000
,
0001
1000
0001
0000
,
1000
0000
1000
0000
,
0010
0000
0000
0000
,
0100
0000
0000
0000
,
0001
0000
0000
0000
,
1000
1000
0001
0001
,
0100
0100
0010
0000
,
1000
0001
1000
0001
,
1000
0010
0100
0010
,
0100
0100
0001
0001
,
1000
0000
0001
1000
,
0001
0000
0100
0000
,
0010
0000
1000
0000
,
0100
1000
0100
0000
,
0010
0001
0010
0000
,
0002
0000
0000
0000
,
1003
0000
0000
0000
,
1000
0010
1000
0000
,
0001
0100
0001
0000
,
1001
0000
0100
0000
,
0010
0000
0100
0000
,
1001
0000
0010
0000
,
0100
0000
0010
0000
,
1001
1000
0100
0100
,
0010
0010
0001
0001
,
1000
0001
0100
0000
,
0001
1000
0010
0000
,
1000
0100
0001
0000
,
0001
0100
1000
0000
,
0001
0010
1000
0000
,
1000
0010
0001
0000
,
0100
0001
1000
0000
,
0001
1000
0100
0000
,
1000
0000
0001
0000
,
1000
0000
0001
0000
,
0200
0000
0000
0000
,
0320
0000
0000
0000
,
1030
0000
0000
0000
;

//---------------dance-single - ----------------
#NOTES:
     dance-single:
     :
     Medium:
     11:
     0.429091,0.668309,0.187727,0.623254,0.045055,400.000000,375.000000,25.000000,83.000000,0.000000,0.000000,0.429091,0.668309,0.187727,0.623254,0.045055,400.000000,375.000000,25.000000,83.000000,0.000000,0.000000:
0000
0000
0000
0000
,
0000
0000
0000
0000
,
0000
0000
0000
0000
,
0000
0000
0000
0000
,
0000
0000
0000
0000
,
0000
0000
0000
0000
,
1000
0001
1000
0000
,
0001
0100
0001
0000
0100
0000
0001
0000
,
1000
0000
0000
1000
0010
0000
1000
0000
,
0001
0100
0001
0100
,
0001
1000
0001
0000
0100
0000
0000
0000
,
0100
0010
1000
0001
,
0010
0000
0001
0000
,
0010
0000
0001
0000
,
1000
0100
0001
0100
,
1000
0001
1000
1000
,
0001
0010
0001
0000
1000
0010
1000
0000
,
0002
0000
0000
0000
,
2003
0000
0000
0000
,
3010
0000
0000
0110
0000
1001
0000
0000
,
0001
1000
0001
0100
,
0100
0010
0100
0000
0010
1000
0010
0000
,
1000
0001
1000
0000
0001
0100
0001
0000
,
0010
1000
0010
0001
,
0100
0001
0100
0000
0001
1000
0001
0000
,
1000
0000
0010
0000
0001
0010
1000
0000
,
0100
0000
0001
0000
0100
1000
0100
0000
,
1000
0010
0100
0001
,
0200
0000
0000
0000
,
0301
0011
0011
0011
,
1000
0000
0100
0000
1000
0010
1000
0000
,
1001
0000
0001
0100
0001
0000
0010
0000
,
0100
0000
1000
0000
0001
0000
0010
0001
,
0100
0000
0110
0000
0010
1000
0001
1000
,
0001
0000
0100
0000
0001
0000
0010
0100
,
0010
0100
1001
0110
,
2001
0000
3002
0203
,
0301
1000
0002
0000
2003
0000
3010
0100
,
0020
0000
0230
0000
0301
0100
0002
0000
,
1003
0010
1000
0100
,
1000
0001
1000
0001
0020
0000
0032
0000
,
0103
0010
0100
0010
0200
0000
0301
1000
,
0001
1000
0002
0000
1003
0010
1000
0010
,
2000
3200
0320
0032
,
0203
0310
0110
1001
,
1000
0010
1000
0000
0002
0000
0103
0001
,
0100
0000
0020
0000
1030
0100
1000
0001
,
0000
0001
0100
0000
0100
0010
0000
0010
,
1000
0001
1000
0000
0002
0000
0203
0000
,
0310
0110
0101
1001
,
1010
0110
0101
1001
,
1000
0010
0100
0010
1000
0010
0100
0010
,
2000
0000
3002
0000
,
0203
0000
0000
0000
,
0320
0000
1000
1000
,
1030
0000
0001
1000
0000
0000
0001
0100
0000
0000
0010
0100
0000
0000
0001
1000
,
0100
0000
1000
0100
0010
0000
0000
0001
0010
0100
1000
0000
0001
0000
0100
0000
,
0002
0000
0000
0000
0003
0000
0000
0000
1000
0010
0000
1000
0000
0000
0000
0001
,
0100
0001
0100
0001
0100
0000
0010
0000
2000
0000
3002
0000
0203
0000
0302
0000
,
0023
0001
0032
1000
,
2003
0000
0100
0000
3100
1000
0100
0010
,
0002
0000
0000
0000
,
0203
0000
0000
0000
,
0310
1000
0010
0000
2000
0000
3001
0100
,
0001
0200
0302
0023
,
0230
0000
0000
0000
0000
0000
0000
1300
,
0000
0000
0002
2003
,
3001
0100
0001
0000
1000
0001
1000
0000
,
0010
1000
0010
0000
1000
0100
0010
0001
,
0200
0310
1000
0001
,
0200
0301
0010
0001
,
1000
0001
1000
0000
1100
0000
0010
0001
,
0010
0000
0011
0000
0100
0010
0100
0000
,
0110
0000
0010
1000
0002
0000
0203
0000
,
0302
0023
0032
2003
,
3100
1000
0001
1000
0020
0000
0130
0001
,
0010
0001
2000
0000
3100
1000
0010
1000
,
0002
0000
0023
0000
0031
0100
0010
0000
,
2010
3001
0201
0302
,
2003
0000
3020
0000
0230
0000
0301
0010
,
0002
0000
2003
0000
3200
0000
1300
0010
,
2000
0000
3200
0000
0320
0000
0031
0100
,
0002
2003
3020
0130
,
0102
2003
3002
0023
,
0230
2300
3020
0230
,
0302
0000
0000
0000
,
2003
0000
0000
0000
,
3010
0100
0001
0010
0100
1000
0010
0100
,
0001
2000
0000
0000
0000
0000
0000
0000
,
3000
0000
0000
0000
;

//---------------dance-single - ----------------
#NOTES:
     dance-single:
     :
     Hard:
     15:
     0.684400,0.801970,0.488091,0.285345,0.247800,638.000000,573.000000,65.000000,38.000000,0.000000,0.000000,0.684400,0.801970,0.488091,0.285345,0.247800,638.000000,573.000000,65.000000,38.000000,0.000000,0.000000:
// measure 0
0000
0000
0000
0000
,  // measure 1
0000
0000
0000
0000
,  // measure 2
0000
0000
0000
0000
,  // measure 3
0000
0000
0000
0000
,  // measure 4
0000
0000
0000
0000
,  // measure 5
0000
0000
0000
0000
,  // measure 6
0001
1000
0010
1000
0002
0000
0103
0001
,  // measure 7
0010
0001
0200
0000
0310
1000
0001
1000
,  // measure 8
0010
0100
0000
0100
0010
0100
0110
0000
,  // measure 9
0001
1000
0001
1000
1001
0000
1010
0000
,  // measure 10
1000
0010
0100
0010
2000
0000
3001
0100
,  // measure 11
0010
0100
0002
0000
1003
0100
0010
0001
,  // measure 12
0100
0001
0000
0001
0010
0000
0010
1000
,  // measure 13
0000
1000
0100
0000
0100
0000
0110
0000
,  // measure 14
1001
0000
0001
0010
0001
0100
0010
1000
,  // measure 15
0000
1100
0000
0011
0000
0001
0010
0100
,  // measure 16
1000
0000
0010
0000
1000
0000
0100
0000
0010
0000
0001
1000
0001
0000
0200
0000
,  // measure 17
0000
0000
0000
0000
0000
0000
0000
0310
,  // measure 18
0000
0000
0000
1001
,  // measure 19
0001
1000
0000
1000
0001
0100
0000
0001
,  // measure 20
0100
0010
1000
0100
0010
0001
1000
0010
,  // measure 21
0100
0000
0100
0000
0001
0000
0100
1000
0100
0000
0010
0000
0100
0000
0001
0000
,  // measure 22
0100
0010
0100
0000
0001
0000
1000
0000
0010
0100
0010
0000
0001
0000
0010
0000
,  // measure 23
1000
0000
1000
0000
0002
0000
0000
0000
1003
0100
1000
0000
0010
0000
0010
0000
,  // measure 24
1000
0100
1000
0000
0001
0000
0010
0000
0100
0001
0100
0000
1000
0000
0100
0000
,  // measure 25
0010
0000
0010
0000
1000
0000
0010
0001
0010
0000
0100
0000
0001
0100
0001
0000
,  // measure 26
0100
0000
1000
0000
0001
0100
0001
0100
0001
0000
0100
0001
1000
0000
0001
1000
,  // measure 27
0020
0000
1030
0100
1000
0001
0010
0001
,  // measure 28
2002
0000
0000
3003
,  // measure 29
0011
1100
0011
1100
,  // measure 30
0010
0000
0001
0000
0100
0010
0100
0000
0010
0000
1000
0000
0001
1000
0001
0000
,  // measure 31
1000
0010
0100
0100
1000
0100
0001
0010
,  // measure 32
0001
1000
0001
0000
0100
0010
0100
0010
0100
0000
0010
0000
1000
0000
0001
0000
,  // measure 33
1001
0000
0000
0000
1100
0000
0000
0000
1000
0010
1000
0000
0100
0000
0010
0000
,  // measure 34
0001
0100
0001
0000
0100
0001
1000
0000
0100
0000
0010
0000
0001
0010
0001
0010
,  // measure 35
0001
1000
1001
0000
0110
0100
0101
0000
,  // measure 36
2001
0000
3002
0203
,  // measure 37
0301
0010
0100
1000
1020
0000
1030
0100
,  // measure 38
0010
0001
0201
0000
0310
1000
0100
0001
,  // measure 39
0100
0011
1000
1100
,  // measure 40
0001
0100
0010
0100
1000
0100
0010
0100
,  // measure 41
0001
0010
1000
0010
0002
0000
1003
0010
,  // measure 42
0001
0010
2000
0000
3100
0010
0001
0010
,  // measure 43
0100
0001
0100
1000
0000
1000
0010
0000
,  // measure 44
0010
0001
0000
0001
0100
0000
1001
0000
,  // measure 45
1000
0100
0010
0100
2000
0000
3010
1000
,  // measure 46
0010
0001
0020
0000
0130
0001
1000
1000
,  // measure 47
0010
0100
0000
0100
0001
0000
0001
0010
,  // measure 48
0100
0100
0001
0100
0010
0010
0011
0001
,  // measure 49
0101
0000
1100
1000
1010
0000
0011
0001
,  // measure 50
1001
0000
0011
0010
0110
0000
1100
0100
,  // measure 51
1000
0000
0100
0000
0010
0000
0100
0000
1000
0100
0010
0100
1000
0000
1002
0000
,  // measure 52
0000
0000
0000
0000
0000
0000
0103
0010
0200
0000
0000
0000
0000
0000
0000
0000
,  // measure 53
0301
0000
0000
0000
1000
0100
1000
0000
0010
0000
0100
0000
0001
0000
0010
0000
,  // measure 54
0001
1002
0000
0000
1000
0000
1000
0000
,  // measure 55
1003
0000
0010
1000
0000
0000
1000
0100
0000
0000
0100
0001
0000
0000
0001
1000
,  // measure 56
0001
0000
0001
0010
0100
1000
0000
1000
0100
0010
0001
0100
0010
1000
0010
0100
,  // measure 57
0002
0000
0000
0000
0003
0000
0000
0000
1000
0001
0000
1000
0000
0000
0000
1000
,  // measure 58
0001
1000
0100
0010
0001
0010
0100
2000
0000
0000
3200
0000
0320
0000
0230
0000
,  // measure 59
1300
0000
0001
0000
0100
0000
0001
0000
0010
0100
0010
0000
0100
0000
1000
0000
,  // measure 60
0010
1000
0010
0000
0100
0000
0000
0000
1000
0000
0100
0000
0010
0000
0100
0000
,  // measure 61
0001
0010
0100
0010
0001
0010
0100
1000
,  // measure 62
1001
1020
0230
0302
,  // measure 63
1003
0010
1000
0000
0100
0000
0010
0000
0002
0000
0000
0000
0103
0000
0010
0000
,  // measure 64
1000
0001
1000
0000
0001
0000
0100
0000
0110
0000
0000
0000
1001
0000
0000
0000
,  // measure 65
2002
0000
0000
0000
,  // measure 66
0000
3003
0002
0203
,  // measure 67
0310
0010
1000
1000
0001
0001
0100
0100
,  // measure 68
0010
0000
1000
0010
1000
0010
1000
0010
1000
0000
0100
0000
0010
0000
0001
0000
,  // measure 69
0101
0000
0110
0000
0010
0100
0001
0010
,  // measure 70
0100
1000
0001
0100
0001
0000
0010
0001
,  // measure 71
0101
0100
0110
0010
1010
0000
1000
0001
,  // measure 72
0101
0100
0110
0000
0010
1000
1100
0100
,  // measure 73
0110
0000
0010
0001
0100
0000
1000
0100
,  // measure 74
0001
0010
0001
0000
1001
0000
1010
0000
,  // measure 75
0110
0100
0101
0001
0011
0000
0110
0100
,  // measure 76
1100
1000
1001
0000
1000
0100
0010
0002
,  // measure 77
0000
0023
0000
0130
1000
0001
1000
0100
,  // measure 78
0010
0100
1100
0000
0001
0100
0101
0000
,  // measure 79
0110
0000
0000
1000
0010
0000
1000
0000
1001
0000
0000
0001
0100
0000
0001
0000
,  // measure 80
0011
0000
0000
0010
0100
0000
0010
0000
0100
0000
1000
0000
0001
0000
1000
0000
,  // measure 81
1001
0000
0000
0001
1000
0000
0010
0000
1010
0000
0000
1000
0010
0000
1000
0000
,  // measure 82
0100
0010
0001
0010
0100
1000
0001
1000
,  // measure 83
1010
0000
0000
0010
0100
0000
0001
0000
0100
0000
1000
0000
0100
0000
0010
0000
,  // measure 84
1000
0010
0100
0001
1000
0010
0100
0010
,  // measure 85
1000
0001
1000
0001
1000
0001
1000
0001
1000
0001
1000
0001
1000
0001
0200
0000
,  // measure 86
0000
0000
0000
0000
,  // measure 87
0310
0000
0000
0000
1000
0001
1000
0000
0100
0000
0010
0000
0001
0000
0010
0000
,  // measure 88
0100
2000
0000
0000
0000
0000
0000
0000
,  // measure 89
3000
0000
0000
0000
;
