#TITLE:Haunted Rhapsody;
#SUBTITLE:;
#ARTIST:Architect ft. Jasmine Nii;
#TITLETRANSLIT:;
#SUBTITLETRANSLIT:;
#ARTISTTRANSLIT:;
#GENRE:;
#CREDIT:;
#BANNER:Haunted Rhapsody.png;
#BACKGROUND:;
#LYRICSPATH:;
#CDTITLE:;
#MUSIC:Haunted Rhapsody.ogg;
#OFFSET:0.000000;
#SAMPLESTART:66.599998;
#SAMPLELENGTH:15.000000;
#SELECTABLE:YES;
#DISPLAYBPM:155.000000;
#BPMS:0.000000=155.171997
,4.000000=155.005005
;
#STOPS:
;
#BGCHANGES:;
#KEYSOUNDS:;
#ATTACKS:;

//---------------dance-single - ----------------
#NOTES:
     dance-single:
     :
     Beginner:
     2:
     0.145745,0.182516,0.046799,0.000000,0.000000,109.000000,104.000000,5.000000,0.000000,0.000000,0.000000,0.145745,0.182516,0.046799,0.000000,0.000000,109.000000,104.000000,5.000000,0.000000,0.000000,0.000000:
0000
0000
0000
0000
,
0000
0000
0000
0000
,
0000
0000
0000
0000
,
0000
0000
0000
0000
,
0000
0000
0000
0000
,
0010
0000
0000
0000
,
0100
0000
0000
0000
,
1000
0000
1000
0000
,
0001
0000
0001
0000
,
1001
0000
0000
0000
,
1001
0000
0000
0000
,
0010
0000
0000
0000
,
0100
0000
0000
0000
,
1000
0000
0000
0000
,
0001
0000
0000
0000
,
0010
0000
0000
0000
,
0100
0000
0000
0000
,
0001
0000
0001
0000
,
0001
0000
0000
0000
,
0010
0000
0000
0000
,
0001
0000
0001
0000
,
0010
0000
0000
0000
,
1000
0000
1000
0000
,
0100
0000
0000
0000
,
0001
0000
0001
0000
,
0100
0000
0000
0000
,
1000
0000
1000
0000
,
0010
0000
0010
0000
,
1000
0000
1000
0000
,
0100
0000
0100
0000
,
0001
0000
0001
0000
,
0010
0000
0010
0000
,
0001
0000
0001
0000
,
0100
0000
0100
0000
,
1000
0000
0000
0000
,
0010
0000
0010
0000
,
0001
0000
0001
0000
,
1000
0000
1000
0000
,
0100
0000
0100
0000
,
0001
0000
0001
0000
,
1000
0000
1000
0000
,
0010
0000
0010
0000
,
0100
0000
0100
0000
,
1000
0000
1000
1000
,
0001
0000
0001
0000
,
1000
0000
1000
0000
,
0001
0000
0001
0000
,
0010
0000
0010
0000
,
0100
0000
0100
0000
,
0010
0000
0010
0000
,
0100
0000
0000
0000
,
1000
0000
1000
1000
,
0001
0000
0001
0000
,
0010
0000
0010
0000
,
0100
0000
0100
0000
,
1000
0000
1000
1000
,
0001
0000
0001
0000
,
0010
0000
0010
0000
,
0001
0000
0000
0000
,
0010
0000
0010
0000
,
1000
0000
1000
0000
,
0100
0000
0100
0000
,
0001
0000
0001
0000
,
1001
0000
0000
0000
,
1001
0000
0000
0000
,
1001
0000
0000
0000
;

//---------------dance-single - ----------------
#NOTES:
     dance-single:
     :
     Easy:
     5:
     0.211264,0.281145,0.196556,0.224635,0.000000,158.000000,137.000000,21.000000,24.000000,0.000000,0.000000,0.211264,0.281145,0.196556,0.224635,0.000000,158.000000,137.000000,21.000000,24.000000,0.000000,0.000000:
0000
0000
0000
0000
,
0000
0000
0000
0000
,
0000
0000
0000
0000
,
0000
0000
0000
0000
,
0000
0000
0000
0000
,
0001
0000
0000
0000
,
1000
0000
0000
0000
,
0010
0000
1000
0000
,
0001
0000
1000
0000
,
0220
0000
0000
0330
,
2002
0000
0000
3003
,
0001
0000
1000
0000
,
1000
0000
0001
0000
,
0010
0000
0100
0000
,
0100
1000
0010
0000
,
0001
0000
1000
0000
,
0100
0000
0001
0000
,
1000
0000
0001
0100
,
1001
0000
0000
0000
,
0010
0100
1000
0000
,
0010
0100
0001
0000
,
0010
1000
0100
0000
,
0010
0001
0100
0000
,
1000
0100
0001
0000
,
0100
0010
0001
0000
,
2002
3003
0220
0330
,
2002
3003
0220
0330
,
1000
0001
1000
0000
,
0010
1000
0010
0000
,
0100
0010
0100
0000
,
1000
0001
1000
0000
,
0001
1000
0001
0000
,
0100
0010
0100
0000
,
1001
0000
0110
0000
,
0220
0000
0000
0330
,
1000
0000
0001
0000
,
0010
0000
1000
0000
,
0100
0000
0001
0000
,
1000
0000
0010
0000
,
0001
0000
0010
0000
,
1000
0000
0001
0000
,
0101
0000
1010
0000
,
0110
0000
0110
0000
,
0010
0010
1000
0000
,
1000
1000
0001
0000
,
0001
0001
1000
0000
,
0010
0001
0100
0000
,
0001
1000
0010
0000
,
0100
1000
0010
0000
,
0001
0010
0100
0000
,
2002
0000
0000
3003
,
1000
0001
1000
0000
,
0010
0001
1000
0000
,
0100
1000
0010
0000
,
0001
0010
0100
0000
,
1000
0010
0100
0000
,
0001
1000
0100
0000
,
1001
0000
1001
0000
,
0220
0000
0000
0330
,
1000
0000
0000
0000
,
0001
0000
1000
0000
,
0010
0000
0001
0000
,
1000
0000
0100
0000
,
2002
0000
0000
3003
,
0220
0000
0000
0330
,
2002
0000
0000
0000
,
0000
0000
0000
3003
;

//---------------dance-double - ----------------
#NOTES:
     dance-double:
     :
     Easy:
     4:
     0.187196,0.281145,0.102958,0.131037,0.000000,140.000000,129.000000,11.000000,14.000000,0.000000,0.000000,0.187196,0.281145,0.102958,0.131037,0.000000,140.000000,129.000000,11.000000,14.000000,0.000000,0.000000:
00000000
00000000
00000000
00000000
,
00000000
00000000
00000000
00000000
,
00000000
00000000
00000000
00000000
,
00000000
00000000
00000000
00000000
,
00000000
00000000
00000000
00000000
,
00100000
00000000
00000000
00000000
,
00010000
00000000
00000000
00000000
,
00001000
00000000
00000100
00000000
,
00000010
00000000
00001000
00000000
,
00000001
00000000
00000000
00000000
,
00000220
00000000
00000000
00000330
,
00000010
00000000
00001000
00000000
,
00010000
00000000
00100000
00000000
,
01000000
00000000
00010000
00000000
,
00001000
00000000
00000100
00000000
,
00000001
00000000
00001000
00000000
,
00000010
00000000
00001000
00000000
,
00010000
00000000
01000000
00000000
,
20020000
00000000
00000000
30030000
,
10000000
01000000
00100000
00000000
,
00100000
01000000
00010000
00000000
,
00010000
01000000
00100000
00000000
,
00001000
00000100
00001000
00000000
,
00000010
00000100
00000001
00000000
,
00000010
00001000
00000100
00000000
,
00000010
00000100
00001000
00000000
,
00011000
00000000
00011000
00000000
,
00100000
00000000
00010000
00000000
,
01000000
00000000
10000000
00000000
,
00100000
00000000
01000000
00000000
,
01000000
00000000
00010000
00000000
,
00001000
00000000
00000100
00000000
,
00001000
00000000
00000100
00000000
,
00010000
00000000
00001000
00000000
,
01000000
00000000
00000000
00000000
,
10000000
00010000
10000000
00000000
,
00100000
01000000
00010000
00000000
,
00001000
00000100
00001000
00000000
,
00010000
01000000
00010000
00000000
,
01000000
10000000
00100000
00000000
,
00010000
00001000
00000010
00000000
,
00000100
00000000
00000001
00000000
,
00001001
00000000
00000110
00000000
,
00000100
00000000
00001000
00000000
,
00010000
00000000
01000000
00000000
,
00100000
00000000
01000000
00000000
,
00010000
00000000
01000000
00000000
,
00001000
00000000
00010000
00000000
,
00000100
00000000
00000010
00000000
,
00001000
00000000
00000100
00000000
,
00022000
00000000
00000000
00033000
,
00010000
00010000
00010000
00010000
,
01000000
01000000
01000000
01000000
,
00100000
10000000
00010000
01000000
,
00001000
00010000
00000100
00000000
,
00000010
00000000
00000001
00000000
,
00001000
00000000
00000100
00000000
,
00010000
00000000
01000000
00000000
,
20020000
00000000
00000000
30030000
,
00100000
00000000
00000000
00000000
,
00010000
00000000
00000000
00000000
,
00001000
00000000
00010000
00000000
,
00000100
00000000
00001000
00000000
,
00002002
00000000
00000000
00003003
,
00002020
00000000
00000000
00003030
,
00022000
00000000
00000000
00000000
,
00000000
00000000
00000000
00033000
,
;

//---------------dance-double - ----------------
#NOTES:
     dance-double:
     :
     Medium:
     7:
     0.320907,0.437336,0.121677,0.084238,0.018720,240.000000,227.000000,13.000000,9.000000,0.000000,0.000000,0.320907,0.437336,0.121677,0.084238,0.018720,240.000000,227.000000,13.000000,9.000000,0.000000,0.000000:
00000000
00000000
00000000
00000000
,
00000000
00000000
00000000
00000000
,
00000000
00000000
00000000
00000000
,
00000000
00000000
00000000
00000000
,
00000000
00000000
00000000
00000000
,
10010000
00000000
00000000
00000000
,
01010000
00000000
00001000
00000000
,
00011000
00000000
00001100
00000000
,
00001001
00000000
00001010
00000000
,
00011000
00000000
00000000
00000000
,
00110000
00000000
00000000
10000000
,
00100000
01000000
00010000
00001000
,
00000100
00000001
00001000
00000010
,
00000100
00001000
00010000
01000000
,
10000000
00010000
00100000
00010000
,
01000000
00010000
00001000
00000100
,
00000010
00000001
00001000
00000001
,
00000100
00000000
00001000
00010000
,
01000000
00000000
00000000
00000000
00000000
00000000
00000000
00000000
10000000
00000000
00000000
00010000
10000000
00000000
00010000
00000000
,
10000000
01000000
00010000
00001000
,
00000100
00000001
00001000
00000010
,
00000100
00001000
00010000
01000000
,
10000000
00100000
01000000
00010000
,
10000000
01000000
00010000
00001000
,
00000100
00000001
00001000
00000100
,
00001000
00000000
00010000
00000000
,
00110000
00000000
10010000
00000000
,
10000000
00100000
01000000
00010000
,
10000000
01000000
00010000
00001000
,
00000100
00000001
00001000
00000001
,
00000100
00000000
00001000
00000000
00010000
00000000
00001000
00010000
,
00001000
00010000
01000000
10000000
,
00010000
10000000
00010000
00100000
,
01000000
00010000
00001000
00000100
,
00000001
00000000
00000000
00000000
00000000
00000000
00000000
00000000
00001000
00000000
00000000
00000001
00001000
00000000
00000001
00000000
,
00000100
00001000
00010000
01000000
,
10000000
00100000
01000000
00010000
,
01000000
00010000
00001000
00000100
,
00000010
00000000
00000001
00000000
00001000
00000000
00000001
00001000
,
00000100
00001000
00010000
01000000
,
00100000
00000000
00000000
00000000
10000000
00000000
00000000
00100000
10000000
00000000
00100000
00000000
10000000
00000000
00100000
00000000
,
10000000
00000000
00010000
00000000
,
10000000
00000000
01000000
00010000
,
00001000
00000100
00000001
00001000
,
00000001
00000100
00001000
00010000
,
01000000
10000000
00010000
10000000
,
00010000
00000000
10000000
00000000
01000000
00000000
00100000
01000000
,
00010000
00001000
00000100
00000010
,
00000100
00001000
00010000
01000000
,
10000000
00000000
01000000
00000000
,
00010000
00000000
00000000
00000000
00001000
00000000
00000000
00010000
00001000
00000000
00010000
00000000
00001000
00000000
00010000
00000000
,
00001000
00000100
00000001
00001000
,
00000010
00000001
00001000
00000001
,
00000100
00001000
00010000
01000000
,
10000000
00000000
00100000
00000000
10000000
00100000
10000000
00100000
,
01000000
00010000
00001000
00000100
,
00000010
00000000
00000001
00000000
00000010
00000001
00000010
00000001
,
00002000
00003000
00020000
00030000
,
02000000
03000000
00010000
00100000
,
10000000
01000000
00100000
00010000
,
01000000
00010000
00001000
00000100
,
00000010
00000001
00001000
00000001
,
00000100
00001000
00010000
00001000
00100000
00010000
10000000
00010000
,
20020000
00000000
00000000
30030000
,
00220000
00000000
00000000
00330000
,
00022000
00000000
00000000
00000000
,
00000000
00000000
00000000
00033000
,
;

//---------------dance-double - ----------------
#NOTES:
     dance-double:
     :
     Hard:
     13:
     0.504092,0.562289,0.065519,0.149757,0.051479,377.000000,370.000000,7.000000,16.000000,0.000000,0.000000,0.504092,0.562289,0.065519,0.149757,0.051479,377.000000,370.000000,7.000000,16.000000,0.000000,0.000000:
00000000
00000000
00000000
00000000
,
00000000
00000000
00000000
00000000
,
00000000
00000000
00000000
00000000
,
00000000
00000000
00000000
00000000
,
00000000
00000000
00000000
00000000
,
20000000
30000000
02000000
03000000
,
00020000
00030000
00000010
00000001
,
00000100
00000000
00000001
00000000
00000010
00000000
00001000
00000100
,
00001000
00000000
00010000
00000000
01000000
00000000
00100000
10000000
,
01000000
00010000
00001000
00000000
00000000
00000010
00000001
00000100
,
00001000
00000100
00000001
00000000
00000010
00001000
00010000
00100000
,
10000000
01000000
00010000
00100000
,
00010000
00001000
00000100
00000000
00000010
00000001
00000010
00000100
,
00000010
00001000
00010000
01000000
,
00010000
00100000
00010000
00001000
00000010
00000000
00000001
00000100
,
00000001
00000100
00001000
00000010
,
00001000
00010000
01000000
00000000
00100000
10000000
00010000
01000000
,
00100000
00000000
00000000
10000000
00000000
00000000
01000000
00000000
00010000
00000000
00000000
00000000
00001000
00000000
00000100
00000000
,
00000001
00000000
00000010
00000000
00001000
00000000
00010000
00000000
00100000
00000000
10000000
01000000
10000000
00000000
01000000
00000000
,
00100000
00010000
01000000
00000000
00100000
00010000
00001000
00000000
,
00000011
00000000
00000100
00000000
00000001
00000010
00001000
00010000
,
01000000
10000000
01000000
00100000
00010000
00000000
00100000
00010000
,
00001000
00000010
00001000
00000100
00000001
00000000
00000100
00001000
,
00000010
00001000
00000100
00000000
00000010
00001000
00010000
00000000
,
10100000
00000000
01000000
00000000
10000000
00100000
00010000
00001000
,
00000100
00000000
00000000
00001000
00000000
00000000
00000010
00000000
00000001
00000000
00000100
00000000
00000010
00000000
00001000
00000000
,
00000100
00000000
00000010
00000100
,
00000001
00000000
00000100
00000001
00000010
00000001
00001000
00000010
,
00001000
00010000
01000000
00000000
00100000
10000000
00010000
01000000
,
00100000
00010000
00001000
00000010
00000010
00000001
00000100
00001000
,
00000001
00000010
00001000
00010000
00100000
00000000
10000000
01000000
,
10000000
00000000
01000000
10000000
00100000
10000000
00010000
00100000
,
00010000
00001000
00000100
00000000
00000010
00000001
00001000
00000100
,
00000010
00001000
00010000
00100000
00100000
10000000
01000000
00010000
,
10000000
00100000
00010000
00001000
00000010
00000001
00001000
00000100
,
00000010
00001000
00000100
00001000
00000010
00001000
00010000
00100000
,
10100000
00000000
00000000
00000000
01000000
00000000
00000000
00000000
00100000
00000000
00010000
00100000
00010000
00000000
00001000
00000000
,
00000100
00001000
00000001
00000100
00000010
00000000
00001000
00000100
,
00010000
00100000
10000000
01000000
00010000
01000000
10000000
01000000
,
00100000
00010000
01000000
00010000
00100000
00010000
00001000
00000010
,
00000011
00000000
00000000
00000000
00000100
00000000
00000000
00000000
00000010
00000000
00001000
00000010
00001000
00000000
00010000
00000000
,
01000000
00000000
00000000
00010000
00000000
00000000
00100000
00000000
10000000
00000000
01000000
00000000
00100000
00000000
00010000
00000000
,
00001000
00000010
00000100
00000001
00000100
00001000
00000100
00001000
,
00022000
00003000
02000000
03030000
,
10000000
00000000
01000000
00000000
00010000
00100000
00010000
01000000
,
10000000
00000000
00000000
00100000
00000000
00000000
00010000
00000000
00002000
00000000
00000000
00000000
00003010
00000000
00000000
00000000
,
00000020
00000000
00000031
00000000
00000100
00000001
00000010
00001000
,
00022000
00003000
02000000
03030000
,
10000000
00000000
00100000
00000000
00010000
00001000
00000010
00000001
,
00000200
00000000
00002000
00003300
,
00022000
00000000
00000000
00033000
,
01000000
10000000
00010000
01000000
00010000
00001000
00000010
00000001
,
00000100
00000000
00000001
00000000
00000010
00000000
00001000
00000000
00000100
00000000
00000000
00000000
00000001
00000000
00000100
00001000
,
00010000
00100000
10000000
00100000
00010000
01000000
10000000
01000000
,
00100000
10000000
00100000
01000000
00010000
00000000
00000010
00001000
,
00000100
00000001
00001000
00000100
00001000
00010000
00100000
10000000
,
01000000
00000000
10000000
00000000
00100000
00000000
00010000
00000000
01000000
00000000
00000000
00000000
10000000
00000000
01000000
00010000
,
00001000
00000000
00000010
00000000
00000001
00000000
00000100
00000001
,
00000010
00001000
00010000
01000000
00100000
00010000
10000000
01000000
,
00010000
00100000
00010000
00001000
,
00000100
00000000
00001000
00000100
00001000
00000000
00000000
00000000
00000010
00000000
00000001
00000010
00000100
00000000
00000000
00000000
,
00000001
00000010
00001000
00010000
,
00100000
10000000
01000000
00010000
,
00001000
00000100
00000010
00000001
00001000
00010000
01000000
00100000
,
01000000
10000000
00010000
00100000
10000000
01000000
00010000
00001000
,
00000200
00000000
00000000
00000000
,
00000000
00000000
00000000
00000300
,
;

//---------------dance-single - ----------------
#NOTES:
     dance-single:
     :
     Medium:
     9:
     0.352998,0.401535,0.149757,0.215275,0.000000,264.000000,248.000000,16.000000,23.000000,0.000000,0.000000,0.352998,0.401535,0.149757,0.215275,0.000000,264.000000,248.000000,16.000000,23.000000,0.000000,0.000000:
0000
0000
0000
0000
,
0000
0000
0000
0000
,
0000
0000
0000
0000
,
0000
0000
0000
0000
,
0000
0000
0000
0000
,
1000
0100
1000
0010
,
0200
0301
0010
0100
,
2000
3001
0100
0010
,
1010
1000
0100
0010
,
0002
0103
0010
1000
,
0002
1003
0100
1000
,
0010
0000
0100
0000
0001
0100
0001
0000
,
0010
0100
1100
1000
,
0010
0000
0100
0000
0001
0100
0001
0000
,
0010
0100
1000
1000
,
1001
0001
0100
1000
,
0100
0001
0020
0130
,
1000
0100
0010
0001
,
1000
0001
1000
0000
0001
0000
0100
0000
,
0010
1000
0010
1000
,
0100
0010
0011
0001
,
0100
1000
0100
0001
,
0010
1000
0020
0031
,
0100
0000
0010
0000
1000
0000
0010
0100
,
0010
0000
1000
0010
1000
0000
0000
0000
,
0001
1000
0001
0100
,
0110
0010
1000
0100
,
0010
0001
0100
0010
,
0110
0110
0110
1000
,
0100
0000
1000
0000
,
0001
1000
0002
0023
,
0130
1000
0100
1000
,
0020
0230
0301
1000
,
0002
2003
3020
0230
,
0302
0000
1003
0100
,
1000
0100
0010
0001
,
0011
0011
0011
0000
,
0100
0010
0100
0000
0010
0100
0010
0000
,
1000
0100
1000
0000
0100
1000
0100
0000
,
0010
0001
1000
0001
,
1000
0100
2000
3010
,
0100
0001
0010
0100
,
1000
0100
1000
0010
,
0100
0010
0100
0000
0001
1000
0001
0000
,
1000
0100
1000
0010
1000
0000
0100
0000
,
0010
0001
1000
0100
,
1100
1100
1100
0010
,
0100
0000
0001
0000
0100
0001
0100
0000
,
0001
0010
0001
0010
0001
0000
1000
0000
,
0100
1000
0100
0000
0100
0010
0100
0000
,
0010
0001
0010
0000
0001
0000
0001
0000
,
1000
0100
1000
0010
,
0100
0001
0010
0100
,
1000
0000
0001
0000
1000
0001
1000
0001
,
1000
1000
1010
0000
,
0010
0100
0001
0010
,
0100
1000
1100
0100
,
0020
0000
0032
0000
,
2003
0000
0000
0000
,
3010
0010
0100
0100
,
0002
1000
1003
0010
,
0200
0301
0001
1000
,
1000
0100
0000
0000
,
0100
0010
0001
0010
,
0200
0000
1300
0001
,
2000
0000
0000
0000
,
3000
0000
0000
0000
;

//---------------dance-single - ----------------
#NOTES:
     dance-single:
     :
     Hard:
     12:
     0.536182,0.595751,0.290154,0.383751,0.074878,401.000000,370.000000,31.000000,41.000000,0.000000,0.000000,0.536182,0.595751,0.290154,0.383751,0.074878,401.000000,370.000000,31.000000,41.000000,0.000000,0.000000:
0000
0000
0000
0000
,
0000
0000
0000
0000
,
0000
0000
0000
0000
,
0000
0000
0000
0000
,
0000
0000
0000
0000
,
1002
0000
0000
0000
0103
0010
1000
0010
,
0200
0301
1001
1010
,
0220
0000
0000
0330
2002
0000
0000
3003
,
0202
0000
0000
0303
2002
0000
0000
3003
,
0010
0100
0001
0010
1000
0010
0001
0000
,
0100
0000
0010
0000
1000
0100
1000
0000
0001
0000
1000
0000
0001
0100
0001
0000
,
0010
0100
0020
0000
0031
0010
0002
0000
,
1003
0100
2000
0000
3002
0000
0103
0000
,
0001
1000
0200
0000
1300
0001
0020
0000
,
0031
0010
0100
1000
1100
0000
0110
0000
,
0022
0000
0033
0000
1000
0001
0010
0001
,
0100
0010
1000
0100
2000
0000
3001
0000
,
0100
0010
1000
0100
0010
0001
0100
0010
,
1000
0000
0001
0000
1000
0000
0000
0000
0010
0000
0000
0010
0100
0000
0001
0000
,
0100
0001
1000
0100
2000
0000
3010
0100
,
0001
0010
0001
1000
0200
0000
0310
0000
,
0001
0000
0000
1000
0000
0000
1000
0000
0010
0000
0000
0000
0100
0000
0000
0000
,
0001
1000
0010
1000
0002
0000
0103
0000
,
0010
1000
0100
1000
0001
0000
0100
0010
,
1000
0010
0100
0001
2000
0000
3001
0000
,
0010
0000
0000
0100
0000
0000
1000
0000
0001
0000
0000
0000
1000
0000
0000
0000
,
0010
0000
1000
0000
0001
0000
1000
0000
0010
0100
0010
0000
0100
0000
0001
1000
,
0001
0010
1000
0010
0001
0100
1000
0100
,
0001
1000
0010
1000
0100
0000
0010
0000
,
0001
1000
0100
0000
1000
0010
0100
0000
,
0100
0010
0100
0001
1000
0001
0100
0001
,
0020
0130
1100
1001
,
0011
0000
0101
0000
0100
0010
1000
0010
,
0100
0001
1000
0001
0100
0000
0010
1000
,
0100
0000
0010
0000
0001
0000
0000
0000
1000
0000
0000
1000
0001
0000
0100
0000
,
0010
1000
0010
0000
0100
0001
0100
0000
,
0001
1000
0001
0100
0001
0000
0010
0000
,
0100
1000
0100
0010
0100
0000
0010
0000
,
0001
0000
1000
0010
1000
0000
0001
0001
,
0100
0000
0000
0100
0010
0000
0000
0010
1000
0000
0000
1000
0001
0000
0000
0001
,
0100
0000
0000
0100
0010
0000
0000
0010
1000
0000
0001
0000
1000
0000
0100
0000
,
0010
0001
0000
0001
0100
0000
0110
0000
,
2010
0000
3001
0101
,
0100
0010
1000
0000
0100
0010
0100
0000
,
1000
0001
0100
0001
0010
0000
0001
0000
,
0100
0010
1000
0010
0200
0000
0302
0000
,
1003
1010
0020
1030
,
0001
1000
0001
0100
0001
0010
0001
0000
,
0100
0010
1000
0010
0100
0000
0010
0000
,
1000
0001
1000
0001
0100
0010
0100
0010
,
2000
0000
0000
0000
3001
0000
0000
0001
0100
0000
0010
0000
0100
0000
0001
0000
,
2001
0000
3010
1000
0100
0000
0010
0001
,
0100
0101
0011
0110
,
1100
1001
0101
0110
,
1010
0000
1100
0000
0110
0100
0010
0001
,
2001
3100
0120
0032
,
2003
0000
0000
0000
3100
0000
0000
0100
0010
0000
0100
0000
1000
0000
0001
0000
,
0100
0010
0100
0010
1000
0001
1000
0001
,
0100
0001
0100
0001
1000
0010
1000
0010
,
0200
0000
0301
0010
0001
1000
0002
0000
,
2003
0000
3010
0100
0001
0010
0100
1000
,
0020
0000
0130
0001
2000
0000
3100
0001
,
0200
0000
1300
0001
0010
0001
0100
0010
,
1000
0100
1000
0010
1000
0001
1000
0000
,
0001
0100
1000
0001
0010
1000
0001
0100
,
2000
0000
0000
0000
,
0000
0000
0000
0000
,
3000
0000
0000
0000
;

//---------------dance-single - ----------------
#NOTES:
     dance-single:
     :
     Challenge:
     15:
     0.803605,1.003370,0.524148,0.374392,0.603706,601.000000,545.000000,56.000000,40.000000,0.000000,0.000000,0.803605,1.003370,0.524148,0.374392,0.603706,601.000000,545.000000,56.000000,40.000000,0.000000,0.000000:
// measure 0
0000
0000
0000
0000
,  // measure 1
0000
0000
0000
0000
,  // measure 2
0000
0000
0000
0000
,  // measure 3
0000
0000
0000
0000
,  // measure 4
0000
0000
0000
0000
,  // measure 5
1002
0000
0000
0000
0103
0010
1000
0001
,  // measure 6
0201
0000
0310
1000
1001
0000
0101
0000
,  // measure 7
0220
0330
0220
0330
2002
3003
2002
3003
,  // measure 8
2200
3300
2200
3300
0001
0010
0022
0033
,  // measure 9
0100
0010
0220
0330
0010
1000
1100
0000
,  // measure 10
0010
0000
0001
0000
0100
0010
0100
0010
1000
0001
1000
0000
0001
0100
0001
0100
,  // measure 11
0010
0000
1000
0000
0100
0000
0010
0000
0001
0100
0001
0000
2000
0000
3000
0000
,  // measure 12
0010
0100
0001
0010
0001
1000
0200
0300
,  // measure 13
1000
0010
2000
0000
3001
0100
0002
0000
,  // measure 14
0103
0010
0100
0000
0001
0000
1000
0000
2002
0000
3003
0000
0202
0000
0303
0000
,  // measure 15
0100
0000
0010
0000
2000
0000
0000
0000
3100
0010
0100
0000
0010
0000
0001
0000
,  // measure 16
1000
0001
1000
0000
0100
0000
0010
0000
0001
0100
0001
0000
1000
0001
1000
0000
,  // measure 17
1010
0010
0100
0001
0101
0000
1001
0000
,  // measure 18
1000
0000
0100
0000
0010
0000
0001
0000
0100
0000
0000
0100
0010
0000
1000
0000
,  // measure 19
1001
0000
0001
0010
0001
0000
0010
0000
0100
1000
0100
0000
1000
0000
0010
0000
,  // measure 20
0100
0001
0100
0000
0001
0000
0010
0000
0100
0010
0100
0000
1000
0000
0001
0000
,  // measure 21
1000
0010
0100
0010
0011
0000
1010
0000
,  // measure 22
1000
0000
0100
0010
0100
0000
0010
0000
0001
0000
0000
0001
0100
0000
0010
0000
,  // measure 23
1000
0001
1000
0000
0010
0000
0100
0000
0001
0010
0001
0000
1000
0100
1000
0000
,  // measure 24
0010
0100
0010
0000
0100
0001
0100
0000
0001
1000
0001
1000
0001
0000
0000
0000
,  // measure 25
1010
0000
0000
0110
0000
0000
0101
0000
1001
0000
0000
0000
1010
0000
0000
0000
,  // measure 26
0010
0000
0100
0000
0001
0000
0100
0000
0010
1000
0010
1000
0001
0100
0001
0100
,  // measure 27
0010
1000
0001
1000
1020
0100
0230
0001
,  // measure 28
0301
1000
0010
1000
0100
0010
0001
0100
,  // measure 29
0010
1000
0010
0000
1000
0000
0000
0000
0001
1000
0001
0000
1000
0000
0000
0000
,  // measure 30
0210
0010
1300
0001
2001
0000
3020
0000
,  // measure 31
0032
0000
0010
0000
0013
0000
0000
0000
1000
0001
1000
0000
0001
0010
0001
0000
,  // measure 32
0010
0100
1000
0000
0100
0010
0001
0000
1000
0001
1000
0000
0100
0000
0010
0000
,  // measure 33
0100
0010
0001
0010
0100
0000
0010
0000
0001
0000
1000
0000
0001
0000
1000
0000
,  // measure 34
1010
0000
0000
0000
0110
0000
0000
0000
0101
0000
0000
0001
0010
0000
0001
0100
,  // measure 35
0010
1000
0100
0001
1000
0010
0001
0100
,  // measure 36
0010
1000
0010
0000
0100
0010
0100
0000
0001
0010
0001
0000
1000
0000
1000
0000
,  // measure 37
0010
0100
0010
0000
1000
0000
0001
0000
1001
0000
0000
0000
0101
0000
0000
0000
,  // measure 38
0001
0010
0001
0000
0100
0000
0010
0000
1000
0000
0000
0000
1100
0000
0100
0000
,  // measure 39
0110
0000
0000
0010
0001
0000
0000
0001
0100
0000
0000
0100
0010
0000
0000
0010
,  // measure 40
1000
0000
0000
0000
0001
1000
0001
0000
0100
0000
0100
0000
0010
0000
0010
0000
,  // measure 41
0110
0000
0101
0000
0000
1001
0000
0000
1010
0000
0000
0000
0101
0000
0000
0000
,  // measure 42
1000
0000
0010
0000
0100
0001
0100
0001
0010
0100
0010
0100
1000
0001
1000
0001
,  // measure 43
1000
0000
0100
0000
0010
0000
0001
0000
0100
0001
0100
0010
0100
0001
0100
0000
,  // measure 44
0010
1000
0010
0100
0010
1000
0010
0000
0100
0001
0100
0010
0100
0001
0100
0000
,  // measure 45
0010
1000
0010
0000
1000
0000
0100
0000
0010
0001
0100
0001
0010
0100
1000
0000
,  // measure 46
1001
0001
0101
0100
0110
0000
1010
1000
,  // measure 47
0001
0100
0001
0100
0001
0100
0001
0000
1000
0001
1000
0001
1000
0001
1000
0000
,  // measure 48
0001
0010
0001
0010
0001
0010
0001
0000
0100
0010
0100
0010
0100
0010
0100
0000
,  // measure 49
0001
0000
1000
0100
1000
0000
0010
0000
0100
0001
0100
0010
0100
0000
0001
0000
,  // measure 50
1001
0000
0000
0000
1010
0000
0000
0010
0100
0000
0001
0000
1000
0000
0100
0000
,  // measure 51
1000
0001
1000
0000
0010
0000
0000
0000
0100
0001
0100
0000
0001
0010
0001
0000
,  // measure 52
0010
0100
1000
0000
0010
1000
0100
0000
0010
0001
0100
0000
0001
1000
0001
0000
,  // measure 53
0100
0001
0100
0000
0001
0010
0100
0000
1000
0100
1000
0000
0010
1000
0100
0000
,  // measure 54
0010
0001
0100
0000
0001
1000
0010
0000
1010
0000
1000
0000
1001
0000
0001
0000
,  // measure 55
0001
0100
0001
0000
0011
0000
0000
0000
0010
0100
0010
0000
0100
1000
0100
0000
,  // measure 56
1000
0001
1000
0000
0001
0010
0001
0000
0100
0001
0100
0000
0010
0100
0001
0000
,  // measure 57
0010
0100
0010
0100
0010
0100
0010
0100
1000
0001
1000
0001
1000
0001
1000
0001
,  // measure 58
0010
0001
0010
0001
0010
0001
0010
0001
0100
0000
0110
0000
0010
1000
0100
0000
,  // measure 59
1002
0000
1003
0010
0001
0010
1000
0100
,  // measure 60
0102
0000
0103
1000
0010
0100
0001
0010
,  // measure 61
0021
0000
0130
1000
2010
0000
3001
0000
,  // measure 62
0201
0000
0000
0000
0310
0000
1000
0000
0001
0010
0001
1000
0010
1000
0100
0010
,  // measure 63
0200
0000
0310
0001
1000
0001
0010
0100
,  // measure 64
1000
0000
0001
1000
0010
0000
1000
0000
0001
0100
0001
0100
0010
1000
0010
1000
,  // measure 65
0002
0000
0000
0000
,  // measure 66
0000
0000
0000
0000
,  // measure 67
0003
0000
0000
0000
;
