#VERSION:0.83;
#TITLE:Growth Memories;
#SUBTITLE:;
#ARTIST:Hidra-Xjeil;
#TITLETRANSLIT:;
#SUBTITLETRANSLIT:;
#ARTISTTRANSLIT:;
#GENRE:;
#ORIGIN:;
#CREDIT:;
#BANNER:Growth Memories.png;
#BACKGROUND:Growth Memories-bg.png;
#PREVIEWVID:;
#JACKET:Growth Memories-jacket.png;
#CDIMAGE:;
#DISCIMAGE:;
#LYRICSPATH:;
#CDTITLE:;
#MUSIC:Growth Memories.ogg;
#OFFSET:-1.100000;
#SAMPLESTART:93.721718;
#SAMPLELENGTH:14.999994;
#SELECTABLE:YES;
#BPMS:0.000=215.000;
#STOPS:;
#DELAYS:;
#WARPS:;
#TIMESIGNATURES:0.000=4=4;
#TICKCOUNTS:0.000=4;
#COMBOS:0.000=1;
#SPEEDS:0.000=1.000=0.000=0;
#SCROLLS:0.000=1.000;
#FAKES:;
#LABELS:0.000=Song Start;
#BGCHANGES:;
#KEYSOUNDS:;
#ATTACKS:
;

//---------------dance-single - ----------------
#NOTEDATA:;
#CHARTNAME:;
#STEPSTYPE:dance-single;
#DESCRIPTION:;
#CHARTSTYLE:;
#DIFFICULTY:Beginner;
#METER:5;
#RADARVALUES:0.295315,0.394704,0.000000,0.000000,0.000000,251.000000,251.000000,0.000000,0.000000,0.000000,0.000000,0.000000,0.000000,0.000000,0.295315,0.394704,0.000000,0.000000,0.000000,251.000000,251.000000,0.000000,0.000000,0.000000,0.000000,0.000000,0.000000,0.000000;
#CREDIT:;
#NOTES:
0000
0000
0000
0000
,
0000
0000
0000
0000
,
0000
0000
0000
0000
,
0000
0000
0000
0000
,
1000
0001
1000
0000
,
0010
0100
0001
0000
,
0100
0000
0010
0000
,
1000
0000
0001
0000
,
1000
0000
0000
0000
,
0010
0000
1000
0000
,
0010
0000
0100
0000
,
0001
0000
0010
0000
,
0001
0000
1000
0000
,
0100
0000
1000
0000
,
0010
0000
0100
0000
,
0001
0000
0010
0000
,
0001
0000
1000
0000
,
0100
0000
0100
0000
,
0010
0000
0010
0000
,
0001
0000
0001
0000
,
1000
0001
1000
0000
,
0100
0000
0010
0000
,
0100
0000
1000
0000
,
0001
0000
0001
0000
,
1000
0000
1000
0000
,
0010
0000
0100
0000
,
0010
0000
1000
0000
,
0010
0000
1000
0000
,
0100
0000
0010
0000
,
0001
0000
1000
0000
,
0001
0000
1000
0000
,
0100
0000
1000
0000
,
0010
0000
0100
0000
,
0010
0000
1000
0000
,
0001
0000
1000
0000
,
0100
0000
0100
0000
,
1000
0000
1000
0000
,
0010
0000
0010
0000
,
0100
0000
0100
0000
,
0001
0000
0001
0000
,
1000
0000
1000
0000
,
0010
0000
0010
0000
,
0100
0000
0100
0000
,
0001
0000
0001
0000
,
1000
0000
1000
0000
,
0010
0000
0010
0000
,
0100
0000
0100
0000
,
0001
0000
1000
0000
,
0001
1000
0001
0000
,
0001
0000
0001
0000
,
1000
0100
1000
0000
,
0010
0010
0010
0000
,
0100
0100
0100
0000
,
0001
1000
0001
0000
,
1000
0000
0100
0000
,
0010
0010
0001
0000
,
0100
0100
0010
0000
,
1000
1000
0001
0000
,
0001
0001
0100
0000
,
0010
0000
0000
0000
,
1000
1000
0100
0000
,
0100
0100
0010
0001
,
1000
0001
1000
0010
,
0100
0000
0100
0000
,
0001
0000
0001
0000
,
1000
1000
0010
0010
,
0100
0001
0100
0000
,
0010
0000
1000
0000
,
0100
0000
1000
0000
,
0010
0100
0001
0100
,
0010
0000
1000
0000
,
0010
0000
0100
0000
,
0001
0000
1000
0000
,
0001
1000
0001
0000
,
1000
0000
0100
0000
,
1000
0000
1000
1000
,
1000
0000
0010
0000
,
0100
0100
0100
0000
,
0001
0001
0001
0000
,
1000
0000
0010
0000
,
1000
0000
0100
0000
,
0010
0000
0001
0000
,
1000
0000
0000
0000
,
0001
0000
0100
0000
,
0001
0010
0001
0010
,
0001
0000
1000
0000
,
0100
1000
0100
0000
,
0010
0001
0010
0000
,
0001
0100
0001
0000
,
1000
0100
1000
0000
,
0010
0100
0010
1000
,
0010
0000
0100
0000
,
0001
1000
0001
0000
,
1000
0100
1000
0000
,
0010
1000
0010
0000
,
1000
0001
1000
0000
,
0001
1000
0001
0000
,
0100
0010
0100
0000
,
0010
1000
0010
1000
,
0100
0000
0010
0000
,
0001
1000
0001
0000
,
1000
0100
1000
0010
,
0100
0000
0001
0000
,
1000
0001
1000
0010
,
0100
0001
0010
0001
,
1000
0000
0000
0000
,
0100
0000
1000
0000
;

//---------------dance-single - ----------------
#NOTEDATA:;
#CHARTNAME:;
#STEPSTYPE:dance-single;
#DESCRIPTION:;
#CHARTSTYLE:;
#DIFFICULTY:Easy;
#METER:9;
#RADARVALUES:0.474151,0.482416,0.000000,0.016472,0.000000,403.000000,403.000000,0.000000,2.000000,0.000000,0.000000,0.000000,0.000000,0.000000,0.474151,0.482416,0.000000,0.016472,0.000000,403.000000,403.000000,0.000000,2.000000,0.000000,0.000000,0.000000,0.000000,0.000000;
#CREDIT:;
#NOTES:
0000
0000
0000
0000
,
0000
0000
0000
0000
,
0000
0000
0000
0000
,
0000
0000
0000
0000
,
1000
0010
1000
0100
,
0000
0010
0001
0010
,
0001
0100
0010
1000
,
0010
0000
0000
0000
,
0000
0000
0000
0000
,
1000
0001
1000
0001
,
0010
0001
0010
0100
,
1000
0100
1000
0010
,
1000
0001
0100
0010
,
1000
0000
1000
0000
,
0001
0100
0001
0000
0100
0000
0010
0000
,
1000
0100
1000
0000
0001
0000
0010
0000
,
0001
0100
0010
1000
,
0010
1000
0010
0000
0100
0000
0010
0000
,
0001
0010
0100
1000
,
0001
1000
0001
0000
1000
0100
1000
0000
,
0010
0100
0010
1000
,
0001
1000
0001
0000
1000
0000
0010
0000
,
0100
0010
1000
0100
,
0010
0000
0001
1000
0000
0001
1000
0000
,
0010
1000
0000
0010
1000
0000
0001
0000
,
1000
0001
0100
0010
,
1000
0010
0100
0001
,
0010
0000
0001
0000
1000
0000
0100
1000
,
0100
1000
0010
0100
,
0010
0000
0100
0001
0000
0001
0000
0010
,
0000
0100
0000
1000
0000
0100
0000
0010
,
0001
1000
0001
1000
,
0010
0100
0010
1000
,
0001
0000
1000
0001
0000
0000
1000
0000
,
0010
0100
0001
0010
,
0001
0000
1000
0000
,
0010
0000
1000
0010
0000
1000
0000
0000
,
0100
1000
0010
1000
,
0100
0010
0001
0010
,
0001
1000
0100
1000
,
0010
0000
0100
0010
0100
0000
0010
0000
,
1000
0100
0010
0001
,
0010
0000
0001
0010
0001
0000
1000
0000
,
0100
0000
1000
0000
0010
0100
0010
0000
,
0100
0000
0001
0000
1000
0001
1000
0000
,
0010
0000
0100
0000
0001
0100
0001
0000
,
1000
0100
1000
0010
,
0100
0010
1000
0100
,
1000
0100
1000
0100
1000
0000
0001
0000
,
0010
0001
0010
0001
,
0010
0100
1000
0000
,
0001
1000
0001
1000
,
0010
0100
0010
0100
,
0001
1000
0001
1000
,
0001
0010
0001
0010
,
0100
0100
1000
1000
,
0001
0001
0100
0100
,
0010
0010
1000
1000
,
0001
0000
1000
0000
0001
1000
0001
0000
,
1000
0100
0010
0001
,
0010
0001
0100
0010
,
1000
0010
1000
0000
0001
0000
0100
0000
,
0010
1000
0100
1000
,
0010
0000
0100
0001
0000
1000
0000
0000
,
0001
0000
1000
0001
0000
0000
1000
0000
,
0010
0100
0001
1000
,
0001
0100
0010
1000
,
0100
0000
0100
0100
,
0100
0000
0010
0001
,
1000
0001
0100
0010
,
1000
0000
0010
0000
,
0100
0000
0001
1000
,
0001
0000
0100
0000
,
0010
1000
0010
0000
,
0100
0001
0100
0000
,
0001
0000
1000
1000
,
1000
0000
0010
0010
,
0010
0000
0100
0000
,
0001
0001
0001
0000
,
1000
0001
1000
0001
,
0100
0010
0100
0010
,
1000
1000
1000
1000
,
0001
0000
0000
0000
,
1000
0100
1000
0010
,
0100
0001
2000
3000
,
0001
1000
0010
1000
,
0100
0010
0002
0003
,
0100
0010
1000
0010
,
0100
0000
0001
0000
1000
0001
1000
0000
,
0001
0100
0010
1000
,
0100
0010
0001
1000
,
0001
1000
0010
0100
,
0010
0100
0010
0100
0010
0000
1000
0000
,
0100
1000
0100
0010
,
0001
0100
0001
0100
,
0010
1000
0010
0000
1000
0100
1000
0000
,
0010
0100
0001
1000
,
0001
0000
0100
0000
0010
0100
0010
0000
,
1000
0100
1000
0100
,
0010
0001
0010
0001
,
1000
0000
0001
1000
0001
0000
0100
0000
,
0010
1000
0100
1000
,
0010
0100
0001
0100
,
0010
1000
0100
0010
,
0001
1000
0001
0100
,
0010
0000
0000
1000
0000
0000
0010
0000
,
0000
0000
0000
0100
0001
0000
0000
0000
;

//---------------dance-single - ----------------
#NOTEDATA:;
#CHARTNAME:;
#STEPSTYPE:dance-single;
#DESCRIPTION:;
#CHARTSTYLE:;
#DIFFICULTY:Medium;
#METER:12;
#RADARVALUES:0.648281,0.701697,0.263548,0.148246,0.045297,551.000000,519.000000,32.000000,18.000000,0.000000,0.000000,0.000000,0.000000,0.000000,0.648281,0.701697,0.263548,0.148246,0.045297,551.000000,519.000000,32.000000,18.000000,0.000000,0.000000,0.000000,0.000000,0.000000;
#CREDIT:;
#NOTES:
0000
0000
0000
0000
,
0000
0000
0000
0000
,
0000
0000
0000
0000
,
0000
0000
0000
0000
,
0001
1000
0001
0000
0100
0000
0010
0000
,
1000
0000
0100
1000
0100
0000
1000
0000
,
0010
0100
0001
0010
,
0002
0000
0000
0000
,
0003
0200
0000
0000
0310
0000
1000
0000
,
0001
1000
0001
0000
0100
0000
0010
0000
,
1000
0100
1000
0000
0010
0000
0100
0000
,
0001
0010
0001
1000
,
0001
1000
0001
0000
0100
0000
0010
0000
,
1000
0100
0010
0001
,
0010
0100
1000
0001
,
1000
0001
1000
0000
0001
0100
0001
0000
,
0100
0010
1000
0100
,
0010
0001
0010
0001
,
1000
0001
1000
0000
0001
1000
0001
0000
,
0100
0010
1000
0010
,
0100
0010
0100
0000
0010
0100
0010
0000
,
1000
0000
0100
0000
1000
0000
0100
1000
,
0100
1000
0100
1000
0100
0000
0010
0000
,
0011
0000
0001
0100
0000
0100
0010
0000
,
0010
1000
0000
1000
0100
0000
0100
0001
,
0000
0001
0100
0000
0100
1000
0000
1010
,
0000
0110
0000
0101
0000
0001
0010
0000
,
0100
0010
0100
0010
0100
0000
1000
0001
,
1000
0000
0000
1010
0000
0000
0110
0000
,
0101
0000
0001
0010
0000
0010
0000
0100
,
0000
1000
0100
1000
0001
0000
0010
0001
,
0200
0000
0000
0000
0310
0000
1000
0010
,
2000
0000
0000
3002
0000
0000
0023
0000
,
0032
0000
1003
0010
0000
0110
0000
0100
,
0000
0001
0010
0000
0110
0000
1001
0000
,
1000
0000
0010
1000
0000
1001
0000
0000
,
0101
0000
0100
0001
0010
0100
0000
1000
,
0001
0000
0000
0100
0000
0000
0010
0000
0000
0100
0000
0000
0001
0000
0000
1000
,
0000
0010
0000
1000
0100
1000
0010
1000
,
0001
0000
0000
0101
0000
0110
0000
0020
,
0000
1030
0100
1000
0001
0000
1001
0000
,
1000
0010
0100
0010
0000
0100
0000
0001
,
0000
0010
0001
0010
0100
1000
0100
0000
,
1000
0001
1000
0000
0001
0100
0001
0000
,
0100
0010
0100
0000
0010
1000
0010
0000
,
1000
0100
1000
0100
0010
0001
0010
0001
,
0100
0010
0000
0110
0000
0100
0001
0000
,
0001
1000
0000
1010
0000
0110
0000
0101
,
0000
0001
1000
0010
1000
0000
1100
0000
,
0010
0001
0100
0001
0000
0010
0000
0200
,
0000
1300
0010
1000
0001
0100
0001
0010
,
0100
0010
0000
0000
1000
0100
1000
0001
,
1000
0100
1000
0010
1000
0100
1000
0000
,
0001
0010
0001
0000
0100
0010
0100
0010
,
0000
1000
0000
0000
0100
0000
0010
0000
0001
0000
1000
0000
0001
0000
0000
0000
,
0100
0010
0100
0000
0010
1000
0010
0000
,
1000
0100
1000
0000
0002
0000
0103
0000
,
0010
1000
0010
0000
1000
0100
1000
0001
,
0000
0100
0000
0010
0000
1000
0000
1010
,
0000
0000
0010
0100
0001
1000
0001
1000
,
0010
0100
0001
0010
,
0100
1000
0100
0000
1000
0010
1000
0000
,
0001
0000
1000
0000
0001
0000
0000
0000
0100
0000
0000
0010
0000
0000
0100
0000
,
0020
0000
1030
0001
0000
1001
0000
0000
,
1000
0000
0010
1000
0000
1010
0000
0010
,
0100
0000
0000
0001
0000
0000
0100
0000
0000
0010
0000
0000
1000
0000
0000
0100
,
0000
1000
0000
1001
0000
0000
0000
0000
,
0002
0000
2003
3020
,
2030
0000
3001
1000
0001
0000
0100
0000
,
0010
1000
0010
1000
0010
0000
1000
0000
,
1001
0000
0000
0101
0000
0000
0100
0000
,
0010
0000
0000
0000
0000
1000
0000
0000
0000
0000
0001
0000
0000
0000
0000
0100
,
0000
0000
0010
0000
1000
0010
0000
0000
,
1000
0100
0010
0001
,
1000
0000
0000
0010
0000
0000
1000
0000
,
0001
0000
0000
0010
0000
0001
0000
0100
,
0000
0010
1000
0010
0100
0000
0001
0000
,
0010
0000
0001
0010
0000
0100
0000
1000
,
0000
0100
1000
0100
1000
0000
0010
0000
,
0100
0001
0100
0000
0001
0010
0001
0000
,
1000
0001
1000
0010
1000
0000
0000
0001
,
0000
0100
0010
0100
0010
0100
0000
0002
,
2000
0000
0000
3003
,
1010
0000
0000
1001
0000
0101
0000
0110
,
0000
0010
1000
0100
0010
0000
0001
0000
,
1000
0001
1000
0010
0000
0100
0000
0002
,
0000
1003
0100
1000
0010
0000
0100
0000
,
0001
1000
0001
1000
0001
0000
0100
0000
,
0010
1000
0010
1000
0010
0000
0100
0001
,
1000
0001
0000
1000
0010
0100
0010
1000
,
0010
0100
0000
0001
0000
0100
0010
0000
,
1000
0000
0000
1010
0000
0110
0000
0100
,
0000
0001
0010
0001
1000
0000
0010
0000
,
1000
0100
1000
0100
1000
0001
0000
0100
,
0000
0001
1000
0001
1000
0000
0010
0000
,
0100
0010
0100
0000
0010
1000
0010
0000
,
1000
0100
1000
0000
0001
1000
0001
0000
,
0100
0010
0100
0000
0010
1000
0010
1000
,
0000
0001
0000
0000
0100
0000
0010
0000
0100
0000
0010
0000
0100
0000
0001
0000
,
0100
0001
0100
0000
0010
1000
0000
0000
,
1000
0100
1000
0000
0001
0000
0010
0001
,
0100
0001
0010
0000
0100
1000
0000
0000
,
1000
0000
0010
0000
1000
0001
1000
0001
,
0100
0001
0100
0000
0010
1000
0000
0000
,
1000
0000
0010
0000
0100
0001
0000
0001
,
0000
1000
0010
1000
,
0000
0000
0000
0001
1000
0000
0000
0000
;

//---------------dance-single - ----------------
#NOTEDATA:;
#CHARTNAME:;
#STEPSTYPE:dance-single;
#DESCRIPTION:;
#CHARTSTYLE:;
#DIFFICULTY:Hard;
#METER:17;
#RADARVALUES:0.920065,1.154464,0.609455,0.238840,0.498270,782.000000,708.000000,74.000000,29.000000,0.000000,0.000000,0.000000,0.000000,0.000000,0.920065,1.154464,0.609455,0.238840,0.498270,782.000000,708.000000,74.000000,29.000000,0.000000,0.000000,0.000000,0.000000,0.000000;
#CREDIT:;
#OFFSET:-1.100000;
#BPMS:0.000000=215.000000
,268.000000=107.500000
,298.000000=430.000000
,306.000000=215.000000
;
#STOPS:;
#DELAYS:;
#WARPS:;
#TIMESIGNATURES:0.000000=4=4
;
#TICKCOUNTS:0.000000=4
;
#COMBOS:0.000000=1
;
#SPEEDS:0.000000=1.000000=0.000000=0
;
#SCROLLS:0.000000=1.000000
;
#FAKES:;
#LABELS:0.000000=Song Start
;
#NOTES:
0000
0000
0000
0000
,
0000
0000
0000
0000
,
0000
0000
0000
0000
,
0000
0000
0000
0000
,
1000
0001
1000
0001
0100
0000
0010
0000
0000
0000
0010
0000
2000
0000
0000
0000
,
3000
0000
0010
1000
0010
0000
0100
0000
0000
0000
0001
0000
0010
0000
0001
0000
,
1000
0100
1000
0001
0000
0101
0000
0010
,
0200
0000
0000
0000
,
0300
0020
0000
0000
1000
1030
0000
0001
,
0010
0000
0001
0000
0010
0000
0100
0000
1000
0100
1000
0000
0010
0000
0100
0010
,
0100
0000
0001
0000
0010
0000
0001
0000
1000
0001
1000
0000
0010
0000
0100
0000
,
0001
0000
0100
0000
0010
0000
1000
0000
0001
0100
0001
0000
0100
0000
0010
0000
,
0000
0010
2000
0000
0001
3000
0000
0001
,
1000
0000
0010
0000
1000
0000
0001
0000
0100
0010
0100
0000
0010
0000
1000
0000
,
0100
0000
0010
0000
0001
0000
0100
0000
0010
1000
0010
0000
0100
0000
0001
0000
,
0000
0011
0000
0010
0100
0000
0100
1000
,
0010
0000
1000
0000
0100
0000
0010
0000
0001
1000
0001
1000
0001
0000
0100
0000
,
0010
0000
1000
0000
0010
0000
0100
0000
0001
0010
0001
0010
0001
0000
1000
0000
,
0010
0000
0100
0000
0001
0000
1000
0000
0010
1000
0001
1000
0010
0000
0100
0000
,
0001
0000
0010
0001
0010
0000
1000
0000
0010
0000
0001
0000
0100
0000
0010
0000
,
0000
0000
0010
0000
2000
0000
0000
0000
0001
0000
3000
0000
0001
0000
0100
0010
,
1000
0010
0100
0000
0001
0000
0010
0000
0100
0001
0100
0000
1000
0000
0010
0000
,
0100
0000
0001
0000
0100
0000
0010
0000
1000
0001
1000
0000
0100
0000
0010
0000
,
0011
0000
0001
0101
0000
0100
0110
0000
,
0010
1010
0000
1000
1100
0000
0100
0101
,
0000
0100
0110
0000
0010
0011
0000
1001
,
0000
0101
0000
0110
0000
0010
1000
0000
,
0001
0100
0001
0000
1000
0000
0000
0000
0001
0000
0000
0000
0100
0000
0001
0000
,
0010
1000
0010
0001
0100
0000
0101
0000
,
0100
0000
1000
0100
0000
0101
0000
0011
,
0000
0000
0100
0000
1000
0000
0010
0000
0100
0000
0001
0000
0010
0001
0010
0001
,
0100
0010
1000
0000
0100
0000
1000
0001
,
0200
0310
1010
1100
,
0110
0000
0010
0001
0000
0001
0100
0010
,
1000
0100
0010
0000
0001
0010
1000
0010
,
0001
0000
1000
0001
0000
0100
0101
0000
,
1010
0000
0000
0000
1000
0001
1000
0000
0000
0000
1001
0000
0000
0000
0010
0000
,
0011
0000
0000
0101
0000
0000
0110
0000
0000
1010
0000
0000
1100
0000
0000
0110
,
0000
0000
0011
0000
0000
0000
0001
1000
0001
1000
0001
1000
0001
1000
0001
0000
,
0100
0010
1000
0010
0100
0001
1000
2001
,
0000
0000
3010
0000
1000
0000
0100
0000
0001
0000
0100
0000
1000
0010
1000
0000
,
0001
0100
0010
0100
0000
0101
0000
1001
,
0000
1000
0010
0100
0010
0001
0010
1000
,
0001
0000
0100
0010
0100
0000
0001
0000
1000
0000
0100
0000
0010
0000
0010
0000
,
1000
0000
0010
0001
0010
0000
0001
0000
0100
0000
0010
0000
1000
0001
0010
0000
,
0100
0000
1000
0000
0001
0000
0010
0000
0001
0000
0100
0010
0100
0000
0010
0000
,
1000
0000
1100
0000
0000
0000
0110
0000
0000
0000
0010
0000
0001
1000
0001
0100
,
0010
0000
1000
0000
0001
0000
1000
0000
0010
0000
0100
0001
0100
0000
0020
0000
,
0000
1030
0100
0001
0101
0000
1100
0000
,
0100
0010
0100
0001
0000
0100
1000
0200
,
0000
0000
0310
0000
0001
0000
1000
0000
0010
1000
0010
1000
0001
0100
0001
0000
,
0100
0000
0001
1000
0001
0000
0000
0000
0100
0000
0001
0100
0001
0000
0010
0000
,
0100
0000
0001
0100
1000
0000
0100
0000
1000
0100
1000
0100
0010
0001
0010
0001
,
0100
0010
0110
0000
0010
1000
0100
1100
,
0000
1001
0000
0000
0101
0000
0000
0100
0010
1000
0010
1000
0010
1000
0010
0000
,
1000
1000
0100
0001
0100
0100
0010
0010
,
0001
0001
0100
0100
0220
0000
0330
0000
,
0010
0010
1000
1000
0010
0001
0010
0000
,
0000
0000
1010
0000
0000
0000
0010
0000
0100
0001
0100
0000
0001
0000
1001
0000
,
0000
0000
0001
0001
0100
0100
0100
0100
,
0010
0000
1000
0000
0001
1000
0010
1000
0002
0000
0000
0000
0103
0000
0010
0000
,
1000
0100
1000
0010
0100
0001
0010
0100
,
0010
0000
0001
1000
0100
0000
1000
0000
0010
0000
0000
0110
0000
0000
0101
0000
,
0001
0000
1000
0001
0010
0022
0000
0033
,
0100
0000
1000
0000
0001
0100
0001
0000
0000
0000
0011
0000
0000
0000
0010
0000
,
0110
0000
0000
1100
0000
0000
1001
0000
0000
0101
0000
0000
0110
0000
0000
1010
,
0000
0000
1001
0000
0000
0000
0010
0000
0100
0010
0100
0010
0100
0000
0000
0000
,
2002
0000
3003
0000
1020
0000
0230
0000
0302
0000
0013
1000
0020
0000
0032
0000
,
0103
0000
0010
0000
1000
0000
0010
0000
0100
0000
0001
0000
0010
0000
0100
0000
1000
0010
0000
0000
0000
0000
0000
0000
0100
0000
0000
0000
0001
0000
0000
0000
,
1000
0000
0000
1010
0000
0000
0110
0000
0101
0000
0000
0011
0000
0000
0110
0000
,
1100
0000
1000
0001
0000
0001
0000
0100
0020
0000
0000
0000
1030
0000
0001
0000
,
0101
0000
0000
0010
0000
0010
0000
1000
0000
0001
0100
0001
0100
0000
0010
0000
,
1000
0000
0001
1000
0000
0100
0000
0010
0000
0001
0000
0100
0001
0000
1000
0000
,
0001
0100
1000
0100
0001
0010
1000
0010
0001
0010
0100
0001
0100
1000
0000
1010
,
0000
0010
0100
0001
0100
0010
0000
0100
0220
0000
0000
0000
0000
0000
0000
0000
,
0000
0000
0000
0000
,
0000
0000
0000
0330
1001
0000
0000
0101
,
0000
0000
0110
0000
0000
0000
1010
0000
0000
0000
1000
0000
0100
0000
1000
0001
,
1000
0100
0010
0001
0100
0001
0010
0001
,
0000
0101
0000
0100
0010
1000
0100
1000
,
0001
0000
1000
0000
0010
0000
0000
0000
0100
0000
0001
0010
0100
0000
0010
0000
,
0001
0000
1000
0000
0001
0000
0100
0000
0010
0000
1000
0010
0100
0000
0001
0000
,
0100
0000
0010
0000
1000
0001
1000
0000
0001
0000
0100
0000
0000
0000
0010
0000
,
1000
0000
0001
1000
0001
0000
0010
0000
0100
0000
0001
0000
0000
0000
0100
0000
,
0000
0000
1000
0000
0010
0000
1000
0000
0001
0100
0010
0000
0100
0000
0001
0000
,
1000
0000
0001
0000
0000
0000
1000
0000
0010
0000
0100
0001
0100
0000
0001
0000
,
1000
0000
0010
0000
0100
0000
0000
0000
0001
0000
0010
1000
0010
0000
0001
0000
,
0100
0010
1000
0200
0000
0310
0001
1000
,
0001
0010
0001
0010
0100
1000
0100
1000
0001
0000
0100
0001
0100
0000
0000
0000
,
0010
0000
1000
0010
1000
0000
0001
0000
0100
0000
0010
1000
0001
0000
1000
0000
,
0001
0100
0001
0100
0001
0000
1000
0000
0010
0000
0100
0000
0110
0000
0000
0000
,
0001
0000
0001
0000
1000
0000
1000
0000
0000
0101
0000
0000
0100
0000
0010
0000
,
1000
0000
0010
0000
0100
0000
0001
0010
0001
0000
1000
0000
0100
0000
0000
0000
,
0010
0000
1001
0000
0000
0000
0000
0000
1000
0010
1000
0000
0100
0000
0000
0000
,
0010
0000
0000
0000
0001
0000
0100
0001
0100
0000
0010
0000
1000
0000
0000
0000
,
0100
0000
1000
0000
0000
0000
0000
0000
0010
0000
0100
0000
0001
0010
0001
0000
,
1000
0000
0010
0000
1000
0000
0100
0010
0100
0000
0001
0000
0100
0000
1000
0000
,
0010
0100
0000
0000
0001
0010
0001
0000
,
1000
0001
0000
2000
0000
0000
3020
0000
,
0230
0302
0000
0003
,
1000
1001
0000
0000
0000
0000
0000
0000
;

//---------------dance-single - ATK----------------
#NOTEDATA:;
#CHARTNAME:;
#STEPSTYPE:dance-single;
#DESCRIPTION:ATK;
#CHARTSTYLE:;
#DIFFICULTY:Challenge;
#METER:18;
#RADARVALUES:1.074193,1.461096,0.848295,0.411794,0.815352,913.000000,810.000000,103.000000,50.000000,4.000000,0.000000,0.000000,0.000000,0.000000,1.074193,1.461096,0.848295,0.411794,0.815352,913.000000,810.000000,103.000000,50.000000,4.000000,0.000000,0.000000,0.000000,0.000000;
#CREDIT:;
#OFFSET:-1.100000;
#BPMS:0.000000=215.000000
,142.500000=430.000000
,145.500000=215.000000
,227.500000=430.000000
,231.500000=215.000000
,239.000000=430.000000
,242.000000=215.000000
,273.000000=107.500000
,303.000000=430.000000
,311.000000=215.000000
;
#STOPS:;
#DELAYS:;
#WARPS:;
#TIMESIGNATURES:0.000000=4=4
;
#TICKCOUNTS:0.000000=4
;
#COMBOS:0.000000=1
;
#SPEEDS:0.000000=1.000000=0.000000=0
;
#SCROLLS:0.000000=1.000000
;
#FAKES:;
#LABELS:0.000000=Song Start
;
#NOTES:
// measure 0
0000
0000
0000
0000
,  // measure 1
0000
0000
0000
0000
,  // measure 2
0000
0000
0000
0000
,  // measure 3
0000
0000
0000
0000
,  // measure 4
1000
0100
0010
0001
0100
0000
0120
0000
0000
0000
1030
0000
2001
0000
0000
0000
,  // measure 5
3000
0000
0010
1000
0001
0000
2000
0000
3000
0000
0010
0000
0100
0010
2000
0000
,  // measure 6
3010
0000
0100
0001
2000
0000
3010
0000
0110
0000
0101
0000
0000
0000
0010
0000
,  // measure 7
2010
0000
0000
0000
,  // measure 8
3000
0000
0002
0000
0000
0000
0000
0000
1000
0000
1003
0000
0000
0000
0001
0010
,  // measure 9
0001
0010
0001
0000
0010
0000
0100
0000
1000
0100
1000
0100
1000
0000
0001
0000
,  // measure 10
0100
0010
0100
0010
0100
0000
0001
0000
1000
0001
1000
0000
0010
0000
0100
0000
,  // measure 11
0001
0000
0100
0000
0010
0000
1000
0000
0001
0100
0001
0100
0001
0000
0010
0000
,  // measure 12
0000
0010
2000
0000
0001
3000
0100
0001
,  // measure 13
1000
0010
1000
0010
1000
0000
0001
0000
0100
0010
0100
0010
0100
0000
0001
0000
,  // measure 14
0010
0000
0100
0000
1000
0000
0100
0000
0010
0001
0010
0000
0001
0000
1000
0000
,  // measure 15
0000
1010
0000
0010
0100
0000
0100
0001
,  // measure 16
0010
0000
0100
0000
1000
0000
0010
0000
0100
0001
0100
0001
0100
0000
0010
0000
,  // measure 17
1000
0100
1000
0100
1000
0000
0100
0000
0010
0100
0010
0100
0010
0000
0001
0000
,  // measure 18
0010
0000
0100
0000
1000
0000
0001
0000
0010
0001
0010
0001
0100
0000
0010
0000
,  // measure 19
1000
0000
0010
1000
0010
0000
0100
0000
0010
0000
0001
0000
0010
0100
0010
0000
,  // measure 20
0000
0000
0010
0000
2000
0000
0000
0000
0001
0000
3000
0000
0001
0000
1000
0010
,  // measure 21
1000
0010
0100
0000
0001
0000
0010
0000
0001
0100
0001
0100
0010
0000
1000
0000
,  // measure 22
0100
0000
0010
0000
0100
0000
1000
0000
0001
0010
0001
0000
0100
0000
0010
0000
,  // measure 23
0110
0000
0001
0101
0000
1000
1010
0000
,  // measure 24
0010
0110
0000
0100
0101
0000
0001
1001
,  // measure 25
0000
0110
0110
0000
1010
1010
0000
0011
,  // measure 26
0000
0000
0101
0000
0000
0000
1001
0000
1000
0001
1000
0001
1000
0001
1000
0000
,  // measure 27
0001
0100
0001
1000
0010
0000
0000
0000
0100
0000
0000
0000
0010
0000
1000
0000
,  // measure 28
0001
0100
0001
0000
0100
0000
0001
1000
0001
0000
0000
0000
1001
0000
0000
0000
,  // measure 29
0010
0000
0000
0000
0100
0001
0100
0000
0000
0000
0110
0000
0000
0000
0101
0000
,  // measure 30
0000
0000
0001
0000
1000
0000
0010
0000
0100
0000
0001
0000
0010
0001
0010
0001
,  // measure 31
0100
0010
2000
0000
3100
0000
1000
0001
,  // measure 32
0100
0001
0100
0000
0010
0000
0000
0000
1010
0000
0000
0000
1100
0000
0000
0000
,  // measure 33
0110
0000
0010
0001
0000
0001
0100
0010
,  // measure 34
1000
0100
0010
0000
0001
0010
1000
0010
,  // measure 35
0001
0000
0000
0000
1000
0100
0001
0010
1000
0000
2002
0000
0000
0000
0000
0000
,  // measure 36
0000
0000
0000
0000
3003
0000
1010
0000
0000
0000
1000
0010
0001
0100
1000
0000
,  // measure 37
MMMM
0000
0000
0000
0101
0000
1001
0000
0000
0101
0000
0000
0110
0000
0000
1010
,  // measure 38
0000
0000
1100
0000
0000
0110
0000
0000
0011
0000
0000
0000
0001
1000
0001
1000
,  // measure 39
0001
1000
0001
1000
0001
0000
0100
0000
0010
0000
1000
0000
0010
0100
0001
0000
,  // measure 40
0001
0100
0010
0000
2010
0000
0000
0000
3010
0100
0010
0100
0010
0100
0001
0000
,  // measure 41
0100
0000
0010
1000
0001
0000
1000
0100
1000
0100
1000
0100
0010
0000
0000
0000
,  // measure 42
0011
0000
0000
0000
1001
0000
0000
0000
1000
0010
0100
0010
1000
0010
0100
0000
,  // measure 43
0001
0000
0010
0000
1000
0000
0010
0000
0001
0010
0100
0000
1000
0000
0100
0000
,  // measure 44
0100
0000
0001
0000
0001
0000
0100
0000
0010
0001
0010
0000
0100
0000
0010
0000
,  // measure 45
0001
0000
1000
0100
0010
0000
0100
0000
0100
0000
0001
0000
0100
0000
1000
0000
,  // measure 46
0001
0010
0100
0000
1000
0100
0010
0000
0110
0000
0000
0000
0110
0000
0000
0000
,  // measure 47
0010
0000
0001
1000
0001
0100
0010
0000
1000
0000
0001
0000
1000
0000
0010
0000
,  // measure 48
0100
0001
0100
0000
0020
0000
0000
0000
1030
0000
0100
0010
0001
0010
0100
0000
,  // measure 49
0000
0000
1100
0000
0000
0000
0100
0000
1000
0001
0010
0001
0100
0000
0000
0000
,  // measure 50
0010
0000
1000
0000
0200
0000
0000
0000
0310
0000
0100
0000
1000
0000
0001
0010
,  // measure 51
0001
0010
0100
0010
0100
0000
1000
0000
0001
1000
0002
0000
0000
0000
0013
0000
,  // measure 52
0001
1000
0100
0000
2000
0000
0010
0000
3100
0001
0010
0000
0001
0000
1000
0010
,  // measure 53
1000
0010
0100
0001
0100
0001
0010
0000
0100
0000
0110
0000
0000
0000
0100
0000
,  // measure 54
1000
0000
0100
0000
1100
0000
0000
1001
0000
0000
0101
0000
0000
0100
0010
1000
,  // measure 55
0010
1000
0010
1000
0010
0000
0100
0000
0100
0000
0001
0000
0001
0000
0100
0000
,  // measure 56
0100
1000
1000
0100
0100
0001
0001
0200
,  // measure 57
0000
0000
0000
0000
0000
0000
0000
0301
,  // measure 58
0001
0000
0010
0000
0010
0000
0001
0000
1000
0100
1000
0000
0010
0000
0100
0000
,  // measure 59
0000
0000
0001
0000
0010
0000
0001
1000
0001
0000
1000
0010
2000
0000
0000
0000
,  // measure 60
0000
0000
0000
0000
3001
0001
0100
0110
,  // measure 61
0100
0000
0110
0000
0010
0000
1000
0000
0001
1000
0010
1000
0002
0000
0000
0000
,  // measure 62
0103
0000
0010
0000
1000
0000
0100
1000
0001
0000
0010
0000
0001
0000
1000
0010
,  // measure 63
0100
0000
0001
0000
0010
0000
0001
1000
0100
0000
1000
0000
0010
0000
0000
0110
,  // measure 64
0000
0000
0101
0000
1002
0000
0000
0000
1003
0001
1000
0000
0010
0000
0220
0000
,  // measure 65
0000
0000
0330
0000
0100
0000
0010
0000
1000
0001
1000
0000
0000
0000
0011
0000
,  // measure 66
0000
0000
0010
0000
0110
0000
0000
1100
0000
0000
1001
0000
0000
0101
0000
0000
,  // measure 67
0110
0000
0000
1010
0000
0000
1001
0000
0000
0000
0010
0000
0100
0010
0100
0010
,  // measure 68
1000
0000
0000
0000
2002
0000
3003
0000
2100
0000
3200
0000
0320
0000
0031
1000
,  // measure 69
0002
0000
0000
0000
2003
0000
0000
0000
3010
0000
0100
0000
0001
0000
1000
0000
0100
0000
0010
0000
0001
0000
0100
0000
0001
0010
0000
0000
0000
0000
0001
0000
,  // measure 70
0001
0000
1000
0000
0010
0000
0000
1010
0000
0000
0110
0000
0101
0000
0001
0010
,  // measure 71
0001
0010
0001
0000
1100
0000
1000
0001
0000
0001
0000
0001
0010
0000
0001
0000
,  // measure 72
1000
0000
0001
0000
0101
0000
0000
1010
0000
1010
0000
1001
0000
0001
0100
0001
,  // measure 73
0200
0000
0320
0000
1030
0000
1000
0001
0000
0101
0000
0110
0000
0010
1000
0100
,  // measure 74
0001
0000
1000
0000
0001
0100
1000
0100
0001
0100
1000
0100
0001
0010
1000
0010
,  // measure 75
0001
0010
0000
1010
0000
0011
1001
1001
1001
1001
0000
1001
0010
0000
0001
0000
,  // measure 76
0010
0001
1000
0001
1000
0001
0010
0100
,  // measure 77
1000
0100
1000
0010
1000
0010
0100
0000
,  // measure 78
0000
0000
0101
0000
0000
0000
0110
0000
0000
0000
1010
0000
0000
0000
1000
0001
,  // measure 79
0010
0100
0010
0001
1000
0000
0001
0000
0010
0100
0010
0000
0001
1000
0100
0010
,  // measure 80
0100
1000
0002
0000
0000
0000
0203
0000
0000
0000
0301
1000
0010
0100
0001
1000
,  // measure 81
0010
0100
0001
1000
0010
0000
0000
0000
1001
0000
0000
0000
1000
0000
0001
0010
,  // measure 82
0100
0000
0010
0000
0001
0000
0001
0000
1000
0000
1000
0000
0100
0000
1000
0100
,  // measure 83
0010
0000
0001
0000
0100
0000
0100
0000
0001
0010
0100
1000
0000
0000
1001
0000
,  // measure 84
0000
0101
0000
0000
0001
0000
1000
0100
1000
0000
0010
0000
0100
0000
0101
0000
,  // measure 85
0000
0000
0110
0000
0000
0000
1000
0000
0010
1000
0010
1000
0100
0010
0001
0000
,  // measure 86
0100
0000
0001
0000
1000
0000
1002
0000
0000
0000
1003
0000
0010
0000
0100
0001
,  // measure 87
0100
0001
1000
0000
0010
0000
0100
0000
0210
0000
0000
0000
0310
0000
1000
0100
,  // measure 88
0010
0001
1000
0000
0010
0000
1000
0000
0001
0000
0010
0100
0020
0000
0001
0000
,  // measure 89
0031
0000
1000
0000
0100
0010
0100
0010
0001
1000
0001
1000
0010
0000
0010
1000
,  // measure 90
0010
0000
0000
0000
1000
0000
1000
0010
1000
0000
1001
0000
0101
0000
0010
1000
,  // measure 91
0001
1000
0001
1000
0001
0100
0001
0100
0001
0010
0001
0010
0001
0000
0101
0000
,  // measure 92
0110
0000
0000
0000
1010
0000
1001
0000
0001
0000
0011
0000
0000
0101
0000
0000
,  // measure 93
0100
0000
0110
0000
0010
0000
1100
0000
0100
0000
0001
0010
0001
1000
0100
0000
,  // measure 94
0200
0000
0000
0000
0310
0000
2002
0000
0000
0000
3003
0000
1000
0010
1000
0001
,  // measure 95
0200
0000
0000
0000
0320
0000
0000
0000
1030
0000
0001
0100
0010
0100
0001
1000
,  // measure 96
0020
0000
1030
2200
0000
3300
0010
0100
,  // measure 97
0001
0010
0001
0000
1000
0000
0010
0000
1000
0000
0010
0100
0010
0100
0001
0000
,  // measure 98
0100
0000
1000
0000
0100
0000
0210
0000
0000
0000
0300
0000
0001
1000
0001
1000
,  // measure 99
0010
0000
1000
0001
0000
2001
0000
0010
,  // measure 100
3020
0230
0302
0000
,  // measure 101
0003
0000
1000
1001
0000
0000
0000
0000
;
