#TITLE:Go For The Top (Grand Finale Mix);
#SUBTITLE:;
#ARTIST:U1 overground;
#TITLETRANSLIT:;
#SUBTITLETRANSLIT:;
#ARTISTTRANSLIT:;
#GENRE:;
#CREDIT:;
#BANNER:Go For The Top (Grand Finale Mix).png;
#BACKGROUND:Go For The Top (Grand Finale Mix)-bg.png;
#LYRICSPATH:;
#CDTITLE:;
#MUSIC:Go For The Top (Grand Finale Mix).ogg;
#OFFSET:-1.954000;
#SAMPLESTART:22.615982;
#SAMPLELENGTH:14.500007;
#SELECTABLE:YES;
#DISPLAYBPM:74.000000:180.000000;
#BPMS:0.000000=180.000000
,188.000000=360.000000
,192.000000=180.000000
;
#STOPS:172.000000=0.080000,
172.250000=0.080000,
172.500000=0.080000,
172.750000=0.080000,
173.000000=0.080000,
173.250000=0.080000,
173.500000=0.080000,
173.750000=0.080000,
186.000000=0.080000,
186.250000=0.080000,
186.500000=0.080000,
186.750000=0.080000,
187.000000=0.080000,
187.250000=0.080000,
187.500000=0.080000,
187.750000=0.080000,
188.000000=0.713000
;
#BGCHANGES:0.000=Go For The Top.avi=1.000=0=0=0=StretchNoLoop====,
99999=-nosongbg-=1.000=0=0=0 // don't automatically add -songbackground-
;
#KEYSOUNDS:;
#ATTACKS:;

//---------------dance-double - ----------------
#NOTES:
     dance-double:
     :
     Easy:
     8:
     0.332057,0.423100,0.288429,0.144214,0.000000,274.000000,240.000000,34.000000,17.000000,0.000000,0.000000,0.332057,0.423100,0.288429,0.144214,0.000000,274.000000,240.000000,34.000000,17.000000,0.000000,0.000000:
00000000
00000000
00000000
00000000
,
00000000
00000000
00000000
00000000
,
00000000
00000000
00000000
00000000
,
00000000
00000000
00000000
00000000
,
00000000
00000000
00000000
00000000
,
00000000
00000000
00000000
00000000
,
00000000
00000000
00000000
00000000
,
00011000
00000100
00000010
00000100
,
00001001
00000010
00000100
00001000
,
00011000
00100000
01000000
00100000
,
10010000
00000000
01000000
00100000
,
00020000
00100000
10000000
00100000
,
01000000
00100000
00031000
00000100
,
00002000
00000010
00000001
00000010
,
00000100
00000010
00013000
01000000
,
00010000
01010000
00010000
10010000
,
00010000
00110000
00100000
00010000
,
00001000
00001100
00001000
00001001
,
00001000
00001010
00000100
00001000
,
00000010
00000100
00000010
00000000
00000001
00000000
00000100
00000000
,
00001000
00010000
00011000
00011000
,
00100000
01000000
00100000
00000000
10000000
00000000
01000000
00000000
,
00110000
11000000
01010000
00101000
,
00010000
00001000
00010000
00000000
00000100
00000000
00000010
00000000
,
00000001
00000100
00001001
00001001
,
00000010
00000100
00000010
00000000
00000100
00000000
00000001
00000000
,
00000200
00002300
00023000
02030000
,
03100000
00010000
10000000
00100000
,
00010000
00001000
00010000
00000100
,
00001000
00000010
00000001
00000010
,
00000100
00000001
00000100
00001000
,
00010000
00001000
00010000
00001000
,
01000000
00010000
01000000
00010000
01000000
00000000
00000000
00000000
,
00001000
00010000
00001000
00010000
,
00000010
00001000
00000010
00001000
00000010
00000000
00000000
00000000
,
00001000
00000010
00000001
00000010
,
00001000
00000001
00000100
00001000
,
00010000
01000000
10000000
01000000
,
00020000
00030000
00002000
00003000
00000100
00000000
00000001
00000000
,
00000100
00001000
00010000
01000000
,
10000000
01000000
00010000
00001000
,
00000100
00000010
00000002
00000003
,
00000000
00000000
00000000
00000001
,
00000100
00000000
00000100
00000000
00000010
00000000
00000000
00001000
,
00001000
00000100
00000010
00000001
,
00000100
00001000
00010000
01000000
,
00100000
01000000
00010000
00011000
,
00000100
00000010
00000100
00001001
,
00000010
00000100
00001000
00011000
,
00100000
01000000
00100000
10010000
,
00000000
01000000
00100000
02000000
,
00000000
00000000
00000000
03002000
,
00000000
00023000
00000000
00031000
,
00000100
00000000
00000001
00000000
00001000
00000000
00000001
00000010
,
00000001
00000000
00001000
00000010
00001000
00000000
00000001
00000000
,
00000010
00000100
00001000
00010100
,
00001000
00010000
00100000
01010000
,
00100000
01000000
10000000
10010000
,
10010000
00000000
10000000
01000000
00100000
00000000
00110000
00000000
,
00020000
00100000
01030000
00001000
,
00020000
00001000
00030010
00000100
,
00000020
00000000
00001000
00000000
00000130
00000000
00000001
00001000
,
00000001
00000000
00000001
00000100
00001000
00000000
00011000
00000000
,
00002000
00100000
00013000
00110000
,
20000000
00010000
31000000
10100000
,
01000000
00000000
00100000
00010000
00100000
00000000
00101000
00000000
,
00011000
00010100
00001100
00000000
,
;

//---------------dance-double - ----------------
#NOTES:
     dance-double:
     :
     Medium:
     11:
     0.435067,0.508674,0.195114,0.084832,0.021208,359.000000,336.000000,23.000000,10.000000,0.000000,0.000000,0.435067,0.508674,0.195114,0.084832,0.021208,359.000000,336.000000,23.000000,10.000000,0.000000,0.000000:
00000000
00000000
00000000
00000000
,
00000000
00000000
00000000
00000000
,
00000000
00000000
00000000
00000000
,
00000000
00000000
00000000
00000000
,
00000000
00000000
00000000
00000000
,
00000000
00000000
00000000
00000000
,
00000000
00000000
00000000
00000000
,
00000010
00001000
00000010
00010000
00000100
00010000
00001000
00100000
,
00001000
01000000
00010000
01000000
00001000
00100000
00001000
00000000
,
00010000
00001000
00000100
00000000
00000001
00000100
00001000
00000000
,
00010000
00011000
02000000
03200000
,
10300000
01000000
00100000
00000000
10000000
01000000
00100000
00000000
,
10000000
00010000
00100000
00001000
,
00010000
00001000
00000100
00000000
00010000
00001000
00000100
00000000
,
00000001
00000010
00000100
00001001
,
00000001
00000100
00000001
00000000
00001000
00000001
00001000
00000000
,
00000010
00001000
00000010
00000000
00010000
00000010
00010000
00000000
,
00001000
00010000
00001000
00000000
00100000
00001000
00100000
00000000
,
00010000
00100000
00010000
00000000
10000000
00010000
10000000
00000000
,
01000000
00100000
01000000
00000000
00100000
00000000
01000000
00000000
,
10000000
00100000
00010000
00000000
00001000
00010000
00001000
00010000
,
00001000
00000100
00000010
00000000
00000100
00001000
00010000
00000000
,
00010000
00001000
00000100
00000000
00000100
00000010
00000001
00000000
,
00001000
00000010
00000100
00000000
00000010
00001000
00000001
00000000
,
00000001
00000100
00001000
00000000
00010000
00001000
00010000
00001000
,
00010000
01000000
00100000
00000000
01000000
00010000
00001000
00000000
,
00011000
00001010
00011000
00110000
,
00010000
01000000
10000000
00000000
01000000
00000000
00100000
00000000
,
10000000
01000000
00010000
00000000
00001000
00000000
00010000
00000000
,
00001000
00000100
00000001
00000000
00000100
00000000
00000010
00000000
,
00001000
00000010
00000001
00000000
00000010
00000000
00000100
00000000
,
00000001
00000100
00000001
00000100
00001000
00000100
00001000
00000100
,
00000001
00000100
00001000
00000000
00000001
00000100
00001000
00000000
,
00010000
01000000
00010000
01000000
10000000
01000000
10000000
01000000
,
00010000
01000000
10000000
00000000
00010000
01000000
10000000
00000000
,
00010000
00000000
10010000
00000000
10000000
01000000
00100000
00000000
,
00010000
00000000
01010000
00000000
01000000
00100000
00010000
00000000
,
00001000
00000000
00011000
00000000
00010000
00001000
00000100
00000000
,
00000001
00000010
00001000
00010000
00000010
00000000
00000101
00000000
,
00000001
00000010
00000100
00000000
00001000
00000000
00001010
00000000
,
00000010
00000100
00001000
00000000
00010000
00000000
00011000
00000000
,
00001000
00010000
00100000
00000000
01000000
00000000
20000000
00000000
,
00000000
00000000
00000000
00000000
30000000
00000000
01000000
01000000
,
00000000
00100000
00100000
00000000
00010000
00010000
00000000
10000000
,
10000000
00000000
00010000
10000000
00010000
00000000
10010000
00000000
,
00100000
01100000
00000000
00010000
00011000
00000000
00010100
00000000
,
00001100
00000000
00000010
00000001
00000100
00000000
00000010
00001000
,
00000010
00010000
00000100
00010000
00001000
00100000
00001000
01000000
,
00010000
01000000
00001000
00100000
00001000
00000000
00010000
00001000
,
00000100
00000000
00000001
00000100
00001000
00000000
00010000
00000000
,
00011000
02000000
03200000
20300000
,
00000000
00000000
00000000
32000000
,
00000000
03020000
00000000
00031000
,
00011000
00000000
00001000
00000100
00000001
00000000
00000010
00000100
,
00000100
00000000
00001000
00000001
00000001
00000000
00000010
00000000
,
00001100
00000000
00001000
00000100
00010000
00000000
00001000
00000000
,
00101000
00000000
00100000
00010000
10000000
00000000
02000000
00000000
,
00010000
00000000
03200000
00000000
00010000
00000000
01300000
10000000
,
01000000
10000000
00010000
00100000
00010000
00000000
00100000
00001000
,
00010000
00000000
00000100
00001000
00000010
00000000
00000100
00000001
,
00001000
00000000
00000010
00000100
00001000
00000000
00010000
00001000
,
00010000
00000100
00001000
00000100
00010000
00001000
00010000
00001000
,
00100000
00000000
00001000
00010000
01000000
00000000
00100000
00010000
,
10000000
00010000
00100000
00001000
00010000
00000000
00001000
00010000
,
00001000
00100000
00001000
00010000
00001000
00000000
00010000
00000100
,
00001100
00000000
00000000
00000000
00000000
00000000
00000000
00000000
00000000
00000000
00000000
00000000
00000000
00000000
00000000
00000000
00000000
00000000
00000000
00000000
00000000
00000000
00000000
00000000
00000000
00000000
00000000
00000000
00000000
00000000
00000000
00000000
00000000
00000000
00000000
00000000
00000000
00000000
00000000
00000000
00000000
00000000
00000000
00000000
00000000
00000000
00000000
00000000
00000010
00000000
00000000
00000000
00000000
00000000
00000000
00000000
00000000
00000000
00000000
00000000
00000000
00000000
00000000
00000000
00000000
00000000
00000000
00000000
00000000
00000000
00000000
00000000
00001000
00000000
00000000
00000000
00000000
00000000
00000000
00000000
00000000
00000000
00000000
00000000
00000000
00000000
00000000
00000000
00000000
00000000
00000000
00000000
00000000
00000000
00000000
00000000
00001100
00000000
00000000
00000000
00000000
00000000
00000000
00000000
00000000
00000000
00000000
00000000
00000000
00000000
00000000
00000000
00000000
00000000
00000000
00000000
00000000
00000000
00000000
00000000
00000000
00000000
00000000
00000000
00000000
00000000
00000000
00000000
00000000
00000000
00000000
00000000
00000000
00000000
00000000
00000000
00000000
00000000
00000000
00000000
00000000
00000000
00000000
00000000
00000010
00000000
00000000
00000000
00000000
00000000
00000000
00000000
00000000
00000000
00000000
00000000
00000000
00000000
00000000
00000000
00000001
00000000
00000000
00000000
00000000
00000000
00000000
00000000
00000000
00000000
00000000
00000000
00000000
00000000
00000000
00000000
00000010
00000000
00000000
00000000
00000000
00000000
00000000
00000000
00000000
00000000
00000000
00000000
00000000
00000000
00000000
00000000
,
00000001
00000000
00000000
00000000
00000000
00000000
00000000
00000000
00000000
00000000
00000000
00000000
00000000
00000000
00000000
00000000
00000010
00000000
00000000
00000000
00000000
00000000
00000000
00000000
00000000
00000000
00000000
00000000
00000000
00000000
00000000
00000000
00000001
00000000
00000000
00000000
00000000
00000000
00000000
00000000
00000000
00000000
00000000
00000000
00000000
00000000
00000000
00000000
00000100
00000000
00000000
00000000
00000000
00000000
00000000
00000000
00000000
00000000
00000000
00000000
00000000
00000000
00000000
00000000
00000000
00000000
00000000
00000000
00000000
00000000
00000000
00000000
00000000
00000000
00000000
00000000
00000000
00000000
00000000
00000000
00000000
00000000
00000000
00000000
00000100
00000000
00000000
00000000
00000000
00000000
00000000
00000000
00000000
00000000
00000000
00000000
00000000
00000000
00000000
00000000
00000000
00000000
00000000
00000000
00000000
00000000
00000000
00000000
00000000
00000000
00000000
00000000
00000000
00000000
00000000
00000000
00000000
00000000
00000000
00000000
00000010
00000000
00000000
00000000
00000000
00000000
00000000
00000000
00000000
00000000
00000000
00000000
00000000
00000000
00000000
00000000
00000000
00000000
00000000
00000000
00000000
00000000
00000000
00000000
00000000
00000000
00000000
00000000
00000000
00000000
00000000
00000000
00000000
00000000
00000000
00000000
00000000
00000000
00000000
00000000
00000000
00000000
00000000
00000000
00000000
00000000
00000000
00000000
00000000
00000000
00000000
00000000
00000000
00000000
00000000
00000000
00000000
00000000
00000000
00000000
00000000
00000000
00000000
00000000
00000000
00000000
00000000
00000000
00000000
00000000
00000000
00000000
,
;

//---------------dance-double - ----------------
#NOTES:
     dance-double:
     :
     Hard:
     15:
     0.610791,0.678232,0.262979,0.237530,0.292671,504.000000,473.000000,31.000000,28.000000,0.000000,0.000000,0.610791,0.678232,0.262979,0.237530,0.292671,504.000000,473.000000,31.000000,28.000000,0.000000,0.000000:
00000000
00000000
00000000
00000000
,
00000000
00000000
00000000
00000000
,
00000000
00000000
00000000
00000000
,
00000000
00000000
00000000
00000000
,
00000000
00000000
00000000
00000000
,
00000000
00000000
00000000
00000000
,
00000000
00000000
00000000
00000000
,
00011000
00010000
00001000
00000100
00000010
00000100
00000110
00000001
,
00000100
00000000
00000010
00000000
00000100
00000000
00001000
00000000
00010000
00001000
00010000
00000000
00001000
00010000
00001000
00000000
,
00011000
00001000
00010000
01000000
00100000
01000000
01100000
10000000
,
10010000
10010000
02000000
03200000
,
00310000
10000000
01000000
00100000
00010000
01000000
00100000
00010000
,
00001000
00000000
00010000
00000000
00001000
00000000
00000100
00000000
00000010
00000000
00000000
00000010
00001000
00000000
00000001
00000000
,
00000100
00000001
00000010
00000100
00001000
00000010
00000100
00001000
,
00010000
00001000
00010000
00100000
02000000
00000000
03200000
00000000
,
10300000
01000000
10000000
00000000
01000000
00000000
00100000
00000000
00010000
00100000
00010000
00000000
00100000
00000000
01000000
00000000
,
10000000
00010000
10000000
00000000
00010000
00000000
00100000
00000000
00001000
00010000
00001000
00000000
00010000
00000000
00000100
00000000
,
00001000
00000010
00001000
00000000
00000010
00000000
00000100
00000000
00000001
00001000
00000001
00000000
00001000
00000000
00000010
00000000
,
00000100
00000001
00000100
00000000
00000001
00000000
00001000
00000000
00000100
00010000
00000100
00000000
00010000
00000000
00001000
00000000
,
00100000
00010000
00200000
00000000
01300000
10000000
00100000
00010000
,
00001000
00010000
00002000
00000000
00003010
00000001
00000010
00001000
,
00010000
00001000
00000200
00000000
00000310
00000100
00000001
00000010
,
00000100
00000100
00010000
00010000
00001000
00001000
00100000
00100000
,
00010000
01000000
00200000
00000000
01300000
10000000
01000000
00010000
,
00100000
00001000
00020000
00000000
00030100
00000001
00000100
00001000
,
00000001
00001000
00000020
00000000
00000130
00000001
00001001
00000000
,
00000010
00000000
00000000
00000000
00000000
00000000
00000000
00000000
00000000
00000000
00000000
00000000
00000000
00000000
00000000
00000000
00001000
00000000
00000000
00000000
00000000
00000000
00000000
00000000
00000000
00000000
00000000
00000000
00000000
00000000
00000000
00000000
00000010
00000000
00000000
00000000
00000000
00000000
00000000
00000000
00000000
00000000
00000000
00000000
00000000
00000000
00000000
00000000
00010000
00000000
00000000
00000000
00000000
00000000
00000000
00000000
00000000
00000000
00000000
00000000
00000000
00000000
00000000
00000000
00000100
00000000
00000000
00000000
00000000
00000000
00000000
00000000
00000000
00000000
00000000
00000000
00000000
00000000
00000000
00000000
00010000
00000000
00000000
00000000
00000000
00000000
00000000
00000000
00000000
00000000
00000000
00000000
00000000
00000000
00000000
00000000
00001000
00000000
00000000
00000000
00000000
00000000
00000000
00000000
00000000
00000000
00000000
00000000
00000000
00000000
00000000
00000000
00100000
00000000
00000000
00000000
00000000
00000000
00000000
00000000
00000000
00000000
00000000
00000000
00000000
00000000
00000000
00000000
00001000
00000000
00000000
00000000
00000000
00000000
00000000
00000000
00000000
00000000
00000000
00000000
00000000
00000000
00000000
00000000
00010000
00000000
00000000
00000000
00000000
00000000
00000000
00000000
00000000
00000000
00000000
00000000
00000000
00000000
00000000
00000000
00000000
00000000
00000000
00000000
00000000
00000000
00000000
00000000
00000000
00000000
00000000
00000000
00000000
00000000
00000000
00000000
00000000
00000000
00000000
00000000
00000000
00000000
00000000
00000000
00000000
00000000
00000000
00000000
00000000
00000000
00000000
00000000
,
00001000
00010000
01000000
10000000
00100000
10000000
01000000
00010000
,
00001000
00000100
00000001
00000010
00001000
00000010
00000001
00000100
,
00001000
00010000
00100000
10000000
01000000
10000000
00100000
00010000
,
00001000
00000010
00000001
00000100
00001000
00000100
00000001
00000010
,
00000001
00001000
00000001
00001000
00000001
00001000
00000001
00001000
00000001
00001000
00000001
00001000
00000001
00001000
00000001
00000000
,
00000100
00000010
00001000
00000100
00010000
00001000
00100000
00010000
,
10000000
00010000
10000000
00010000
10000000
00010000
10000000
00010000
10000000
00010000
10000000
00010000
10000000
00010000
10000000
00000000
,
00100000
01000000
00010000
00100000
00001000
00010000
00000100
00001000
,
00000001
00000000
00000010
00000000
00000000
00000110
00000000
00000000
00001000
00000000
00000001
00000000
00000100
00000000
00001000
00000000
,
00010000
00000000
00001000
00000000
00000000
00101000
00000000
00000000
00001000
00000000
00010000
00000000
01000000
00000000
10000000
00000000
,
00010000
00000000
10000000
00000000
00000000
01100000
00000000
00000000
10000000
00000000
01000000
00000000
00010000
00000000
00001000
00000000
,
00000200
00000302
00000023
00002030
00023000
00230000
20300000
30020000
10030000
00000000
00100000
00000000
00000000
01100000
00000000
00000000
,
00010000
00000000
10000000
00000000
01000000
00000000
00010000
00000000
00001000
00000000
00010000
00000000
00000000
00010010
00000000
00000000
,
00010000
00000000
00001000
00000000
00000100
00000000
00000001
00000000
00001000
00000000
00000001
00000000
00000000
00000110
00000000
00000000
,
00000002
00000203
00002300
00023000
02030000
13000000
22000000
00000000
,
00000000
00000000
00000000
00000000
33000000
00000000
10000000
00100000
,
00100000
01000000
00010000
00010000
00100000
00001000
00001000
00010000
,
00000100
00000100
00001000
00000010
00000100
00000001
00001001
00000000
,
00000001
00000001
00000100
00001000
00001000
00000100
00000110
00000000
,
00001001
00000000
00000100
00001000
00010000
00000000
00011000
00001000
,
00010000
01000000
00100000
01000000
01100000
10000000
01000000
00100000
,
01000000
00000000
00010000
00000000
00001000
00010000
00001000
00000000
00010000
00001000
00010000
00000000
00011000
00000000
00010000
00000000
,
00001000
00000100
00000010
00000100
00000110
00000001
00001001
00000000
,
00001001
00000011
00001100
00020010
,
00000000
00000000
00000000
00032000
,
00000000
00000000
00203000
00000000
00000000
00000000
01300000
10000000
,
01000000
00100000
00010000
01000000
00010000
00100000
00001000
00001000
,
00101000
00000000
00010000
00010000
00010100
00000000
00001000
00000010
,
00000001
00000010
00000100
00000001
00000010
00001000
00010000
00001000
,
00100000
00010000
01000000
10000000
01000000
00100000
01000000
00000000
,
10100000
00000000
00000000
00000000
01000000
00000000
00000000
00000000
00101000
00000000
00000000
00000000
00001000
00010000
00001000
00000000
,
00010000
00000000
00000100
00000000
00001000
00000001
00001000
00000000
00000010
00000000
00000100
00000000
00000001
00000000
00001000
00000000
,
00000100
00000010
00000000
00000010
00000100
00001000
00000100
00000000
00010000
00000000
00001000
00000000
00100000
00000000
00001000
00000000
,
01000000
00010000
00000000
00010000
00100000
01000000
00100000
00000000
00010000
00000000
10000000
00000000
00100000
00000000
00010000
00000000
,
00100000
01000000
00100000
00000000
10000000
00000000
00010000
00000000
00100000
00000000
00100000
00000000
00001000
00000000
00010000
00001000
,
00010000
00001000
00000000
00000000
00010000
00000000
00000010
00001000
00000010
00001000
00000000
00000000
00000001
00000000
00000010
00000001
,
00000010
00000000
00000001
00000000
00000100
00000000
00000010
00000000
00001000
00000100
00001000
00000000
00000001
00000000
00000100
00000000
,
00001000
00000000
00010000
00000000
00100000
00000000
01000000
00010000
01000000
00010000
00000000
00010000
10000000
00000000
00010000
00100000
,
00010000
00000000
00000000
00000000
00000000
00000000
00000000
00000000
00000000
00000000
00000000
00000000
00100000
00000000
00000000
00000000
00000000
00000000
00000000
00000000
00000000
00000000
00000000
00000000
00000000
00000000
00000000
00000000
00000000
00000000
00000000
00000000
00000000
00000000
00000000
00000000
00100000
00000000
00000000
00000000
00000000
00000000
00000000
00000000
00000000
00000000
00000000
00000000
00010000
00000000
00000000
00000000
00000000
00000000
00000000
00000000
00000000
00000000
00000000
00000000
00000000
00000000
00000000
00000000
00000000
00000000
00000000
00000000
00000000
00000000
00000000
00000000
01000000
00000000
00000000
00000000
00000000
00000000
00000000
00000000
00000000
00000000
00000000
00000000
00000000
00000000
00000000
00000000
00000000
00000000
00000000
00000000
00000000
00000000
00000000
00000000
00100000
00000000
00000000
00000000
00000000
00000000
00000000
00000000
00000000
00000000
00000000
00000000
00000000
00000000
00000000
00000000
00000000
00000000
00000000
00000000
00000000
00000000
00000000
00000000
10000000
00000000
00000000
00000000
00000000
00000000
00000000
00000000
00000000
00000000
00000000
00000000
00000000
00000000
00000000
00000000
00000000
00000000
00000000
00000000
00000000
00000000
00000000
00000000
00010000
00000000
00000000
00000000
00000000
00000000
00000000
00000000
00000000
00000000
00000000
00000000
00000000
00000000
00000000
00000000
10000000
00000000
00000000
00000000
00000000
00000000
00000000
00000000
00000000
00000000
00000000
00000000
00000000
00000000
00000000
00000000
01000000
00000000
00000000
00000000
00000000
00000000
00000000
00000000
00000000
00000000
00000000
00000000
00000000
00000000
00000000
00000000
,
00010000
00000000
00000000
00000000
00000000
00000000
00000000
00000000
00000000
00000000
00000000
00000000
00000000
00000000
00000000
00000000
00001000
00000000
00000000
00000000
00000000
00000000
00000000
00000000
00000000
00000000
00000000
00000000
00000000
00000000
00000000
00000000
00000100
00000000
00000000
00000000
00000000
00000000
00000000
00000000
00000000
00000000
00000000
00000000
00000000
00000000
00000000
00000000
00000001
00000000
00000000
00000000
00000000
00000000
00000000
00000000
00000000
00000000
00000000
00000000
00000000
00000000
00000000
00000000
00000000
00000000
00000000
00000000
00000000
00000000
00000000
00000000
00000000
00000000
00000000
00000000
00000000
00000000
00000000
00000000
00000000
00000000
00000000
00000000
00001000
00000000
00000000
00000000
00000000
00000000
00000000
00000000
00000000
00000000
00000000
00000000
00000000
00000000
00000000
00000000
00000000
00000000
00000000
00000000
00000000
00000000
00000000
00000000
00000000
00000000
00000000
00000000
00000000
00000000
00000000
00000000
00000000
00000000
00000000
00000000
00001001
00000000
00000000
00000000
00000000
00000000
00000000
00000000
00000000
00000000
00000000
00000000
00000000
00000000
00000000
00000000
00000000
00000000
00000000
00000000
00000000
00000000
00000000
00000000
00000000
00000000
00000000
00000000
00000000
00000000
00000000
00000000
00000000
00000000
00000000
00000000
00000000
00000000
00000000
00000000
00000000
00000000
00000000
00000000
00000000
00000000
00000000
00000000
00000000
00000000
00000000
00000000
00000000
00000000
00000000
00000000
00000000
00000000
00000000
00000000
00000000
00000000
00000000
00000000
00000000
00000000
00000000
00000000
00000000
00000000
00000000
00000000
,
;

//---------------dance-double - ----------------
#NOTES:
     dance-double:
     :
     Challenge:
     18:
     0.778031,0.876050,0.229046,0.203597,0.869528,642.000000,615.000000,27.000000,24.000000,0.000000,0.000000,0.778031,0.876050,0.229046,0.203597,0.869528,642.000000,615.000000,27.000000,24.000000,0.000000,0.000000:
00000000
00000000
00000000
00000000
,
00000000
00000000
00000000
00000000
,
00000000
00000000
00000000
00000000
,
00000000
00000000
00000000
00000000
,
00000000
00000000
00000000
00000000
,
00000000
00000000
00000000
00000000
,
00000000
00000000
00000000
00000000
,
00100000
00010000
00100000
00000000
01000000
10000000
01000000
10000000
00100000
00000000
01000000
00000000
00010000
01000000
00010000
00000000
,
00100000
00001000
00010000
00001000
00010000
00000000
00000100
00000000
00001000
00000100
00001000
00000000
00000010
00000100
00000010
00000000
,
00000001
00000010
00000100
00000000
00000010
00000100
00001000
00000000
00000100
00001000
00010000
00000000
00001000
00010000
00100000
00000000
,
00010000
00000000
00000000
00000000
00000000
00000000
00000000
00000000
00000000
00000000
00000000
00000000
00100000
00000000
00000000
00000000
00000000
00000000
00000000
00000000
00000000
00000000
00000000
00000000
01000000
00000000
00000000
00000000
00000000
00000000
00000000
00000000
00000000
00000000
00000000
00000000
00000000
00000000
00000000
00000000
00000000
00000000
00000000
00000000
00000000
00000000
00000000
00000000
00100000
00000000
00000000
00000000
00000000
00000000
00000000
00000000
00000000
00000000
00000000
00000000
01000000
00000000
00000000
00000000
00000000
00000000
00000000
00000000
00000000
00000000
00000000
00000000
10000000
00000000
00000000
00000000
00000000
00000000
00000000
00000000
00000000
00000000
00000000
00000000
00000000
00000000
00000000
00000000
00000000
00000000
00000000
00000000
00000000
00000000
00000000
00000000
02000000
00000000
00000000
00000000
00000000
00000000
00000000
00000000
00000000
00000000
00000000
00000000
00000000
00000000
00000000
00000000
00000000
00000000
00000000
00000000
00000000
00000000
00000000
00000000
00000000
00000000
00000000
00000000
00000000
00000000
00000000
00000000
00000000
00000000
00000000
00000000
00000000
00000000
00000000
00000000
00000000
00000000
00000000
00000000
00000000
00000000
00000000
00000000
03200000
00000000
00000000
00000000
00000000
00000000
00000000
00000000
00000000
00000000
00000000
00000000
00000000
00000000
00000000
00000000
00000000
00000000
00000000
00000000
00000000
00000000
00000000
00000000
00000000
00000000
00000000
00000000
00000000
00000000
00000000
00000000
00000000
00000000
00000000
00000000
00000000
00000000
00000000
00000000
00000000
00000000
00000000
00000000
00000000
00000000
00000000
00300000
,
10000000
00010000
01000000
00100000
00010000
00100000
10000000
01000000
,
00100000
00000000
00010000
00000000
00100000
00001000
00100000
00000000
00001000
00000000
00000000
00100000
00001000
00000000
00010000
00000000
,
00000100
00001000
00000010
00000001
00000010
00000100
00000001
00001000
,
00000001
00000000
00000100
00000000
00000010
00001000
00000010
00000000
00000200
00000000
00000000
00000000
00000320
00000000
00000000
00000000
,
00000130
00000001
00000100
00000000
00000001
00001000
00000001
00000000
00001000
00000100
00001000
00000000
00000100
00010000
00000100
00000000
,
00010000
00001000
00010000
00000000
00001000
01000000
00001000
00000000
01000000
00010000
01000000
00000000
00010000
00100000
00010000
00000000
,
00100000
01000000
00100000
00000000
01000000
10000000
01000000
00000000
10000000
00010000
10000000
00000000
00010000
01000000
00010000
00000000
,
01000000
00001000
01000000
00000000
00001000
00010000
00001000
00000000
00010000
00000010
00010000
00000000
00000010
00001000
00000010
00000000
,
00000100
00000000
00000010
00000000
00000201
00000000
00000000
00000310
00000000
00000100
00000001
00000000
00000100
00000000
00001000
00000000
,
00010000
00000000
00001000
00000000
00021000
00000000
00000000
00031000
00100000
00001000
00010000
00001000
00100000
00001000
00010000
00001000
,
01000000
00000000
00010000
00000000
02100000
00000000
00000000
13000000
00000000
00010000
10000000
00000000
01000000
00000000
00100000
00000000
,
00010000
10000000
01000000
00100000
00010000
01000000
00010000
00100000
00001000
00010000
00001000
00010000
00000100
00001000
00000100
00001000
,
00000010
00000000
00000100
00000000
00000021
00000000
00000000
00000130
00000000
00000010
00000001
00000000
00000010
00000000
00001000
00000000
,
00010000
00000000
00001000
00000000
00021000
00000000
00000000
00031000
01000000
00001000
00010000
00001000
01000000
00001000
00010000
00001000
,
00100000
00000000
01000000
00000000
00210000
00000000
00000000
01300000
00000000
10000000
00100000
00000000
01000000
00000000
00100000
00000000
,
00010000
00000000
00000000
00000000
00000000
00000000
00000000
00000000
00000000
00000000
00000000
00000000
00000000
00000000
00000000
00000000
00100000
00000000
00000000
00000000
00000000
00000000
00000000
00000000
00000000
00000000
00000000
00000000
00000000
00000000
00000000
00000000
10000000
00000000
00000000
00000000
00000000
00000000
00000000
00000000
00000000
00000000
00000000
00000000
00000000
00000000
00000000
00000000
01000000
00000000
00000000
00000000
00000000
00000000
00000000
00000000
00000000
00000000
00000000
00000000
00000000
00000000
00000000
00000000
00010000
00000000
00000000
00000000
00000000
00000000
00000000
00000000
00000000
00000000
00000000
00000000
00000000
00000000
00000000
00000000
00001000
00000000
00000000
00000000
00000000
00000000
00000000
00000000
00000000
00000000
00000000
00000000
00000000
00000000
00000000
00000000
00000100
00000000
00000000
00000000
00000000
00000000
00000000
00000000
00000000
00000000
00000000
00000000
00000000
00000000
00000000
00000000
00000001
00000000
00000000
00000000
00000000
00000000
00000000
00000000
00000000
00000000
00000000
00000000
00000000
00000000
00000000
00000000
00000010
00000000
00000000
00000000
00000000
00000000
00000000
00000000
00000000
00000000
00000000
00000000
00000000
00000000
00000000
00000000
00001000
00000000
00000000
00000000
00000000
00000000
00000000
00000000
00000000
00000000
00000000
00000000
00000000
00000000
00000000
00000000
00000000
00000000
00000000
00000000
00000000
00000000
00000000
00000000
00000000
00000000
00000000
00000000
00000000
00000000
00000000
00000000
00000000
00000000
00000000
00000000
00000000
00000000
00000000
00000000
00000000
00000000
00000000
00000000
00000000
00000000
00000000
00000000
,
00000010
00000001
00001000
00000000
00000010
00001000
00000001
00000000
00000010
00000001
00000100
00000000
00000010
00001000
00000100
00000000
,
00001000
00000010
00000100
00000000
00000010
00001000
00000100
00000000
00010000
00000100
00001000
00000000
00000010
00010000
00001000
00000000
,
00010000
00001000
00100000
00000000
00001000
01000000
00010000
00000000
00100000
00010000
01000000
00000000
00100000
10000000
01000000
00000000
,
00100000
00010000
10000000
00000000
00100000
10000000
00010000
00000000
10000000
01000000
00100000
00000000
00010000
01000000
00100000
00000000
,
10000000
00010000
01000000
00100000
10000000
00010000
01000000
00100000
10000000
01000000
00100000
00010000
10000000
01000000
00100000
00010000
,
00100000
00001000
00100000
00000000
00001000
00010000
00001000
00000000
00010000
00000100
00010000
00000000
00000100
00001000
00000100
00000000
,
00001000
00000010
00000100
00000001
00001000
00000010
00000100
00000001
00000010
00000100
00001000
00000100
00000010
00000001
00000100
00000010
,
00001000
00000001
00001000
00000000
00000001
00000010
00000001
00000000
00000010
00000100
00000010
00000100
00001000
00000100
00001000
00000000
,
00000001
00000000
00000100
00000010
00000000
00000010
00000100
00000000
00000001
00000000
00000010
00000000
00001000
00000000
00010000
00000000
,
00001000
00000000
00010000
00001000
00000000
00001000
01000000
00000000
00010000
00000000
01000000
00000000
00100000
00000000
00000000
00000000
,
10000000
00000000
01000000
00100000
00000000
00100000
01000000
00000000
10000000
00000000
00100000
00000000
00010000
00000000
00100000
00000000
,
20000000
32000000
03200000
00320000
00032000
00003200
00000320
00000032
00001003
00000000
00000100
00000010
00000000
00000100
00000010
00000000
,
00000001
00000000
00000100
00000000
00001000
00000000
00010000
00000000
00001000
00000000
00010000
00001000
00000000
00100000
00010000
00000000
,
10000000
00000000
01000000
00000000
00100000
00000000
00010000
00000000
01000000
00000000
00010000
10000000
00000000
00010000
10000000
00000000
,
01000000
10000000
00100000
01000000
00010000
00100000
00001000
00010000
00000100
00000000
00001000
00000000
00000022
00000000
00000000
00000000
,
00000000
00000000
00000000
00000000
00000033
00000000
00001001
00000100
,
00000100
00001010
00000100
00000100
00011000
00010000
00010000
00010100
,
00000100
00000100
00011000
00010000
00001000
00010000
00011000
00000000
,
00100000
00100000
00010000
00100000
00100000
01000000
01100000
00000000
,
10010000
00000000
00000000
00000000
00010000
00000000
10000000
00000000
00010000
00000000
00000000
00000000
00100000
00010000
00100000
00000000
,
01000000
10000000
01000000
10000000
00100000
00000000
01000000
00000000
00010000
01000000
00010000
00000000
00100000
00001000
00010000
00001000
,
00010000
00000000
00000100
00000000
00001000
00000100
00001000
00000000
00000010
00000100
00000010
00000000
00000001
00000010
00000100
00000000
,
00000010
00000100
00001000
00000000
00000100
00001000
00010000
00000000
00001000
00010000
00100000
00000000
00010000
00100000
01000000
00000000
,
00100000
01000000
10000000
00000000
11000000
00000000
00000000
00000000
00110000
00000000
00000000
00000000
02002000
00000000
00000000
00000000
,
00000000
00000000
03000000
00020000
,
00003000
00000000
00000200
00000000
00030000
00000000
00000310
00000001
,
00000100
00000010
00001000
00000000
00000001
00000000
00000010
00000000
00000100
00001000
00000001
00000000
00000010
00000000
00000011
00000000
,
00001001
00000000
00000010
00001010
00001001
00000000
00000001
00000100
,
00000010
00010000
00001000
00000000
00010000
00000000
00001000
00000000
00100000
00010000
01000000
00000000
00100000
00000000
10000000
00000000
,
00010000
10000000
01000000
00000000
00100000
00000000
00001000
00000000
00010000
00001000
00010000
00000000
00000100
00000000
00000000
00000000
,
00001001
00000000
00000000
00000000
00000010
00000000
00000000
00000000
00011000
00000000
00000000
00000000
00010000
00001000
00010000
00000000
,
00001000
01000000
00001000
00000000
01000000
00100000
01000000
00010000
00100000
01000000
00100000
00010000
01000000
00000000
00010000
01000000
,
00100000
01000000
00000000
00100000
10000000
01000000
00100000
00010000
01000000
00010000
00100000
00000000
00010000
00000000
00100000
00010000
,
00100000
00001000
00000000
00010000
00001000
00010000
00000100
00001000
00000100
00000001
00000100
00000000
00001000
00000010
00000100
00000001
,
00001000
00000100
00000010
00000100
00000010
00000001
00001000
00000001
00000100
00000010
00000100
00000001
00001000
00000000
00000001
00000100
,
00000010
00001000
00000000
00001000
00000100
00000000
00010000
00001000
00100000
00010000
00000000
00100000
00010000
01000000
00010000
10000000
,
00100000
10000000
00010000
01000000
00100000
10000000
00010000
01000000
00100000
01000000
00010000
10000000
00010000
00100000
00001000
00010000
,
00000100
00010000
00000010
00001000
00000100
00000000
00000010
00000001
00001000
00000001
00000000
00000001
00000100
00000000
00000100
00000010
,
00001000
00000000
00000000
00000000
00000000
00000000
00000000
00000000
00000000
00000000
00000000
00000000
00000010
00000000
00000000
00000000
00000000
00000000
00000000
00000000
00000000
00000000
00000000
00000000
00000000
00000000
00000000
00000000
00000000
00000000
00000000
00000000
00000000
00000000
00000000
00000000
00000010
00000000
00000000
00000000
00000000
00000000
00000000
00000000
00000000
00000000
00000000
00000000
00001000
00000000
00000000
00000000
00000000
00000000
00000000
00000000
00000000
00000000
00000000
00000000
00000100
00000000
00000000
00000000
00000000
00000000
00000000
00000000
00000000
00000000
00000000
00000000
00010000
00000000
00000000
00000000
00000000
00000000
00000000
00000000
00000000
00000000
00000000
00000000
00001000
00000000
00000000
00000000
00000000
00000000
00000000
00000000
00000000
00000000
00000000
00000000
00010000
00000000
00000000
00000000
00000000
00000000
00000000
00000000
00000000
00000000
00000000
00000000
00000100
00000000
00000000
00000000
00000000
00000000
00000000
00000000
00000000
00000000
00000000
00000000
00001000
00000000
00000000
00000000
00000000
00000000
00000000
00000000
00000000
00000000
00000000
00000000
00000100
00000000
00000000
00000000
00000000
00000000
00000000
00000000
00000000
00000000
00000000
00000000
00000010
00000000
00000000
00000000
00000000
00000000
00000000
00000000
00000000
00000000
00000000
00000000
00000000
00000000
00000000
00000000
00001000
00000000
00000000
00000000
00000000
00000000
00000000
00000000
00000000
00000000
00000000
00000000
00000000
00000000
00000000
00000000
00010000
00000000
00000000
00000000
00000000
00000000
00000000
00000000
00000000
00000000
00000000
00000000
00000000
00000000
00000000
00000000
,
01000000
00000000
00000000
00000000
00000000
00000000
00000000
00000000
00000000
00000000
00000000
00000000
00000000
00000000
00000000
00000000
00100000
00000000
00000000
00000000
00000000
00000000
00000000
00000000
00000000
00000000
00000000
00000000
00000000
00000000
00000000
00000000
00010000
00000000
00000000
00000000
00000000
00000000
00000000
00000000
00000000
00000000
00000000
00000000
00000000
00000000
00000000
00000000
10010000
00000000
00000000
00000000
00000000
00000000
00000000
00000000
00000000
00000000
00000000
00000000
00000000
00000000
00000000
00000000
00000000
00000000
00000000
00000000
00000000
00000000
00000000
00000000
00000000
00000000
00000000
00000000
00000000
00000000
00000000
00000000
00000000
00000000
00000000
00000000
01100000
00000000
00000000
00000000
00000000
00000000
00000000
00000000
00000000
00000000
00000000
00000000
00000000
00000000
00000000
00000000
00000000
00000000
00000000
00000000
00000000
00000000
00000000
00000000
00000000
00000000
00000000
00000000
00000000
00000000
00000000
00000000
00000000
00000000
00000000
00000000
10010000
00000000
00000000
00000000
00000000
00000000
00000000
00000000
00000000
00000000
00000000
00000000
00000000
00000000
00000000
00000000
00000000
00000000
00000000
00000000
00000000
00000000
00000000
00000000
00000000
00000000
00000000
00000000
00000000
00000000
00000000
00000000
00000000
00000000
00000000
00000000
00000000
00000000
00000000
00000000
00000000
00000000
00000000
00000000
00000000
00000000
00000000
00000000
00000000
00000000
00000000
00000000
00000000
00000000
00000000
00000000
00000000
00000000
00000000
00000000
00000000
00000000
00000000
00000000
00000000
00000000
00000000
00000000
00000000
00000000
00000000
00000000
,
;

//---------------dance-single - ----------------
#NOTES:
     dance-single:
     :
     Easy:
     6:
     0.311455,0.337207,0.016966,0.322362,0.008483,257.000000,255.000000,2.000000,38.000000,0.000000,0.000000,0.311455,0.337207,0.016966,0.322362,0.008483,257.000000,255.000000,2.000000,38.000000,0.000000,0.000000:
0000
0000
0000
0000
,
0000
0000
0000
0000
,
0000
0000
0000
0000
,
0000
0000
0000
0000
,
1000
1000
0001
0001
,
0100
0100
0010
0010
,
2000
0000
3001
0100
,
0001
0000
0010
0100
,
0010
0000
0100
1000
,
0100
0000
1000
0001
,
1000
0000
0001
0010
,
0001
0000
0100
0010
,
0100
0000
0010
1000
,
0010
0000
1000
0001
,
1000
0000
0001
0100
,
0001
0000
0010
0100
,
2000
0000
3001
0010
,
0002
0000
0103
0010
,
2000
0000
3010
0100
,
0001
0100
0020
2030
,
3200
0000
0310
0001
,
2000
0000
3100
0100
,
1000
0010
0100
0010
,
2000
0000
3001
0100
,
0001
0010
0100
1000
,
0010
0100
0002
2003
,
3010
0100
0001
0010
,
0002
2003
3200
2300
,
3010
0100
0001
1000
,
0002
2003
3020
2030
,
3010
0100
0001
0010
,
0001
1000
0010
1000
,
0100
0010
0001
0010
,
0100
1000
0001
1000
,
0010
0100
0001
0010
,
0001
1000
0100
1000
,
0010
0010
0010
0010
,
0100
0100
0100
0100
,
0001
0001
0001
0001
,
1000
1000
1000
1000
,
0010
0000
0010
0000
,
0100
0000
0100
0000
,
0001
0000
0001
0000
,
2002
0000
3003
1000
,
0010
1000
0000
0000
,
0010
0100
0010
0100
,
0010
1000
2002
0000
,
0000
0000
0000
0000
,
3003
0000
1000
0010
,
1000
0100
1000
0001
,
0010
0000
0001
0100
,
0010
1000
0010
0100
,
0001
0001
1000
1000
,
0010
0010
0100
0100
,
0002
0000
1003
0100
,
2000
0000
3020
0230
,
0302
0000
0000
0000
,
2003
0000
0020
3000
,
2030
0000
3100
0010
,
0001
0010
0100
1000
,
0002
0000
1003
0100
,
2000
0000
3010
0100
,
0020
0000
1030
0001
,
2000
0000
3001
0010
,
0001
0100
0010
0100
,
0001
0010
0100
1000
,
0100
0010
0001
1000
,
0001
0010
0001
0100
,
0010
1000
0010
0100
,
0001
1000
0001
0010
,
0001
0100
0010
0100
,
0001
1000
0010
1000
,
0200
0000
0320
0000
,
0032
0000
1003
0100
,
1000
0010
0100
0010
,
1000
0001
0010
0001
,
0100
0010
1000
0010
,
0100
0001
0010
0001
,
1000
0100
0010
0001
,
1000
0000
0001
0000
1000
0000
0001
0000
0000
0000
0000
0000
;

//---------------dance-single - ----------------
#NOTES:
     dance-single:
     :
     Medium:
     12:
     0.476271,0.542925,0.084832,0.186630,0.025450,393.000000,383.000000,10.000000,22.000000,0.000000,0.000000,0.476271,0.542925,0.084832,0.186630,0.025450,393.000000,383.000000,10.000000,22.000000,0.000000,0.000000:
// measure 0
0000
0000
0000
0000
,  // measure 1
0000
0000
0000
0000
,  // measure 2
0000
0000
0000
0000
,  // measure 3
0000
0000
0000
0000
,  // measure 4
1000
0001
1000
0000
0010
0000
1000
0000
,  // measure 5
0100
0000
0010
0001
0010
0000
0001
0000
,  // measure 6
1000
0100
1000
0010
,  // measure 7
0100
0001
1000
0010
,  // measure 8
1000
0001
0100
0000
0001
1000
0100
0000
,  // measure 9
0010
0000
0001
0000
1000
0010
1000
0000
,  // measure 10
0100
0000
0010
0000
0100
0010
0100
0000
,  // measure 11
0010
0000
1000
0000
0010
0001
0010
0000
,  // measure 12
1000
0000
0001
0000
1000
0001
1000
0000
,  // measure 13
0001
0000
0100
0000
0001
0100
0001
0000
,  // measure 14
0100
0000
0010
0000
1000
0010
1000
0000
,  // measure 15
0100
1000
0100
0000
0010
0001
0010
0000
,  // measure 16
0002
2003
3200
1300
,  // measure 17
0010
0100
0001
0010
,  // measure 18
0001
0010
0001
0000
0100
1000
0100
0000
,  // measure 19
0001
0010
0001
0000
1000
0100
1000
0000
,  // measure 20
0020
0230
0302
2003
,  // measure 21
3020
0230
0302
0023
,  // measure 22
0130
0000
1000
0000
0001
1000
0010
0000
,  // measure 23
0010
1000
0010
0000
1000
0100
1000
0000
,  // measure 24
0001
1000
0001
0000
1000
0010
0000
0010
,  // measure 25
1000
0000
0100
0000
0010
0001
0010
0000
,  // measure 26
0001
0000
0100
0000
0010
1000
0100
0000
,  // measure 27
0010
0001
0100
0000
0010
1000
0001
0000
,  // measure 28
0010
0000
1000
0000
0010
0001
1000
0000
,  // measure 29
0001
1000
0100
0000
0001
0000
0100
0000
,  // measure 30
0010
1000
0010
0100
,  // measure 31
0002
0000
0000
0000
,  // measure 32
1003
0010
1000
0000
0010
1000
0010
0000
,  // measure 33
1000
0001
1000
0000
1000
0100
1000
0000
,  // measure 34
0010
1000
0010
0000
1000
0100
1000
0000
,  // measure 35
0001
1000
0001
0000
1000
0100
1000
0000
,  // measure 36
0010
0100
0010
0000
0100
0001
0100
0000
,  // measure 37
0001
1000
0001
0000
1000
0010
1000
0000
,  // measure 38
0010
0100
0010
0000
0100
0001
0100
0000
,  // measure 39
0001
1000
0001
0000
1000
0001
1000
0000
,  // measure 40
0100
0010
0001
0000
0010
0000
0100
0000
,  // measure 41
1000
0100
0010
0001
,  // measure 42
0001
0010
0100
1000
,  // measure 43
0001
1000
0001
1000
0001
1000
0001
1000
0010
0000
0000
0000
1000
0000
0000
0000
,  // measure 44
0100
0000
1000
0000
0100
1000
0100
0000
,  // measure 45
0010
0001
0010
0000
0001
1000
0001
0000
,  // measure 46
1000
0000
0100
0000
1000
0000
0000
0000
2002
0000
0000
0000
0000
0000
0000
3003
,  // measure 47
0220
0000
0000
0000
,  // measure 48
0330
0000
1000
0001
,  // measure 49
1000
0000
0010
1000
0010
0000
0100
0001
,  // measure 50
0100
0001
1000
0010
,  // measure 51
1000
0000
0100
0000
0010
0000
0001
0010
,  // measure 52
0001
0000
1000
0100
1000
0000
0010
1000
,  // measure 53
0010
0000
1000
0100
1000
0000
0001
0000
,  // measure 54
1000
0010
1000
0100
,  // measure 55
0010
0001
2000
3002
,  // measure 56
0023
0000
0000
0000
,  // measure 57
0032
0000
0000
0000
,  // measure 58
0103
0000
0010
0000
1000
0010
1000
0000
,  // measure 59
0100
0010
0001
0000
0010
0100
1000
0000
,  // measure 60
1001
0001
0101
0100
,  // measure 61
0110
0010
1010
1000
,  // measure 62
1100
0100
0110
0010
,  // measure 63
0011
0001
1000
0100
,  // measure 64
1000
0100
1000
0000
0001
0010
0001
0000
,  // measure 65
0100
0010
0100
0000
0010
1000
0010
0000
,  // measure 66
1000
0100
1000
0000
0001
1000
0001
0000
,  // measure 67
1000
0010
1000
0000
0100
1000
0100
0000
,  // measure 68
1000
0001
1000
0000
0001
0010
0001
0000
,  // measure 69
0100
0010
0100
0000
0010
1000
0100
0000
,  // measure 70
0010
0001
0100
0000
1000
0100
0001
0000
,  // measure 71
0100
1000
0010
0000
0001
0010
1000
0000
,  // measure 72
0001
0010
0000
0010
0001
0000
0100
1000
,  // measure 73
0000
1000
0100
0000
0001
0010
0100
0000
,  // measure 74
1000
0001
1000
0000
0010
1000
0010
0000
,  // measure 75
1000
0100
1000
0000
0001
1000
0001
0000
,  // measure 76
1000
0100
1000
0000
0010
0100
0010
0000
,  // measure 77
1000
0001
1000
0000
0001
0100
0001
0000
,  // measure 78
0100
0010
1000
0010
0100
0001
0010
0001
,  // measure 79
1000
0000
0001
0000
1000
0000
2002
0000
0000
0000
0000
0000
,  // measure 80
3003
0000
0000
0000
;

//---------------dance-single - ----------------
#NOTES:
     dance-single:
     :
     Hard:
     15:
     0.794997,0.848320,0.169664,0.322362,0.534442,656.000000,636.000000,20.000000,38.000000,0.000000,0.000000,0.794997,0.848320,0.169664,0.322362,0.534442,656.000000,636.000000,20.000000,38.000000,0.000000,0.000000:
// measure 0
0000
0000
0000
0000
,  // measure 1
0000
0000
0000
0000
,  // measure 2
0000
0000
0000
0000
,  // measure 3
0000
0000
0000
0000
,  // measure 4
0001
1000
0001
0000
0010
0000
0100
1000
0100
0000
1000
0000
0001
0010
0001
0000
,  // measure 5
0100
0000
0010
1000
0010
0000
1000
0000
0001
0100
0001
0000
0020
0000
0000
0000
,  // measure 6
0031
1000
0000
1000
0002
0000
0203
0000
,  // measure 7
0302
0000
0000
0023
0000
0000
0230
0000
,  // measure 8
1300
0000
0010
0000
1000
0000
0000
1000
0100
0000
0010
0000
0100
0000
1000
0000
,  // measure 9
0001
0000
0010
0000
0001
0000
0000
0001
0100
0000
0010
0000
0100
0000
0001
0000
,  // measure 10
0010
0000
0100
0000
1000
0000
0000
1000
0010
0000
1000
0000
0010
0000
0100
0000
,  // measure 11
0010
0000
0100
0000
0001
0000
0000
0001
1000
0000
1000
0000
0010
0000
0100
0000
,  // measure 12
0010
0000
0100
0000
0001
0000
0000
0001
0010
0000
0001
0000
0010
0000
0100
0000
,  // measure 13
0010
0000
0100
0000
1000
0000
0000
1000
0010
0000
0100
0000
0001
0000
0010
0000
,  // measure 14
0100
0000
1000
0000
0001
0000
0000
0001
1000
0000
0010
0000
0100
0000
0001
0000
,  // measure 15
0010
0001
0100
0000
2001
0000
3020
0000
,  // measure 16
0130
0000
0001
0000
0100
0010
0100
0000
1000
0000
0100
0000
0010
1000
0010
0000
,  // measure 17
1000
0000
0100
0000
0010
0001
0010
0000
0100
0000
0001
0000
0100
1000
0100
0000
,  // measure 18
0010
0000
0100
0000
0010
0001
0010
0000
0001
0000
1000
0000
0100
0001
0100
0000
,  // measure 19
0010
0100
1000
0001
2001
0000
3002
0000
,  // measure 20
0103
0000
0100
0000
0100
0010
0100
0000
0010
0000
0010
0000
0010
1000
0010
0000
,  // measure 21
1000
0000
1000
0000
1000
0100
1000
0000
0010
0000
0010
0000
0010
0100
0010
0000
,  // measure 22
0100
0000
0001
0000
0010
0100
1000
0000
0001
0000
1000
0000
0100
0010
0001
0000
,  // measure 23
1000
0100
1000
0100
1000
0000
0001
0000
1000
0001
1000
0001
1000
0000
0100
0000
,  // measure 24
0010
0001
1002
0000
0103
0010
2000
0000
,  // measure 25
3010
0000
0100
0000
0002
0000
0000
0000
0013
0100
0010
0000
0100
1000
0100
0000
,  // measure 26
1000
0001
0020
0000
0031
0100
0010
1000
,  // measure 27
0010
0100
0010
0000
1000
0000
0001
0000
0010
0001
0010
0000
0100
0000
0010
0000
,  // measure 28
0001
1000
1020
0000
0130
0001
2001
0000
,  // measure 29
3010
0000
0100
0000
0102
0000
0000
0000
1003
0100
1000
0000
0001
0000
0010
0000
,  // measure 30
0100
0010
0002
0000
1003
0010
0001
0010
,  // measure 31
0100
0010
1000
0100
1000
0010
1000
0100
0010
0002
0000
0000
,  // measure 32
0103
0010
0100
0000
0001
0000
0100
0000
1000
0000
0100
0000
0010
0000
0000
0000
,  // measure 33
1000
0010
1000
0000
0100
0000
0010
0000
0001
0000
0010
0000
0100
1000
0100
0000
,  // measure 34
1000
0001
1000
0000
0001
0000
0010
0000
0100
0000
0100
0000
0010
0001
0000
0001
,  // measure 35
0010
0001
0100
0010
0200
0000
0301
1000
,  // measure 36
0010
0000
1000
0100
1000
0000
1000
0010
1000
0000
0001
0100
0001
0000
0001
0010
,  // measure 37
0001
0010
0100
1000
0001
1000
0100
0010
,  // measure 38
0100
0000
0100
1000
0100
0000
0100
0010
0100
0000
0010
0001
0010
0000
0010
0000
,  // measure 39
0010
0000
0100
0000
1000
0000
0000
1000
0001
0000
0001
0000
0101
0000
0100
0000
,  // measure 40
0210
0000
0000
0000
0301
0000
0010
0000
0100
0000
0010
0000
0001
1000
0000
0000
,  // measure 41
1000
0000
0010
0000
1000
0010
0000
0000
0100
0000
0001
0000
0010
0000
0100
0000
,  // measure 42
1000
0000
0001
0000
0010
0001
0000
0000
0100
0000
0010
0000
0100
0010
0000
0000
,  // measure 43
1000
0100
0010
0001
1000
0001
0010
0100
1000
0000
0010
0000
0100
0010
0000
0010
,  // measure 44
0100
0000
0001
0000
0011
0000
0000
0000
0001
0000
1000
0000
0100
1000
0000
1000
,  // measure 45
0010
0000
1000
0000
1001
0000
0000
0000
1000
0000
0010
0000
0100
0010
0000
0100
,  // measure 46
0001
0000
1000
0000
0001
0000
1000
0000
0100
0010
0001
1000
0001
0010
0100
1000
,  // measure 47
0001
0000
0000
0000
,  // measure 48
1001
1000
0010
0100
0101
0001
0011
0010
,  // measure 49
0110
0100
1100
1000
0100
0011
0000
0011
,  // measure 50
0000
0001
0100
1000
0100
0001
0010
1000
,  // measure 51
0010
0001
0100
0010
1000
0010
0100
0001
,  // measure 52
0020
0000
0000
0230
0000
0000
2300
0000
,  // measure 53
0000
3200
0000
0000
0320
0000
0032
0000
,  // measure 54
1003
1010
0001
0101
0000
1000
0100
1000
,  // measure 55
0001
0100
0001
0100
0020
0000
0230
0000
,  // measure 56
2300
0000
3200
0000
,  // measure 57
0302
0000
0023
0000
,  // measure 58
0130
0000
1000
0000
0100
0000
0000
0010
0001
0000
1000
0000
0001
0000
0100
0000
,  // measure 59
0010
0000
0010
0000
1000
0000
0000
0001
0100
0000
0010
0000
0100
0000
0001
0000
,  // measure 60
1000
0000
1000
0000
0001
1000
0001
0000
0010
0000
0100
0000
1000
0001
1000
0000
,  // measure 61
0010
0000
0100
0000
0010
0000
0000
0100
0001
0100
0001
0000
1000
0000
0100
0000
,  // measure 62
1000
0000
0001
0000
0010
0001
0010
0000
0100
0010
0100
0000
1000
0100
1000
0000
,  // measure 63
0001
0000
0010
0000
0001
0000
0000
0001
0100
0000
0010
0000
0100
0000
0010
0000
,  // measure 64
1000
0000
0010
0000
1000
0100
0010
0000
0001
0000
0100
0000
0001
0010
0100
0000
,  // measure 65
0010
0000
0001
0000
1000
0010
0100
0000
0010
0000
0100
0000
0001
1000
0010
0000
,  // measure 66
0100
0010
0100
0010
1000
0000
0001
1000
0001
1000
0010
0000
1000
0010
1000
0010
,  // measure 67
0100
0000
0100
0000
0100
0010
0000
0100
0010
0000
0010
0000
0010
1000
0000
0001
,  // measure 68
1000
0000
0001
0000
0100
0000
0001
0000
0010
0000
0100
0000
1000
0001
1000
0000
,  // measure 69
0100
0000
1000
0000
0010
0100
0010
0000
1000
0100
1000
0000
0001
0100
0001
0000
,  // measure 70
1000
0000
0001
0000
0010
0001
0000
0010
0100
0000
1000
0000
0100
1000
0000
0100
,  // measure 71
0010
0000
0001
0000
0010
0001
0010
0001
1000
0001
1000
0001
1000
0001
1000
0000
,  // measure 72
0010
2000
0000
3010
0200
0000
0301
0020
,  // measure 73
0000
0031
1000
0100
0010
0001
0100
0110
,  // measure 74
0010
1000
0001
0000
1000
0000
0010
1000
0100
0000
0010
0000
0001
0000
0010
0000
,  // measure 75
0001
0000
1000
0000
0100
1000
0000
0010
1000
0000
0100
0000
0010
0001
0000
0010
,  // measure 76
0100
0010
0100
0000
1000
0001
1000
0000
0010
0000
0100
0000
0001
0100
0010
0000
,  // measure 77
1000
0000
0001
0000
0010
0000
0100
0000
1000
0000
0001
0010
0001
0000
0100
0010
,  // measure 78
0100
0000
0010
0000
1000
0001
1000
0000
0001
1000
0001
0000
0010
0001
0010
0000
,  // measure 79
0001
0010
0100
1000
0100
0010
0002
0000
0000
2000
0000
0000
,  // measure 80
3003
0000
0000
0000
;

//---------------dance-single - ----------------
#NOTES:
     dance-single:
     :
     Challenge:
     18:
     0.959814,1.119783,0.330845,0.254496,1.060400,792.000000,753.000000,39.000000,30.000000,0.000000,0.000000,0.959814,1.119783,0.330845,0.254496,1.060400,792.000000,753.000000,39.000000,30.000000,0.000000,0.000000:
// measure 0
0000
0000
0000
0000
,  // measure 1
0000
0000
0000
0000
,  // measure 2
0000
0000
0000
0000
,  // measure 3
0000
0000
0000
0000
,  // measure 4
1000
0100
1000
0100
0010
0000
0001
0100
0001
0100
0010
0000
1000
0010
1000
0010
,  // measure 5
0100
0000
0001
0010
0001
0010
0100
0000
1000
0001
1000
0000
1001
0000
0000
0000
,  // measure 6
0001
0000
0010
0000
0100
0000
1000
0010
1000
0000
0010
0000
0100
0000
0001
0000
,  // measure 7
0010
0001
0010
0000
0100
0000
0010
0000
0100
1000
0001
0000
1000
0000
0001
0000
,  // measure 8
1000
0000
0010
0000
1010
0000
0000
0010
0100
0001
0100
0000
0010
0000
1000
0000
,  // measure 9
0001
0000
1000
0000
0010
0000
0000
0010
1000
0100
1000
0000
0001
0000
0100
0000
,  // measure 10
0010
0000
1000
0000
0100
0000
0000
0100
0010
0001
0010
0000
0001
0000
1000
0000
,  // measure 11
1100
0000
0100
0000
0110
0000
0000
0010
0001
1000
0001
0000
0100
0000
0010
0000
,  // measure 12
1000
0000
1000
0000
1001
0000
0000
0001
0100
0001
0010
0000
0001
0000
1000
0000
,  // measure 13
0010
0000
0010
0000
0100
0000
0001
0100
0000
0001
0010
0000
0100
0000
1000
0000
,  // measure 14
0010
0000
1000
0000
0100
0000
0001
0100
0000
1000
0100
0000
0010
0000
0001
0000
,  // measure 15
0100
0010
1000
0001
0200
0000
0320
0000
,  // measure 16
1030
0000
0001
0000
0100
0001
0100
0000
0001
0000
0010
0000
0100
1000
0100
0000
,  // measure 17
1000
0010
1000
0000
0001
0000
0100
0010
0100
0000
0001
0000
1000
0000
0001
0000
,  // measure 18
0010
0001
0010
0000
0010
0100
0010
0000
0010
0001
0010
0000
0010
0100
0010
0000
,  // measure 19
0001
0000
0100
0000
0010
0000
1000
0000
0001
0010
0100
0000
1000
0100
0010
0000
,  // measure 20
0001
1000
0001
0000
0001
0100
0001
0000
0001
0010
0001
0000
0001
0010
0100
1000
,  // measure 21
0010
0000
0100
0000
0001
1000
0001
0000
1000
0000
0100
0010
0100
0000
0010
0000
,  // measure 22
0001
0000
0100
0001
0100
0000
0010
0000
1000
0100
1000
0000
0001
0000
0100
0001
,  // measure 23
0100
0010
1000
0100
0010
0001
0100
0010
1000
0100
0010
0001
0100
0010
1000
0001
,  // measure 24
0100
0010
0210
0000
0301
1000
1002
0000
,  // measure 25
1003
0000
0010
0000
0120
0000
0000
0000
1030
0010
0100
0010
1000
0001
0100
0001
,  // measure 26
1000
0100
0210
0000
0310
0001
0011
0010
,  // measure 27
0100
0001
0100
1000
0100
0010
0100
1000
0100
0010
0001
0010
0100
1000
0100
0010
,  // measure 28
0001
0010
0012
0000
1003
0001
2001
0000
,  // measure 29
3010
0000
0100
0000
0120
0000
0000
0000
0130
0001
0010
0100
1000
0010
0100
0001
,  // measure 30
0010
0001
2001
0000
3010
0100
0101
0001
,  // measure 31
1000
0100
0001
1000
0010
0001
0100
0010
1000
0011
0000
0000
,  // measure 32
0100
0010
0100
0000
0100
1000
0100
0000
0100
0001
0100
0000
0100
0010
0100
0000
,  // measure 33
0001
1000
0001
0000
0001
0010
0001
0000
0001
0100
0001
0000
0001
0010
0001
0000
,  // measure 34
0010
0100
0010
0000
0010
0001
0010
0000
0010
1000
0010
0000
0010
0001
0010
0000
,  // measure 35
0100
1000
0100
0001
0100
0000
0100
0000
0100
1000
0100
0010
0100
1000
0100
0000
,  // measure 36
0010
0001
1000
0001
0100
0010
1000
0010
0100
0001
0010
0001
0100
0010
1000
0100
,  // measure 37
1000
0001
0010
0001
0100
0010
1000
0100
0010
0000
0010
0000
0010
0001
0000
0001
,  // measure 38
1000
0100
1000
0100
0010
0001
0010
0001
0100
0010
0100
0010
1000
0001
1000
0001
,  // measure 39
0100
0010
1000
0010
0100
0010
1000
0010
0100
0001
0010
0100
1000
0001
0000
0001
,  // measure 40
0100
0000
0001
0000
1000
0100
0000
1000
0010
0000
0100
0000
0001
0010
0000
0001
,  // measure 41
0100
0000
0001
0000
1000
0100
0000
1000
0010
0000
0100
0000
0001
0000
0010
0000
,  // measure 42
0001
0000
1000
0000
0100
0010
0000
0100
1000
0000
0001
0000
1000
0001
0000
0100
,  // measure 43
0001
0101
1000
1010
0100
0101
1000
1010
0110
0000
0110
0000
0001
1000
0000
0010
,  // measure 44
1000
0000
1001
0000
0101
0000
0000
0000
0100
0000
0010
0000
1000
0100
0000
0010
,  // measure 45
0001
0000
0100
0000
0001
1000
0010
0000
1000
0000
0001
0000
0100
0001
0000
0010
,  // measure 46
0001
0000
0100
0000
0010
1000
0100
0000
0011
0101
0110
1010
1100
0110
0011
0101
,  // measure 47
0220
0000
0000
0330
,  // measure 48
0010
0001
0010
0000
0100
0000
1000
0100
1000
0000
0001
0000
1000
0001
1000
0000
,  // measure 49
1000
0000
0100
0010
0100
0010
0001
0000
0100
0010
0100
0010
1000
0100
1000
0100
,  // measure 50
0010
0001
0001
1000
1000
0010
0100
0001
,  // measure 51
0010
0100
1000
0010
0100
0001
1000
0010
,  // measure 52
0100
0001
0100
0001
1000
0000
0001
1000
0001
1000
0001
0000
0100
0010
1000
0010
,  // measure 53
0100
0000
0001
0010
0001
0010
0001
0000
0101
0000
0000
0000
0110
0000
0000
0000
,  // measure 54
1000
1000
0001
0001
0100
0100
0010
0010
,  // measure 55
1000
0001
1000
0000
0002
0000
0203
0000
,  // measure 56
0320
0000
2030
0000
,  // measure 57
3200
0000
0320
0000
,  // measure 58
0230
0000
0000
0000
,  // measure 59
0000
0000
2300
3002
,  // measure 60
0203
0000
0000
0320
,  // measure 61
2030
0000
0000
3002
,  // measure 62
0023
0000
0000
0230
,  // measure 63
2300
0000
0000
0000
,  // measure 64
3001
0000
0010
0000
0001
0010
0100
0000
1000
0000
0100
0000
1000
0100
0010
0000
,  // measure 65
0001
0000
0010
0000
0100
0010
0001
0000
1000
0000
0001
0000
1000
0010
1000
0010
,  // measure 66
1000
0100
0010
0001
0100
0010
1000
0100
0010
0001
0100
0010
1000
0100
0010
0001
,  // measure 67
0100
0000
0100
0000
0100
0010
0000
0010
1000
0000
1000
0000
1000
0001
0010
0000
,  // measure 68
0001
0010
0100
0010
0001
0010
0100
0010
0001
0010
0100
0010
0001
0010
0100
0010
,  // measure 69
0001
1000
0100
1000
0001
1000
0100
1000
0001
1000
0100
1000
0001
1000
0100
1000
,  // measure 70
0010
0100
0001
0100
0010
0100
0001
0100
0010
0100
0001
0100
0010
0100
0001
0100
,  // measure 71
0010
1000
0100
0010
0001
0010
0100
1000
0100
1000
0100
1000
0100
1000
0100
1000
,  // measure 72
0001
0010
0001
0010
0000
0000
0001
0100
0001
0100
0000
0000
0010
1000
0010
1000
,  // measure 73
0000
0000
0100
0000
1000
0001
0100
0000
0001
1000
0010
0000
1000
0000
1001
0000
,  // measure 74
0001
0010
0100
0010
0001
0000
1000
0100
0010
0000
0001
0010
0100
0000
1000
0001
,  // measure 75
0100
0000
0100
0000
0100
0010
0000
0010
0100
0000
0100
0000
0001
1000
0000
1000
,  // measure 76
0100
1000
0100
1000
0100
0000
1000
0000
0001
0010
0001
0010
0001
0000
0010
0000
,  // measure 77
0100
1000
0100
0000
0010
0001
0010
0000
0100
1000
0100
0000
0010
0001
0010
0000
,  // measure 78
0001
1000
0100
1000
0001
1000
0100
1000
0001
1000
0100
1000
0001
1000
0010
0000
,  // measure 79
0110
0100
0010
0010
0100
0010
0110
0000
0000
2002
0000
0000
,  // measure 80
3003
0000
0000
0000
;

//---------------dance-single - ----------------
#NOTES:
     dance-single:
     :
     Beginner:
     1:
     0.133307,0.236045,0.000000,0.000000,0.000000,110.000000,110.000000,0.000000,0.000000,0.000000,0.000000,0.133307,0.236045,0.000000,0.000000,0.000000,110.000000,110.000000,0.000000,0.000000,0.000000,0.000000:
0000
0000
0000
0000
,
0000
0000
0000
0000
,
0000
0000
0000
0000
,
0000
0000
0000
0000
,
1000
0000
1000
0000
,
0001
0000
0001
0001
,
0001
0000
0100
0000
,
0010
0000
1000
0000
,
0001
0001
0001
0000
,
0100
0100
0100
0000
,
0010
0000
1000
0000
,
0100
0000
1000
0000
,
0001
0000
0010
0000
,
0001
0000
1000
0000
,
0010
0000
0100
0000
,
0001
0000
1000
0000
,
0001
0000
0001
0000
,
0100
0000
0100
0000
,
0010
0000
0010
0000
,
1000
0000
1000
0000
,
0001
0001
0001
0000
,
0100
0000
0100
0000
,
0010
0000
0010
0000
,
1000
0000
1000
0000
,
0001
1000
0001
0000
,
0100
0010
0100
0000
,
0001
0000
1000
0000
,
0001
0000
1000
0000
,
0010
0000
0000
0000
,
1000
0000
0000
0000
,
0010
0000
0000
0000
,
1000
0000
0000
0000
,
0001
0000
0000
0000
,
0100
0000
0000
0000
,
0010
0000
0000
0000
,
0100
0000
0000
0000
,
0001
0000
0000
0000
,
1000
0000
0000
0000
,
0001
0000
0000
0000
,
0100
0000
0000
0000
,
0001
0000
0010
0000
,
0001
0000
0000
0000
,
1000
0000
0010
0000
,
1000
0000
0000
0000
,
0001
0000
0010
0000
,
0001
0000
0000
0000
,
0100
0000
0010
0000
,
0000
0000
0000
0000
,
0000
0000
0000
0000
,
0001
0000
0000
0000
,
1000
0000
0000
0000
,
0001
0000
0000
0000
,
1000
0000
0000
0000
,
0010
0000
0000
0000
,
0100
0000
0010
0000
,
0100
0000
0000
0000
,
0001
0000
0000
0000
,
0010
0000
0000
0000
,
0001
0000
0000
0000
,
1000
0000
0000
0000
,
0001
0000
0000
0000
,
0100
0000
0000
0000
,
0001
0000
0000
0000
,
0010
0000
0000
0000
,
0001
0000
0000
0000
,
1000
0000
0000
0000
,
0100
0000
0000
0000
,
1000
0000
0000
0000
,
0001
0000
0000
0000
,
0010
0000
0000
0000
,
0001
0000
0000
0000
,
0100
0000
0000
0000
,
0010
0000
0000
0000
,
1000
0000
0000
0000
,
0001
0000
0000
0000
,
0100
0000
0000
0000
,
0001
0000
0000
0000
,
1000
0000
0000
0000
,
0010
0000
0000
0000
,
1000
0000
0001
0000
;
