#TITLE:Gate of Atlantis;
#SUBTITLE:;
#ARTIST:Maskaleido;
#TITLETRANSLIT:;
#SUBTITLETRANSLIT:;
#ARTISTTRANSLIT:;
#GENRE:;
#CREDIT:;
#BANNER:Gate of Atlantis.png;
#BACKGROUND:;
#LYRICSPATH:;
#CDTITLE:;
#MUSIC:Gate of Atlantis.ogg;
#OFFSET:-0.176000;
#SAMPLESTART:32.770367;
#SAMPLELENGTH:12.000000;
#SELECTABLE:YES;
#BPMS:0.000000=300.000000
,114.000000=150.000000
,137.000000=300.000000
,257.000000=180.000000
,321.000000=300.000000
,429.000000=30.000000
,429.250000=111.000000
,431.000000=222.000000
,434.000000=333.000000
,438.000000=444.000000
,442.000000=555.000000
,448.000000=666.000000
,455.000000=777.000000
,463.000000=888.000000
,501.000000=777.000000
,505.000000=666.000000
,509.000000=555.000000
,513.000000=444.000000
,516.500000=333.000000
,520.000000=222.000000
,522.000000=111.000000
,523.875000=8.000000
,524.000000=300.000000
;
#STOPS:136.500000=0.400000
;
#BGCHANGES:;
#KEYSOUNDS:;
#ATTACKS:;

//---------------dance-single - ----------------
#NOTES:
     dance-single:
     :
     Beginner:
     6:
     0.202307,0.512159,0.026064,0.017376,0.000000,163.000000,160.000000,3.000000,2.000000,0.000000,0.000000,0.202307,0.512159,0.026064,0.017376,0.000000,163.000000,160.000000,3.000000,2.000000,0.000000,0.000000:
// measure 0
0000
0000
0000
0000
,  // measure 1
0000
0000
0000
0000
,  // measure 2
0000
0000
0000
0000
,  // measure 3
0000
0000
0000
0000
,  // measure 4
0000
0000
0000
0000
,  // measure 5
0000
0000
0000
0000
,  // measure 6
0000
0000
0000
0000
,  // measure 7
0000
0000
0000
0000
,  // measure 8
0000
0000
0000
0000
,  // measure 9
0000
0000
0000
0000
,  // measure 10
0000
0000
0000
0000
,  // measure 11
1001
0000
0000
0000
,  // measure 12
1000
0000
0000
0000
,  // measure 13
0010
0000
0000
0000
,  // measure 14
0100
0000
0000
0000
,  // measure 15
0001
0000
0000
0000
,  // measure 16
1000
0000
0000
0000
,  // measure 17
0010
0000
0000
0000
,  // measure 18
0100
0000
0000
0000
,  // measure 19
0001
0000
0000
0000
,  // measure 20
1000
0000
0000
0000
,  // measure 21
0010
0000
0000
0000
,  // measure 22
1000
0000
0000
0000
,  // measure 23
0100
0000
0000
0000
,  // measure 24
0010
0000
0000
0000
,  // measure 25
0001
0000
0000
0000
,  // measure 26
1000
0000
0000
0000
,  // measure 27
0100
0000
0000
0000
,  // measure 28
0000
0000
0010
0010
,  // measure 29
0000
0000
0000
0000
,  // measure 30
0001
0000
0000
1000
0000
0000
0001
0000
,  // measure 31
0000
1000
0000
0000
0010
0000
0000
0100
,  // measure 32
0000
0000
0010
0000
0000
1000
0000
0000
,  // measure 33
0100
0000
0000
0010
0000
0000
0001
0000
,  // measure 34
0000
1001
0100
0000
0000
0000
0000
0000
,  // measure 35
0010
0000
0000
1000
,  // measure 36
0000
0000
0100
0000
,  // measure 37
0000
0010
0000
0000
,  // measure 38
0001
0000
0000
1000
,  // measure 39
0000
0000
0100
0000
,  // measure 40
0000
1000
0000
0000
,  // measure 41
0010
0000
0000
1000
,  // measure 42
0000
0000
0001
0000
,  // measure 43
0000
1000
0000
0000
,  // measure 44
0100
0000
0000
0010
,  // measure 45
0000
0000
0001
0000
,  // measure 46
0000
1000
0000
0000
,  // measure 47
0001
0000
0000
1000
,  // measure 48
0000
0000
0100
0000
,  // measure 49
0000
1000
0000
0000
,  // measure 50
0010
0000
0000
0100
,  // measure 51
0000
0000
0001
0000
,  // measure 52
1000
0000
0000
0000
,  // measure 53
0100
0000
0000
0000
,  // measure 54
1000
0000
0000
0000
,  // measure 55
0100
0000
0000
0000
,  // measure 56
1000
0000
0000
0000
,  // measure 57
0100
0000
0000
0000
,  // measure 58
0000
0000
1000
0000
,  // measure 59
0000
0000
0100
0000
,  // measure 60
0000
0000
0010
0000
,  // measure 61
0000
0000
0001
0000
,  // measure 62
0000
0000
1000
0000
,  // measure 63
0000
0000
0001
0000
,  // measure 64
0000
1000
0010
1000
,  // measure 65
0100
0010
0001
1000
,  // measure 66
0001
0000
0100
0010
,  // measure 67
1000
0010
0100
0001
,  // measure 68
0010
0000
0100
1000
,  // measure 69
0001
1000
0001
0010
,  // measure 70
0001
0100
0010
1000
,  // measure 71
0100
0010
0001
1000
,  // measure 72
0001
0100
0010
1000
,  // measure 73
0000
0100
0000
1000
,  // measure 74
0000
0001
1000
0001
,  // measure 75
0000
0100
0010
0100
,  // measure 76
0000
0010
1000
0010
,  // measure 77
1000
0100
0010
0001
,  // measure 78
0010
0100
1000
0001
,  // measure 79
1000
0010
0100
0010
,  // measure 80
1000
0100
0000
0100
,  // measure 81
0000
0010
0000
0000
,  // measure 82
1000
0000
0001
0000
,  // measure 83
0000
1000
0000
0000
,  // measure 84
0010
0000
0000
1000
,  // measure 85
0000
0000
0100
0000
,  // measure 86
0000
0010
0000
0000
,  // measure 87
0010
0000
0000
0010
,  // measure 88
0000
0000
0001
0000
,  // measure 89
0000
1000
0000
0000
,  // measure 90
0001
0000
0000
1000
,  // measure 91
0000
0000
0100
0000
,  // measure 92
0000
0010
0000
0000
,  // measure 93
0010
0000
0000
0001
,  // measure 94
0000
0000
0001
0000
,  // measure 95
0000
1000
0000
0000
,  // measure 96
1000
0000
0000
1000
,  // measure 97
0000
0000
0100
0000
,  // measure 98
0000
0100
0000
0000
,  // measure 99
0010
0000
0000
0010
,  // measure 100
0000
0000
0001
0000
,  // measure 101
0000
0001
0000
0000
,  // measure 102
0001
0000
0000
0100
,  // measure 103
0000
0000
0100
0000
,  // measure 104
0000
0010
0000
0000
,  // measure 105
1000
0000
0000
0000
,  // measure 106
0000
0000
0000
0000
,  // measure 107
0000
2002
0000
0000
,  // measure 108
0000
0000
0000
0000
,  // measure 109
0000
0000
0000
0000
,  // measure 110
0000
0000
0000
0000
,  // measure 111
0000
0000
0000
0000
,  // measure 112
0000
0000
0000
0000
,  // measure 113
0000
0000
0000
0000
,  // measure 114
0000
0000
0000
0000
,  // measure 115
0000
0000
0000
0000
,  // measure 116
0000
0000
0000
0000
,  // measure 117
0000
0000
0000
0000
,  // measure 118
0000
0000
0000
0000
,  // measure 119
0000
0000
0000
0000
,  // measure 120
0000
0000
0000
0000
,  // measure 121
0000
0000
0000
0000
,  // measure 122
0000
0000
0000
0000
,  // measure 123
0000
0000
0000
0000
,  // measure 124
0000
0000
0000
0000
,  // measure 125
0000
0000
0000
0000
,  // measure 126
0000
0000
0000
0000
,  // measure 127
0000
0000
0000
0000
,  // measure 128
0000
0000
0000
0000
,  // measure 129
0000
0000
0000
0000
,  // measure 130
0000
0000
0000
0000
,  // measure 131
3003
0000
0000
0000
;

//---------------dance-single - ----------------
#NOTES:
     dance-single:
     :
     Easy:
     12:
     0.403372,0.967411,0.034752,0.034752,0.004344,325.000000,321.000000,4.000000,4.000000,0.000000,0.000000,0.403372,0.967411,0.034752,0.034752,0.004344,325.000000,321.000000,4.000000,4.000000,0.000000,0.000000:
// measure 0
0000
0000
0000
0000
,  // measure 1
0000
0000
0000
0000
,  // measure 2
0000
0000
0000
0000
,  // measure 3
0000
0000
0000
0000
,  // measure 4
0000
0000
0000
0000
,  // measure 5
0000
0000
0000
0000
,  // measure 6
0000
0000
0000
0000
,  // measure 7
0000
0000
0000
0000
,  // measure 8
0000
0000
0000
0000
,  // measure 9
0000
0000
0000
0000
,  // measure 10
0000
0000
0000
0000
,  // measure 11
1001
0000
1000
0010
,  // measure 12
1000
0000
0001
1000
,  // measure 13
0001
0000
1000
0000
,  // measure 14
0100
0000
1000
0000
,  // measure 15
0010
0000
0100
0000
,  // measure 16
0001
0000
0010
0000
,  // measure 17
1000
0000
0010
0000
,  // measure 18
0001
0000
0100
0000
,  // measure 19
1000
0000
0100
0000
,  // measure 20
0001
0000
1000
0000
,  // measure 21
0001
0000
1000
0000
,  // measure 22
0010
0000
0100
0000
,  // measure 23
0010
0100
0010
0000
,  // measure 24
1000
0010
1000
0000
,  // measure 25
0001
1000
0001
0000
,  // measure 26
1000
0000
0100
0000
,  // measure 27
0010
0000
0000
0000
,  // measure 28
0000
0000
0000
0000
1000
0000
0001
1000
,  // measure 29
0000
0001
1000
0000
0010
0100
0000
0000
,  // measure 30
0010
0000
0100
0010
0000
0000
1000
0000
,  // measure 31
0010
1000
0000
0000
0000
0000
0000
0100
,  // measure 32
0000
1000
0100
0000
1000
0010
0000
0000
,  // measure 33
0100
0000
0001
0100
0000
0001
1000
0000
,  // measure 34
0010
1000
0200
0000
0000
0000
0300
0000
,  // measure 35
0020
0000
0031
1000
,  // measure 36
0001
0000
1000
0000
,  // measure 37
0000
0010
1000
0010
,  // measure 38
1000
0010
1000
0010
,  // measure 39
1000
0010
1000
0000
,  // measure 40
0000
0001
0000
0000
,  // measure 41
1000
0000
0000
0001
,  // measure 42
1000
0001
1000
0000
,  // measure 43
0000
0100
0010
0100
,  // measure 44
0010
0001
0010
0001
,  // measure 45
0010
0001
0100
0000
,  // measure 46
0000
0010
0000
0000
,  // measure 47
1000
0000
0000
0010
,  // measure 48
1000
0010
1000
0000
,  // measure 49
0000
0100
1000
0100
,  // measure 50
1000
0100
1000
0100
,  // measure 51
1000
0100
1000
0000
,  // measure 52
0000
0010
0000
0000
,  // measure 53
0100
0000
0000
0001
,  // measure 54
0000
0000
1000
0000
,  // measure 55
0000
0001
1000
0001
,  // measure 56
0000
1000
0010
1000
,  // measure 57
0000
0010
1000
0010
,  // measure 58
0000
1000
0000
0000
,  // measure 59
0000
0000
0000
0000
,  // measure 60
0100
0000
0000
0000
,  // measure 61
0010
0000
0000
0001
,  // measure 62
0000
0000
1000
0001
,  // measure 63
1000
0000
0010
0000
,  // measure 64
0000
0000
0110
0000
0100
0001
0010
0010
,  // measure 65
1000
0000
0010
0000
0001
0000
0100
1000
,  // measure 66
0100
0000
0001
0000
0010
1000
0010
0001
,  // measure 67
0010
1000
0010
0001
0010
1000
0010
0001
,  // measure 68
0100
0000
0010
0000
0100
0000
0010
1000
,  // measure 69
0010
0000
1000
0100
1000
0100
1000
0100
,  // measure 70
1000
0000
0001
1000
0001
1000
0001
1000
,  // measure 71
0001
1000
0001
0000
0100
0000
0010
0000
,  // measure 72
1000
0100
1000
0000
0001
0000
0010
0000
,  // measure 73
0001
0100
0010
1000
,  // measure 74
0100
0000
1000
0000
0010
1000
0010
1000
,  // measure 75
0010
1000
0010
1000
0010
1000
0010
0000
,  // measure 76
0100
0001
0010
0001
,  // measure 77
0100
0000
0010
0000
1000
0000
0001
1000
,  // measure 78
0001
0000
0100
0010
1000
0100
1000
0001
,  // measure 79
0100
0001
0010
0100
1000
0001
1000
0010
,  // measure 80
0100
0001
0100
0000
1000
0000
0001
0000
,  // measure 81
1000
0010
0000
0100
,  // measure 82
0100
0010
1000
0000
,  // measure 83
0000
0001
1000
0001
,  // measure 84
1000
0010
1000
0010
,  // measure 85
1000
0100
0010
0000
,  // measure 86
0000
0001
0000
0010
,  // measure 87
0001
0000
0010
0001
,  // measure 88
0010
0001
0100
0000
,  // measure 89
0000
0010
1000
0100
,  // measure 90
0001
0100
1000
0010
,  // measure 91
0001
0010
1000
0000
,  // measure 92
0000
0001
1000
0001
,  // measure 93
1000
0001
1000
0100
,  // measure 94
1000
0100
1000
0000
,  // measure 95
0000
0010
0100
0010
,  // measure 96
0100
0001
0010
0001
,  // measure 97
0010
1000
0010
0000
,  // measure 98
0000
0001
0100
1000
,  // measure 99
0100
0001
0010
1000
,  // measure 100
0010
0001
0000
0100
,  // measure 101
0000
0010
1000
0100
,  // measure 102
1000
0100
1000
0010
,  // measure 103
1000
0010
1000
0001
,  // measure 104
0000
0100
0001
0010
,  // measure 105
0100
1000
0001
1000
,  // measure 106
0010
0100
0001
0010
,  // measure 107
0001
0000
0000
0000
1000
2002
0000
0000
0000
0000
0000
0000
0000
0000
0000
0000
,  // measure 108
0000
0000
0000
0000
,  // measure 109
0000
0000
0000
0000
,  // measure 110
0000
0000
0000
0000
,  // measure 111
0000
0000
0000
0000
,  // measure 112
0000
0000
0000
0000
,  // measure 113
0000
0000
0000
0000
,  // measure 114
0000
0000
0000
0000
,  // measure 115
0000
0000
0000
0000
,  // measure 116
0000
0000
0000
0000
,  // measure 117
0000
0000
0000
0000
,  // measure 118
0000
0000
0000
0000
,  // measure 119
0000
0000
0000
0000
,  // measure 120
0000
0000
0000
0000
,  // measure 121
0000
0000
0000
0000
,  // measure 122
0000
0000
0000
0000
,  // measure 123
0000
0000
0000
0000
,  // measure 124
0000
0000
0000
0000
,  // measure 125
0000
0000
0000
0000
,  // measure 126
0000
0000
0000
0000
,  // measure 127
0000
0000
0000
0000
,  // measure 128
0000
0000
0000
0000
,  // measure 129
0000
0000
0000
0000
,  // measure 130
0000
0000
0000
3003
,  // measure 131
1001
0000
0000
0000
;

//---------------dance-single - ----------------
#NOTES:
     dance-single:
     :
     Medium:
     14:
     0.625538,1.251944,0.139008,0.234577,0.117288,504.000000,488.000000,16.000000,27.000000,0.000000,0.000000,0.625538,1.251944,0.139008,0.234577,0.117288,504.000000,488.000000,16.000000,27.000000,0.000000,0.000000:
// measure 0
0000
0000
0000
0000
,  // measure 1
0000
0000
0000
0000
,  // measure 2
0000
0000
0000
0000
,  // measure 3
0000
0000
0000
0000
,  // measure 4
0000
0000
0000
0000
,  // measure 5
0000
0000
0000
0000
,  // measure 6
0000
0000
0000
0000
,  // measure 7
0000
0000
0000
0000
,  // measure 8
0000
0000
0000
0000
,  // measure 9
0000
0000
0000
0000
,  // measure 10
0000
0000
0000
0000
,  // measure 11
1000
0000
0010
0100
0000
0100
0000
0100
,  // measure 12
0010
0000
0000
0000
1000
0001
1000
0010
,  // measure 13
1000
0000
0001
0010
0000
0010
0001
0000
,  // measure 14
0100
0000
0010
1000
0010
1000
0010
0000
,  // measure 15
0100
0001
0010
0100
,  // measure 16
1000
0000
0010
0100
0010
0100
0001
0000
,  // measure 17
1000
0100
1000
0100
1000
0100
0000
0010
,  // measure 18
0001
0000
0001
0100
0001
0100
0010
0000
,  // measure 19
1000
0000
0000
1010
0000
1010
0000
1010
,  // measure 20
0000
0000
0001
0100
0001
0100
0001
0100
,  // measure 21
0010
0000
1000
0010
0000
1000
0000
0100
,  // measure 22
0000
0010
0001
0100
0001
0010
0001
1000
,  // measure 23
0001
0100
0010
0100
,  // measure 24
0001
1000
0001
1000
,  // measure 25
0010
0100
0001
0010
,  // measure 26
0100
1000
0010
0100
,  // measure 27
1001
0000
0000
0000
,  // measure 28
0000
0000
0000
0000
0001
0000
0010
0001
,  // measure 29
0000
0000
0001
0000
1000
0000
0000
0000
0001
1000
0001
0000
0000
0000
0000
0000
,  // measure 30
0200
0000
0310
2000
0000
3001
0200
0000
,  // measure 31
0310
1000
0010
0000
0000
0000
0000
0000
1001
0000
0000
0000
1000
0000
0010
0000
,  // measure 32
0000
0000
0010
0000
0100
0000
0000
0000
0001
1000
0001
0000
0000
0000
0000
0000
,  // measure 33
0001
0000
0010
0000
0100
0000
1000
0000
0001
0000
1000
0000
0010
0100
0010
0100
,  // measure 34
0010
0100
0001
0000
0010
0000
0000
0000
0100
0000
0000
0000
1000
0000
0000
0000
,  // measure 35
0001
0000
1000
0000
0001
0100
0001
0000
,  // measure 36
1000
0010
0200
0000
,  // measure 37
0301
1000
0010
1000
,  // measure 38
0100
0010
0001
0100
,  // measure 39
0010
0000
0000
0010
1000
0000
0001
0000
,  // measure 40
1000
0100
0010
0001
,  // measure 41
0100
0000
0001
0000
1000
0001
1000
0000
,  // measure 42
0010
0100
0002
0010
,  // measure 43
0013
0001
1000
0100
,  // measure 44
1000
0010
0100
0001
,  // measure 45
0010
0000
0000
0001
0100
0000
0010
0000
,  // measure 46
0000
0100
0001
0010
,  // measure 47
1000
0010
0001
0100
,  // measure 48
1000
0100
0001
0010
,  // measure 49
1000
0010
0001
0100
,  // measure 50
1000
0100
0001
0010
,  // measure 51
0100
1000
0010
0100
,  // measure 52
0001
0000
0010
0100
0010
0000
0100
0000
,  // measure 53
1000
0010
1000
0000
0001
0000
0100
0010
,  // measure 54
0100
0001
0010
0100
,  // measure 55
1000
0000
0001
0010
0001
0010
0001
0000
,  // measure 56
0100
0000
0010
0000
0001
0000
0100
0010
,  // measure 57
0100
0010
1000
0000
0001
0000
1000
0100
,  // measure 58
0001
0100
2000
0000
0000
0000
0000
0000
,  // measure 59
0000
0000
0000
0000
,  // measure 60
0000
0000
3000
0000
,  // measure 61
0000
0200
0000
0000
,  // measure 62
0000
0000
0000
0000
,  // measure 63
0000
0000
0300
0000
,  // measure 64
0000
0000
0000
0000
0110
0000
0000
0000
0100
0000
0001
0010
0001
0000
1000
0001
,  // measure 65
1000
0010
1000
0000
0002
0000
0000
0000
1003
0001
1000
0000
0010
0000
0000
0000
,  // measure 66
0100
0000
0000
0000
0001
0000
0001
0000
1001
0000
1000
0010
1000
0000
0001
1000
,  // measure 67
0001
0000
0100
0000
0010
0000
1000
0000
0001
1000
0001
0000
0100
0000
0010
0000
,  // measure 68
1000
0000
0001
0000
0100
0000
0100
0000
0010
0000
0010
1000
0010
0000
1000
0001
,  // measure 69
1000
0001
1000
0000
0001
0000
0100
0000
0010
0000
1000
0000
0100
0000
0010
0000
,  // measure 70
0001
0000
0100
0000
0001
1000
0001
0000
1000
0010
1000
0000
0010
0100
0010
0000
,  // measure 71
0100
0001
0100
0000
0001
0000
0010
0000
0100
0000
1000
0000
0010
0000
0100
0000
,  // measure 72
0001
0000
1000
0000
0001
0010
0002
0000
0000
0000
0000
0000
0000
0000
0000
0000
,  // measure 73
0003
0000
0100
0010
0200
0000
0000
0000
0000
0000
0320
0000
0000
0000
0000
0000
,  // measure 74
0000
0000
1030
0001
2000
0000
0000
0000
3100
0010
0100
0000
0010
0000
0001
0000
,  // measure 75
1000
0010
1000
0001
0100
0010
1000
0001
,  // measure 76
0100
0000
0010
1000
0001
1000
0010
0100
,  // measure 77
0001
0010
0001
1000
0100
1000
0001
0100
,  // measure 78
0001
1000
0010
1000
0100
0010
0001
0100
,  // measure 79
0010
1000
0100
0010
0001
1000
0010
0000
,  // measure 80
1000
0001
1000
0001
1000
0000
0000
0000
1001
0000
0000
0000
1001
0000
0000
0000
,  // measure 81
1001
0000
0000
0000
0010
1000
0010
0000
,  // measure 82
0100
0001
0011
0000
,  // measure 83
1000
0010
0001
0010
,  // measure 84
1000
0100
0001
0100
,  // measure 85
1000
0000
0000
0010
1000
0000
0000
0001
,  // measure 86
1000
0001
0100
0000
0010
0000
1000
0000
,  // measure 87
0100
0000
0000
1000
0001
1000
0010
0000
,  // measure 88
0100
0001
0010
0000
,  // measure 89
0100
1000
0100
0000
1000
0000
0001
0000
,  // measure 90
0010
0001
0100
0010
,  // measure 91
1000
0000
0000
0001
1000
0000
0001
0010
,  // measure 92
0001
0000
0100
0010
0100
0000
0001
0100
,  // measure 93
0001
1000
0010
0100
,  // measure 94
0010
0001
0010
0000
,  // measure 95
1000
0100
1100
0000
,  // measure 96
0001
0000
0100
0001
0100
0000
0000
0000
,  // measure 97
0010
1000
0001
1000
,  // measure 98
0001
0000
0100
0001
0100
0000
0010
0000
,  // measure 99
1000
0000
0100
1000
0100
0000
0010
0001
,  // measure 100
0010
0000
0001
0000
1000
0001
1000
0000
,  // measure 101
0010
0000
0100
0001
0100
0000
0010
0000
,  // measure 102
1000
0000
0001
1000
0001
0000
0100
0001
,  // measure 103
0100
0010
1000
0001
,  // measure 104
0010
0001
0100
0010
,  // measure 105
0100
0001
1000
1010
,  // measure 106
0000
0000
1001
0000
,  // measure 107
0000
0102
0000
2003
,  // measure 108
0000
0000
3002
0000
,  // measure 109
0000
0000
2003
0000
,  // measure 110
0000
0000
3002
0000
,  // measure 111
0000
0000
0000
0000
,  // measure 112
2003
0000
0000
0000
,  // measure 113
0000
0000
0000
3002
,  // measure 114
0000
0000
0000
0000
,  // measure 115
0000
0000
0000
2003
,  // measure 116
0000
0000
0000
0000
,  // measure 117
0000
0000
0000
0000
,  // measure 118
0000
0000
0000
0000
,  // measure 119
0000
0000
0000
0000
,  // measure 120
0000
0000
0000
0000
,  // measure 121
0000
0000
0000
0000
,  // measure 122
0000
0000
0000
0000
,  // measure 123
0000
0000
0000
0000
,  // measure 124
0000
0000
0000
0000
,  // measure 125
0000
3002
0000
0000
,  // measure 126
0000
2003
0000
0000
,  // measure 127
0000
3002
0000
0000
,  // measure 128
0000
2003
0000
0000
,  // measure 129
0000
3002
0000
0000
0000
0000
0000
0000
,  // measure 130
0203
0000
0000
0000
0000
0000
0000
0000
0000
0000
0000
0000
0000
0000
0000
0000
0000
0000
0000
0000
0000
0000
0000
0000
0000
0000
0000
0000
0000
0000
0000
0000
0000
0000
0000
0000
0000
0000
0000
0000
0000
0000
0000
0000
0000
0000
0000
0000
0000
0000
0000
0000
0000
0000
0000
0000
0000
0000
0000
0000
0000
0000
0000
0000
0000
0000
0000
0000
0000
0000
0000
0000
0000
0000
0000
0000
0000
0000
0000
0000
0000
0000
0000
0000
0000
0000
0000
0000
0000
0000
0000
0000
0000
0000
0000
0000
0320
0000
0000
0000
0000
0000
0000
0000
0000
0000
0000
0000
0000
0000
0000
0000
0000
0000
0000
0000
0000
0000
0000
0000
0000
0000
0000
0000
0000
0000
0000
0000
0000
0000
0000
0000
0000
0000
0000
0000
0000
0000
0000
0000
0000
0000
0000
0000
0000
0000
0000
0000
0000
0000
0000
0000
0000
0000
0000
0000
0000
0000
0000
0000
0000
0000
0000
0000
0000
0000
0000
0000
0000
0000
0000
0000
0000
0000
0000
0000
0000
0000
0000
0000
0000
0000
0000
0000
0000
0000
0030
0100
0000
0000
0000
0000
,  // measure 131
0110
0000
0000
0000
;

//---------------dance-single - ----------------
#NOTES:
     dance-single:
     :
     Hard:
     17:
     0.897349,1.650290,0.625538,0.199825,0.338833,723.000000,651.000000,72.000000,23.000000,0.000000,0.000000,0.897349,1.650290,0.625538,0.199825,0.338833,723.000000,651.000000,72.000000,23.000000,0.000000,0.000000:
// measure 0
0000
0000
0000
0000
,  // measure 1
0000
0000
0000
0000
,  // measure 2
0000
0000
0000
0000
,  // measure 3
0000
0000
0000
0000
,  // measure 4
0000
0000
0000
0000
,  // measure 5
0000
0000
0000
0000
,  // measure 6
0000
0000
0000
0000
,  // measure 7
0000
0000
0000
0000
,  // measure 8
0000
0000
0000
0000
,  // measure 9
0000
0000
0000
0000
,  // measure 10
0000
0000
0000
0000
,  // measure 11
1001
0000
0000
0001
0000
0100
0000
0101
,  // measure 12
0000
0000
0001
0100
0001
0100
0001
0100
,  // measure 13
0001
0000
0000
0011
0000
0110
0000
1100
,  // measure 14
0000
0100
0010
0100
0010
0001
1000
0001
,  // measure 15
1000
0100
0000
1100
0000
0110
0000
0011
,  // measure 16
0000
0010
0001
0010
0100
1000
0001
0000
,  // measure 17
1000
0100
0010
0001
0010
0100
0000
1000
,  // measure 18
0001
0100
0001
1000
0100
0010
0001
0000
,  // measure 19
1001
0000
0000
0011
0000
0110
0000
1100
,  // measure 20
0000
0000
1000
0001
0010
0001
1000
0010
,  // measure 21
1000
0000
0001
1000
0000
1001
0000
0101
,  // measure 22
0000
0010
1000
0100
1000
0001
0010
0001
,  // measure 23
0100
0000
0010
1000
0000
1001
0000
0001
,  // measure 24
0100
0000
0100
0010
0000
1010
0000
1000
,  // measure 25
0001
0000
0011
0000
0001
0010
0100
1000
,  // measure 26
0001
0010
0001
0000
1001
0000
1010
0000
,  // measure 27
1000
0100
0010
0001
,  // measure 28
0001
0000
1000
0000
0020
0000
0130
0102
,  // measure 29
0000
0000
1003
0000
2010
0000
0000
0000
3001
0010
0002
0000
0000
0000
0003
0000
,  // measure 30
2010
0000
3010
0210
0000
1300
1200
0000
,  // measure 31
0301
0100
0020
0000
0000
0000
0030
0000
1010
0000
0010
0000
0100
0000
1001
0000
,  // measure 32
0001
0000
0100
0000
0011
0000
0001
0000
0100
0010
1000
0000
0001
0000
1000
0001
,  // measure 33
0010
0000
0001
0000
0100
0000
0010
0000
1000
0000
0010
0000
0100
0001
0010
0100
,  // measure 34
1000
0001
1000
0000
1001
0000
0000
0000
1000
0000
0000
0000
1010
0000
0000
0000
,  // measure 35
0010
0000
0110
0000
0100
0001
1000
0000
,  // measure 36
1001
0001
0101
0100
,  // measure 37
0001
0011
0110
1100
,  // measure 38
1001
1001
1100
0110
,  // measure 39
0011
0000
0001
1000
0001
0000
1000
0001
,  // measure 40
1000
0010
0100
0000
0001
0000
0010
0000
,  // measure 41
0110
0000
0100
0000
1000
0001
1000
0000
,  // measure 42
1010
0000
0110
0000
0100
0001
1000
0000
,  // measure 43
0100
1100
0110
0011
,  // measure 44
1001
1001
0011
0110
,  // measure 45
1100
0000
0000
1000
0010
0000
0100
0000
,  // measure 46
0010
0100
0001
0010
0001
0000
1000
0000
,  // measure 47
0010
1000
0010
0000
1000
0001
1000
0000
,  // measure 48
0010
0100
1001
0010
,  // measure 49
0100
0001
0100
0000
0001
0000
0010
0000
,  // measure 50
0100
1000
0100
0010
,  // measure 51
0001
0000
0010
0000
0100
1000
0100
0000
,  // measure 52
1000
0010
1000
0100
1000
0100
0001
0100
,  // measure 53
0001
0100
0010
0100
0010
0100
1000
0100
,  // measure 54
1000
0001
1000
0001
0010
0100
1000
0000
,  // measure 55
0010
0000
1000
0100
0010
0001
0100
0010
,  // measure 56
1000
0001
0010
0100
1000
0010
0100
0001
,  // measure 57
0100
0010
0100
1000
0100
0010
1000
0010
,  // measure 58
0001
0010
0200
0000
0000
0000
0000
0000
,  // measure 59
0000
0000
0301
0010
0100
1000
0010
0100
,  // measure 60
0001
0010
0100
1000
0000
0000
0000
0000
,  // measure 61
0001
0002
0000
0000
,  // measure 62
0000
0000
1003
0100
0010
0001
0010
0100
,  // measure 63
1000
0100
0010
0001
0010
0100
1000
0000
,  // measure 64
0000
0000
0000
0000
1001
0000
0000
0000
0001
0000
0100
0010
0001
0000
0010
1000
,  // measure 65
0100
0010
0100
1000
0020
0000
0000
0000
0130
0010
0001
0010
0200
0000
0000
0000
,  // measure 66
0310
0000
1000
0000
1001
0000
0000
0000
0001
0000
0010
0100
1000
0000
1000
0100
,  // measure 67
0010
1000
0010
0100
2000
0000
3001
0100
0001
0100
0010
0000
1000
0000
0001
0000
,  // measure 68
1001
0000
0000
0000
0110
0000
0100
0000
0001
0000
0010
0001
1000
0000
0010
1000
,  // measure 69
0100
0010
0001
1000
0001
0000
0100
0000
0010
1000
0001
0000
1000
0000
0010
0000
,  // measure 70
0100
0000
0001
0000
0010
0001
0010
0001
0100
0010
0100
0010
1000
0100
1000
0100
,  // measure 71
0010
0001
0010
0001
0200
0000
0310
1000
0001
1000
0010
0000
0100
0000
0001
0000
,  // measure 72
0010
0100
1000
0001
1000
0010
0200
0000
0000
0000
0000
0000
0000
0000
0000
0000
,  // measure 73
0000
0000
0301
1000
0002
0000
0000
0000
0000
0000
0023
0000
0000
0000
0000
0000
,  // measure 74
0000
0000
0130
1000
0200
0000
0000
0000
1300
0001
1000
0001
0100
0010
0100
0010
,  // measure 75
1000
0100
1000
0000
0001
0010
0001
0010
0001
0100
0001
0100
0010
1000
0010
1000
,  // measure 76
0200
0000
0000
0000
1300
0000
0100
0000
1000
0001
1000
0001
0100
0000
0001
0000
,  // measure 77
0100
0010
0100
0010
1000
0000
0100
0000
0010
0001
0010
0100
1000
0000
0001
0010
,  // measure 78
0100
1000
0100
0000
0010
0000
0001
1000
0100
1000
0001
1000
0100
1000
0001
1000
,  // measure 79
0100
1000
0001
1000
0010
0000
0000
0000
0000
0000
0000
0000
0100
0000
0000
0000
,  // measure 80
0010
1000
0001
1000
0100
0000
0000
0000
0110
0000
0000
0000
0011
0000
0000
0000
,  // measure 81
1001
0000
0000
0000
1000
0100
0001
0000
,  // measure 82
0100
0110
0011
0000
,  // measure 83
0010
0110
0100
0101
,  // measure 84
0001
0101
0100
1100
,  // measure 85
1010
0000
0000
1000
0001
0000
0100
0000
,  // measure 86
0001
0010
0001
0000
1000
0000
0010
0000
,  // measure 87
0100
0000
0001
0000
0100
0010
1000
0000
,  // measure 88
0001
0100
0101
0000
,  // measure 89
0010
1000
0001
0000
1000
0000
0010
0000
,  // measure 90
0100
0001
0010
0100
,  // measure 91
1000
0000
0000
0001
0010
0000
0001
0000
,  // measure 92
0100
0001
0100
0010
1000
0010
1000
0010
,  // measure 93
0001
0010
0001
0010
0100
0001
0100
0001
,  // measure 94
1000
0100
1000
0100
1000
0100
0010
0001
,  // measure 95
0100
0000
0001
0010
0001
0000
0101
0000
,  // measure 96
1001
0000
1000
0010
1000
0010
0100
0000
,  // measure 97
0010
0100
0010
0100
0001
0100
0001
0010
,  // measure 98
0100
1000
0001
0100
0010
0000
1001
0000
,  // measure 99
0100
0010
0100
0010
1000
0001
1000
0001
,  // measure 100
0010
0100
1000
0010
0100
0001
0010
0100
,  // measure 101
1000
0000
0001
0010
0100
1000
0010
0000
,  // measure 102
1000
0001
1000
0010
1000
0000
0001
0100
,  // measure 103
0001
0100
0010
0000
0100
0001
0100
0000
,  // measure 104
0001
0000
0100
0010
0100
0010
1000
0001
,  // measure 105
1000
0001
0100
0010
1000
0000
0001
0100
,  // measure 106
0001
0100
0001
0000
1000
0100
1000
0100
,  // measure 107
1000
0000
0000
0000
0000
0000
0000
0000
1001
0000
1000
0000
0000
0010
0000
0000
1000
0000
0000
0100
0000
0000
0010
0000
0001
0000
1000
0000
0001
0000
0000
0000
,  // measure 108
1000
0010
1000
0000
0001
0000
0100
0000
0001
0000
1000
0000
0100
0000
1000
0000
,  // measure 109
0100
0010
0001
0010
0002
0000
0000
0000
,  // measure 110
0000
0000
0000
0000
,  // measure 111
0000
0000
0000
0000
,  // measure 112
0000
0000
0000
0000
,  // measure 113
0000
0000
0000
0000
,  // measure 114
0000
0000
0000
0000
,  // measure 115
0000
0000
2003
0000
,  // measure 116
0000
0000
0000
0000
,  // measure 117
0000
0000
0000
0000
,  // measure 118
0000
0000
0000
0000
,  // measure 119
0000
0000
0000
0000
,  // measure 120
0000
0000
0000
0000
,  // measure 121
0000
0000
0000
0000
,  // measure 122
0000
0000
0000
0000
,  // measure 123
0000
0000
0000
0000
,  // measure 124
0000
0000
0000
3002
,  // measure 125
0000
0000
0000
0000
,  // measure 126
0000
0000
0000
0000
,  // measure 127
0000
0000
0000
0000
,  // measure 128
0000
0000
0000
0000
,  // measure 129
0000
0000
0000
0000
,  // measure 130
2003
0000
0000
0000
0000
0000
0000
0000
0000
0000
0000
0000
0000
0000
0000
0000
0000
0000
0000
0000
0000
0000
0000
0000
0000
0000
0000
0000
0000
0000
0000
0000
0000
0000
0000
0000
0000
0000
0000
0000
0000
0000
0000
0000
0000
0000
0000
0000
0000
0000
0000
0000
0000
0000
0000
0000
0000
0000
0000
0000
0000
0000
0000
0000
0000
0000
0000
0000
0000
0000
0000
0000
0000
0000
0000
0000
0000
0000
0000
0000
0000
0000
0000
0000
0000
0000
0000
0000
0000
0000
0000
0000
0000
0000
0000
0000
3010
0000
0000
0000
0000
0000
0000
0000
0000
0000
0000
0000
0001
0000
0000
0000
0000
0000
0000
0000
0000
0000
0000
0000
0100
0000
0000
0000
0000
0000
0000
0000
0000
0000
0000
0000
1000
0000
0000
0000
0000
0000
0000
0000
0000
0000
0000
0000
0100
0000
0000
0000
0000
0000
0000
0000
0000
0000
0000
0000
0000
0000
0000
0000
0000
0000
0001
0000
0000
0000
0000
0000
0000
0000
0000
0000
0000
0000
0000
0000
0000
0000
0000
0000
1000
0000
0000
0000
0000
0000
0000
0001
0000
0000
0000
0000
,  // measure 131
1001
0000
0000
0000
;

//---------------dance-single - ----------------
#NOTES:
     dance-single:
     :
     Challenge:
     19:
     1.083521,1.707196,0.755858,0.538657,0.747170,873.000000,786.000000,87.000000,62.000000,0.000000,0.000000,1.083521,1.707196,0.755858,0.538657,0.747170,873.000000,786.000000,87.000000,62.000000,0.000000,0.000000:
// measure 0
0000
0000
0000
0000
,  // measure 1
0000
0000
0000
0000
,  // measure 2
0000
0000
0000
0000
,  // measure 3
0000
0000
0000
0000
,  // measure 4
0000
0000
0000
0000
,  // measure 5
0000
0000
0000
0000
,  // measure 6
0000
0000
0000
0000
,  // measure 7
0000
0000
0000
0000
,  // measure 8
0000
0000
0000
0000
,  // measure 9
0000
0000
0000
0000
,  // measure 10
0000
0000
0000
0000
,  // measure 11
0101
0000
0001
0100
0000
0110
0000
1020
,  // measure 12
0000
1030
0010
0100
0001
0010
0100
1000
,  // measure 13
0020
0030
0000
0110
0000
0110
0000
1001
,  // measure 14
0000
0001
0010
0100
1000
0001
1000
0100
,  // measure 15
0010
0001
0000
0011
0000
0110
0000
1100
,  // measure 16
0000
1000
0010
0100
0010
0001
0020
0030
,  // measure 17
1000
0100
0010
0001
0100
0010
0100
0001
,  // measure 18
1000
0001
0100
0010
1000
0100
1000
0000
,  // measure 19
2002
0000
3003
1100
0000
0110
0000
0022
,  // measure 20
0000
0033
0100
0001
1000
0010
0100
0010
,  // measure 21
2000
3000
0001
0200
0300
0101
0000
0110
,  // measure 22
0000
0010
1000
0001
0010
0001
0100
0010
,  // measure 23
2000
3000
0010
2000
3000
2002
3003
0001
,  // measure 24
0100
0000
0100
0020
0030
2020
3030
1000
,  // measure 25
0002
0003
0022
0033
0001
0010
0100
1000
,  // measure 26
0001
0010
0200
0300
2200
3300
2020
3030
,  // measure 27
0101
0101
1010
1001
,  // measure 28
0101
0000
1001
0000
1020
0000
0130
0102
,  // measure 29
0000
0000
0013
0000
2010
0000
0000
0000
3100
0001
0200
0000
0000
0000
0300
0000
,  // measure 30
0021
0000
1030
1020
0000
0031
2001
0000
,  // measure 31
3100
0100
0002
0000
0000
0000
0003
0000
1010
0000
0010
0000
0100
0000
0001
0000
,  // measure 32
1000
0000
0000
0000
0010
0000
0000
0000
1000
0000
0000
0000
0001
0000
0100
0000
0010
0000
0000
0000
0010
0000
0000
0000
0100
0000
0000
0000
0001
1000
0001
0000
,  // measure 33
0010
0000
0001
0000
0100
0000
0010
0000
1000
0000
0010
0000
0100
0001
0010
1000
,  // measure 34
0010
0000
0001
0000
0200
0300
0000
0000
1001
0000
0000
0000
0000
0000
0000
0000
1010
0000
0000
0000
0000
0000
0000
0000
0110
0000
0000
0000
0000
0000
0000
0000
,  // measure 35
0101
0000
0001
0000
0010
0100
1000
0000
,  // measure 36
1010
0011
1010
1000
,  // measure 37
1100
0110
0011
0110
,  // measure 38
1100
1001
0011
0110
,  // measure 39
2200
3300
0000
1000
1001
0000
0001
1000
,  // measure 40
0010
0100
0010
0000
1000
0000
0100
0000
1000
0000
0100
0000
0001
0000
0100
0000
,  // measure 41
0001
0100
0010
0000
0001
0100
0010
0100
,  // measure 42
0001
0000
0100
0000
0010
0000
0100
0000
0001
1000
0001
0000
1000
0010
1000
0000
,  // measure 43
0010
0100
0010
0000
2000
0000
0000
0000
3200
0000
0000
0000
0320
0000
0000
0000
,  // measure 44
0031
1000
0001
0000
0200
0000
0000
0000
0320
0000
0000
0000
2030
0000
0000
0000
,  // measure 45
3020
0000
0000
0000
0030
0000
0100
0000
0110
0000
0000
0000
0100
0010
0100
0010
,  // measure 46
0100
0001
0101
0100
,  // measure 47
0110
0000
0100
0000
1000
0100
0001
0000
,  // measure 48
0011
0001
1001
1000
,  // measure 49
0100
0001
0100
0010
0100
0010
0001
0100
,  // measure 50
0001
0100
0010
0100
0010
1000
0010
1000
,  // measure 51
0010
0100
0010
0100
0001
1000
0001
0000
,  // measure 52
1000
0001
1000
0000
0100
0000
0010
0000
1000
0000
0010
0000
0001
0000
0100
0000
,  // measure 53
0010
1000
0100
0010
1000
0010
0100
1000
,  // measure 54
0010
0100
0001
1000
0010
0100
0001
0010
,  // measure 55
1000
0000
0000
0010
0000
0000
0001
0000
0100
0000
0001
0000
0100
0000
0001
0000
0100
0000
0001
0000
0100
0000
0001
0000
,  // measure 56
0100
0001
0100
0001
0100
0001
0100
0001
0100
0001
0100
0001
,  // measure 57
0100
0001
0100
0001
0100
0001
0100
0001
0100
0001
0100
0001
,  // measure 58
0100
0001
0100
0001
0200
0000
0000
0000
0000
0000
0000
0000
0000
0000
0000
0000
,  // measure 59
0000
0000
0301
1000
0100
1000
0001
1000
,  // measure 60
0100
0010
0001
2000
0002
0000
3003
0000
,  // measure 61
0110
2002
0000
3003
,  // measure 62
0001
0100
0010
0100
0001
0010
0100
1000
,  // measure 63
0100
0010
0002
0000
0000
0000
0003
0000
,  // measure 64
0000
0000
0000
0000
1001
0000
0000
0000
1000
0000
0001
0100
0001
0000
0100
0010
,  // measure 65
0100
0010
0100
0010
2000
0000
0000
0000
3001
0100
0001
0100
0020
0000
0000
0000
,  // measure 66
1030
0000
0010
0000
1010
0000
0000
0000
1000
0000
0100
0001
0100
0000
1000
0010
,  // measure 67
0100
0000
0010
0000
1000
0000
0010
0000
0100
0010
0100
0000
0010
0000
1000
0000
0100
0000
0000
0000
0010
0000
0000
0000
0100
0000
0000
0000
0100
0000
0000
0000
,  // measure 68
2000
0000
3000
0000
1001
0000
0001
0000
0010
0000
0001
1000
0100
0000
1000
0001
,  // measure 69
0010
0100
1000
0001
1000
0000
0010
0000
0100
0001
0100
0001
1000
0000
0010
0000
,  // measure 70
0100
0000
0001
0000
0010
0001
0010
0001
0100
0010
0100
0010
1000
0100
1000
0100
,  // measure 71
0010
0001
0010
0001
0200
0000
0310
1000
0001
1000
0010
0000
0100
0000
0001
0000
,  // measure 72
1000
0100
0010
0001
0100
0010
0200
0000
0000
0000
0000
0000
0000
0000
0000
0000
,  // measure 73
0000
0000
0301
1000
0002
0000
0000
0000
0000
0000
0023
0000
0000
0000
0000
0000
,  // measure 74
0000
0000
0130
1000
0200
0000
0000
0000
0310
0001
0100
0010
1000
0001
0100
0010
,  // measure 75
1000
0001
0100
0010
1000
0001
0100
0010
1000
0001
0100
0010
1000
0001
0100
0010
,  // measure 76
2000
0000
0000
0000
3001
0000
0100
0000
0001
0010
0100
1000
0100
0010
0001
0000
,  // measure 77
1000
0100
0010
0001
0010
0100
1000
0000
0010
1000
0100
0000
0010
0001
1000
0001
,  // measure 78
0010
0001
0100
0000
0001
0010
0100
1000
0010
1000
0100
0010
0001
0100
0010
1000
,  // measure 79
0100
0010
0001
1000
0002
0000
0000
0000
0000
0000
0000
0000
0203
0000
0000
0000
,  // measure 80
0310
1000
0001
1000
0100
0000
0000
0000
0110
0000
0000
0000
0011
0000
0000
0000
,  // measure 81
1001
0000
0101
0000
1000
0010
0001
0000
,  // measure 82
1010
1100
0101
1100
,  // measure 83
0110
0011
0101
0011
,  // measure 84
0110
1100
0110
0011
,  // measure 85
1001
0000
0000
1000
1010
0000
1001
0000
,  // measure 86
0001
0010
0001
0000
1000
0000
0000
0000
0100
0000
0000
0000
1100
0000
0000
0000
,  // measure 87
1000
0000
0000
0000
1001
0000
0000
0000
0001
0010
0001
0000
0100
0000
0000
0000
,  // measure 88
0101
0000
0000
0000
1001
0000
0000
0000
0010
1000
0010
0000
1000
0100
1000
0000
,  // measure 89
0001
0100
0001
0000
0100
0000
0000
0000
0110
0000
0000
0000
1010
0000
0000
0000
,  // measure 90
1000
0100
1000
0000
0001
0000
0000
0000
0010
0000
0000
0000
0001
1000
0001
0000
,  // measure 91
0100
0000
0000
0001
0101
0000
0001
0000
,  // measure 92
1000
0000
0001
0010
0001
0010
1000
0010
,  // measure 93
1000
0010
0001
0010
0001
0100
0001
0100
,  // measure 94
1000
0000
0100
0000
1000
0000
0100
0000
0010
0100
0010
0000
0100
0000
0001
0000
,  // measure 95
0100
0000
0001
0000
0010
0001
0010
0000
0001
0000
0010
0000
0100
0000
1000
0010
,  // measure 96
1000
0000
0100
0000
0010
0100
0010
0000
0001
0000
0010
0000
0100
0000
1000
0000
,  // measure 97
0010
0100
0001
0010
0100
1000
0010
0100
,  // measure 98
0001
0000
0100
0000
0010
1000
0010
0000
1000
0000
0001
0000
0100
0000
0001
0010
,  // measure 99
0001
0000
1000
0000
0100
1000
0100
0000
0010
0000
0001
0000
1000
0001
1000
0000
,  // measure 100
0010
0000
0100
0000
0010
0100
0010
0000
0100
0001
0100
0000
0010
0000
1000
0000
,  // measure 101
0001
0000
1000
0000
0010
1000
0010
0000
1000
0000
0100
0000
0010
0000
0001
0000
,  // measure 102
1000
0100
1000
0000
0100
0000
0010
0000
0001
0000
0010
0000
0100
1000
0100
0000
,  // measure 103
1000
0000
0001
0000
0010
0000
0001
0000
0100
0001
0100
0000
0010
0000
1000
0000
,  // measure 104
0001
0000
0000
1000
0000
0000
0001
0000
1000
0000
0001
0000
1000
0000
0001
0000
1000
0000
0001
0000
1000
0000
0001
0000
,  // measure 105
1000
0001
1000
0001
1000
0001
1000
0001
1000
0001
0010
0100
,  // measure 106
1000
0001
1000
0100
0010
0001
1000
0100
0010
0001
1000
0001
,  // measure 107
0010
0000
0000
0000
0000
0000
0000
0000
0000
0000
0000
0000
0000
0000
0000
0000
0100
0000
0000
0000
0000
0000
0000
0000
0000
0000
0000
0000
0000
0000
0000
0000
1000
0000
0000
0000
0000
0000
0000
0000
0000
0000
0000
0000
0000
0000
0000
0000
0001
0000
0000
0000
0000
0000
0000
0000
0000
0000
0000
0000
1000
0000
0000
0000
0000
0000
0000
0000
0000
0000
0000
0000
0000
0000
0000
0000
0000
0000
0010
0000
0000
0000
0000
0000
0000
0000
0000
0000
0000
0000
0000
0000
0000
0000
0000
0000
1000
0000
0000
0000
0000
0000
0000
0000
0000
0000
0000
0000
0000
0000
0000
0000
0000
0000
0100
0000
0000
0000
0000
0000
0000
0000
0000
0000
0000
0000
0000
0000
0000
0000
0000
0000
0010
0000
0000
0000
0000
0000
0000
0000
0000
0000
0000
0000
0001
0000
0000
0000
0000
0000
0000
0000
0000
0000
0000
0000
0100
0000
0000
0000
0000
0000
0000
0000
0000
0000
0000
0000
0001
0000
0000
0000
0000
0000
0000
0000
0000
0000
0000
0000
0100
0000
0000
0000
0000
0000
0000
0000
0000
0000
0000
0000
,  // measure 108
0001
1000
0001
1000
0001
0010
0001
0010
0001
0000
0010
0000
0100
0000
1000
0000
,  // measure 109
0001
0010
0100
1000
0001
0100
0001
0100
,  // measure 110
0001
0100
0001
0100
0010
1000
0010
1000
,  // measure 111
0010
1000
0010
1000
0010
1000
0010
1000
,  // measure 112
0001
0000
0010
0000
0100
0000
1000
0000
0001
0000
0010
0000
,  // measure 113
0100
0000
1000
0000
0001
0000
0020
0000
0000
0000
0000
0000
,  // measure 114
0000
0000
0000
0000
,  // measure 115
0000
0000
0000
0000
,  // measure 116
0000
0000
0000
0032
,  // measure 117
0000
0000
0000
0000
,  // measure 118
0000
0000
0000
0000
,  // measure 119
0000
0000
0000
0000
,  // measure 120
0000
0000
0000
0000
,  // measure 121
0000
0000
0000
0000
,  // measure 122
0000
0000
0000
0000
,  // measure 123
0000
0000
0000
0000
,  // measure 124
0000
0000
0000
2003
,  // measure 125
0000
0000
0000
0000
,  // measure 126
0000
0000
0000
0000
,  // measure 127
0000
0000
0000
0000
,  // measure 128
0000
0000
0000
0000
,  // measure 129
0000
0000
0000
0000
,  // measure 130
0000
0000
0000
0000
0000
0000
0000
0000
0000
0000
0000
0000
0000
0000
0000
0000
0000
0000
0000
0000
0000
0000
0000
0000
0000
0000
0000
0000
0000
0000
0000
0000
0000
0000
0000
0000
0000
0000
0000
0000
0000
0000
0000
0000
0000
0000
0000
0000
3000
0000
0000
0000
0000
0000
0000
0000
0000
0000
0000
0000
0000
0000
0000
0000
0000
0000
0000
0000
0000
0000
0000
0000
0000
0000
0000
0000
0000
0000
0000
0000
0000
0000
0000
0000
0000
0000
0000
0000
0000
0000
0000
0000
0000
0000
0000
0000
1000
0000
0000
0000
0000
0000
0000
0000
0000
0000
0000
0000
0100
0000
0000
0000
0000
0000
0000
0000
0000
0000
0000
0000
0010
0000
0000
0000
0000
0000
0000
0000
0000
0000
0000
0000
0001
0000
0000
0000
0000
0000
0000
0000
0000
0000
0000
0000
0010
0000
0000
0000
0000
0000
0000
0000
0000
0000
0000
0000
0100
0000
0000
0000
0000
0000
0000
0000
0000
0000
0000
0000
0000
0000
0000
0000
0000
0000
1000
0000
0000
0000
0000
0000
0000
0000
0000
0000
0000
0000
0000
0001
0000
0000
0000
0000
,  // measure 131
1001
0000
0000
0000
;
