#TITLE:#FairyJoke;
#SUBTITLE:;
#ARTIST:uno(IOSYS);
#TITLETRANSLIT:;
#SUBTITLETRANSLIT:;
#ARTISTTRANSLIT:;
#GENRE:;
#CREDIT:;
#BANNER:;
#BACKGROUND:#FairyJoke-bg.png;
#LYRICSPATH:;
#CDTITLE:;
#MUSIC:#FairyJoke.ogg;
#OFFSET:0.003000;
#SAMPLESTART:94.438141;
#SAMPLELENGTH:14.999990;
#SELECTABLE:YES;
#BPMS:0.000000=160.000000
,111.000000=80.000000
,113.000000=160.000000
,125.000000=80.000000
,127.000000=160.000000
,139.000000=80.000000
,141.000000=160.000000
,153.000000=80.000000
,155.000000=160.000000
,205.000000=80.000000
,206.000000=160.000000
,208.000000=80.000000
,209.000000=160.000000
,211.000000=80.000000
,212.000000=160.000000
,228.000000=320.000000
,236.000000=160.000000
,279.000000=80.000000
,281.000000=160.000000
;
#STOPS:68.000000=1.125000,
81.000000=0.188000,
81.500000=0.188000,
82.000000=0.188000,
82.500000=0.188000,
236.000000=1.125000,
249.000000=0.188000,
249.500000=0.188000,
250.000000=0.188000,
250.500000=0.188000
;
#BGCHANGES:;
#KEYSOUNDS:;
#ATTACKS:TIME=91.489998:LEN=1.500000:MODS=Stealth, Overhead, Midi-note:TIME=91.589996:LEN=26.910000:MODS=Reverse, Overhead, Midi-note;

//---------------dance-single - ----------------
#NOTES:
     dance-single:
     :
     Beginner:
     4:
     0.130549,0.215895,0.000000,0.000000,0.000000,110.000000,110.000000,0.000000,0.000000,0.000000,0.000000,0.130549,0.215895,0.000000,0.000000,0.000000,110.000000,110.000000,0.000000,0.000000,0.000000,0.000000:
0000
0000
0000
0000
,
0000
0000
0000
0000
,
0000
0000
0000
0000
,
0000
0000
0000
0000
,
1000
0000
0000
0000
,
0001
0000
0000
0000
,
1000
0000
0000
0000
,
0100
0000
0000
0000
,
0010
0000
0000
0000
,
0001
0000
0000
0000
,
1000
0000
1000
0000
,
1000
0000
0000
0000
,
0100
0000
0100
0000
,
0100
0000
0000
0000
,
0010
0000
0000
0000
,
0010
0000
0000
0000
,
0001
0000
0001
0000
,
0001
1000
0000
0000
,
0000
1000
0000
0000
,
0000
0010
0000
0000
,
0000
0010
0000
0000
,
1000
0000
0000
0000
,
0001
0000
0000
0100
,
0000
0000
0010
0000
,
1000
0000
0001
0100
,
0000
0100
0000
0010
,
0000
0010
0000
1000
,
0000
1000
0000
0001
,
0001
0100
0000
0100
,
0000
0010
0000
0010
,
0000
1000
0000
1000
,
0000
0001
0001
1000
,
0000
1000
0000
1000
,
0000
1000
0000
0001
,
0000
0001
0000
0001
,
0000
0100
0000
0100
,
0000
0010
0000
0010
,
0000
1000
0000
1000
,
0000
0001
0000
0100
,
0000
0000
0000
0010
,
0000
0000
0000
0001
,
0000
0000
0000
1000
,
0000
0000
0000
0100
,
0000
0000
0000
1000
,
0000
0000
0000
0001
,
0000
0000
0000
1000
,
0000
0000
0000
0010
,
0000
0000
0000
0010
,
0000
0000
0000
0100
,
0000
0000
0000
0100
,
0000
0000
0000
0001
,
0000
0001
1000
0000
,
1000
0001
0000
0100
,
0010
0000
1000
0000
,
0001
0000
1000
0000
,
0001
0000
1000
0000
,
0001
0001
0100
0100
,
0010
0000
0000
0000
,
0000
0000
0000
0000
,
1000
0000
0010
0000
,
0000
1000
0000
0000
,
0001
0000
0000
1000
,
0000
0010
0000
0000
,
0100
0000
0000
0001
,
0000
0000
0000
1000
,
0000
0000
0000
0100
,
0000
0000
0000
0010
,
0000
0000
0000
0010
,
0000
0000
0000
0001
,
0000
0000
0000
1000
,
0000
0001
0000
0000
,
0100
0000
0000
0010
,
0000
1000
0000
0000
,
0001
0100
0100
0100
,
0010
0010
0000
0000
;

//---------------dance-single - ----------------
#NOTES:
     dance-single:
     :
     Easy:
     8:
     0.351295,0.586001,0.456921,0.191076,0.000000,296.000000,241.000000,55.000000,23.000000,0.000000,0.000000,0.351295,0.586001,0.456921,0.191076,0.000000,296.000000,241.000000,55.000000,23.000000,0.000000,0.000000:
0000
0000
0000
0000
,
0000
0000
0000
0000
,
0000
0000
0000
0000
,
0000
0000
0000
0000
,
1000
0000
1000
0000
,
0001
0000
0001
0000
,
0010
0000
0010
0000
,
0100
0000
0100
0000
,
1000
0000
1000
0000
,
0001
0000
0001
0000
,
0100
0100
0100
0000
,
0020
0000
2030
0000
,
3001
0000
0001
0000
,
2000
0000
3020
0000
,
0230
0000
0302
0000
,
2003
0000
3002
0000
,
0013
0010
0010
0010
,
1010
1001
0001
0101
,
0100
0010
1000
1100
,
0101
0100
1000
1010
,
0011
1000
0000
0000
,
0001
1000
1001
0001
,
0100
0010
1000
0100
,
0010
0011
0001
0100
,
1000
0100
0001
0010
,
1000
0011
0100
1000
,
0100
0011
0100
1000
,
0100
0011
0100
1000
,
0001
1000
0010
1000
,
0100
0010
0001
1001
,
1000
1100
0100
1100
,
1000
0000
0010
0100
0010
0100
0001
0000
,
1000
0010
0100
0010
,
0001
0010
0100
0010
,
1000
0000
0100
0000
0010
0000
0001
1000
,
0101
0001
0110
0000
1010
0000
1100
0000
,
0110
0011
0101
1010
,
1100
0101
1100
0101
,
1100
0000
0001
0100
0001
1000
0200
0000
,
0000
0320
0000
0032
,
0000
2003
0000
3200
,
0000
2300
0000
3020
,
0000
0230
0000
0301
,
1000
0001
0100
0010
,
0100
0001
1000
0100
,
1000
0010
0100
0020
,
0000
0000
0000
0130
,
0100
0001
0001
1000
,
1000
1100
0000
0100
,
0100
0010
0010
0001
,
0001
2000
0000
3100
,
1000
0020
0130
0100
,
0002
1003
0010
0200
,
0301
1000
0001
1000
,
0100
1000
0100
1000
,
1010
0010
0110
0100
,
0101
0001
1001
1000
,
2200
0000
0000
0000
,
0000
0000
0000
0000
,
3300
0000
0000
0010
,
1000
0010
1000
1100
,
0100
0110
0010
0011
,
0001
1001
0000
1001
,
1000
0100
0010
0001
,
1000
0100
1000
0010
,
0100
0101
0001
1000
,
0100
1100
1000
0010
,
0100
0101
0001
1001
,
1000
1100
1000
1010
,
0010
0000
0110
0000
0110
0000
0100
0001
,
0100
0001
1000
0000
1010
0000
0010
0000
,
0110
0100
0101
0001
,
1001
1000
1100
0100
,
1100
1000
0010
0100
,
0101
1001
0000
0000
;

//---------------dance-single - ----------------
#NOTES:
     dance-single:
     :
     Medium:
     11:
     0.498459,0.678527,0.706150,0.124615,0.000000,420.000000,335.000000,85.000000,15.000000,0.000000,0.000000,0.498459,0.678527,0.706150,0.124615,0.000000,420.000000,335.000000,85.000000,15.000000,0.000000,0.000000:
// measure 0
0000
0000
0000
0000
,  // measure 1
0000
0000
0000
0000
,  // measure 2
0000
0000
0000
0000
,  // measure 3
0000
0000
0000
0000
,  // measure 4
1000
0100
1000
0000
0010
0100
0010
0000
,  // measure 5
0100
0001
0100
0000
0001
1000
0001
0000
,  // measure 6
1000
0010
0100
0010
,  // measure 7
0001
0010
0100
0010
,  // measure 8
1000
0100
1000
0000
0001
0100
0001
0000
,  // measure 9
1000
0001
1000
0000
0110
0000
1001
0000
,  // measure 10
0100
0001
0010
0100
,  // measure 11
2000
3001
0100
0010
,  // measure 12
1000
0100
0010
0002
,  // measure 13
0103
0010
0100
0010
,  // measure 14
2000
3100
0002
0103
,  // measure 15
2000
3010
0001
0010
,  // measure 16
1000
0100
1000
0100
0001
0100
0001
0100
,  // measure 17
1000
1001
0110
1001
,  // measure 18
0110
0000
0001
0001
0001
0000
0100
0000
,  // measure 19
0010
0000
1000
1000
1000
0000
0100
0000
,  // measure 20
0010
0000
1000
1000
0001
0001
0010
0000
,  // measure 21
0100
0001
0100
1000
,  // measure 22
0001
0101
0100
1010
,  // measure 23
0010
0100
0001
1000
,  // measure 24
0001
0000
1000
0001
1000
0000
0010
0000
,  // measure 25
0100
0000
0101
0000
1001
0000
1000
0100
,  // measure 26
1000
0000
1010
0000
0110
0000
0001
0100
,  // measure 27
0001
0000
1001
0000
1100
0000
1000
0100
,  // measure 28
0010
0001
0101
0000
0110
0000
1100
0000
,  // measure 29
1100
0110
0110
0011
,  // measure 30
0011
0000
0001
0100
0001
0000
1000
0100
,  // measure 31
1000
0000
0010
0010
0010
0010
0100
0001
,  // measure 32
0100
0000
0001
1000
0001
0000
1000
0100
,  // measure 33
1000
0000
0010
0100
0010
0000
0001
0010
,  // measure 34
1000
0000
0010
0001
0100
0000
1000
0100
,  // measure 35
0001
1001
0110
0000
1001
0000
0110
0000
,  // measure 36
1001
1100
0101
1100
,  // measure 37
0101
0011
1010
0011
,  // measure 38
1010
0000
0011
0101
1010
0110
1001
0000
,  // measure 39
0100
0010
0001
2000
,  // measure 40
3100
0002
0103
1000
,  // measure 41
0010
0001
0010
2000
,  // measure 42
3010
0002
0013
2000
,  // measure 43
3100
0001
0100
1000
,  // measure 44
0100
0000
0001
0000
0100
0000
1000
0010
,  // measure 45
1000
0000
0001
0010
0001
0000
0200
0000
,  // measure 46
0000
0000
0000
0000
0000
0000
0310
1000
,  // measure 47
0010
0000
1000
0100
1000
0000
0001
0100
,  // measure 48
0001
0000
0110
0000
1001
0000
1000
0100
,  // measure 49
1000
0000
0010
0100
0010
0000
0001
0010
,  // measure 50
0001
0000
1001
0000
1100
0000
0010
0100
,  // measure 51
0010
2001
3001
0001
,  // measure 52
0201
0310
1000
2100
,  // measure 53
3100
0010
0001
1000
,  // measure 54
0001
1000
0001
0000
0100
0010
0100
0000
,  // measure 55
0010
1000
0100
0000
0010
0001
0100
0000
,  // measure 56
0001
1000
0001
1000
0100
1000
0100
1000
,  // measure 57
0020
0000
0000
0000
,  // measure 58
0000
0000
0000
0000
,  // measure 59
0130
1001
1001
1010
,  // measure 60
1010
0110
0110
0101
,  // measure 61
0101
0011
0011
0110
,  // measure 62
0110
0000
1100
1000
1000
1000
0001
0100
,  // measure 63
0001
0100
0010
1000
,  // measure 64
1100
0101
1100
0011
,  // measure 65
1010
0000
0011
0000
0101
0000
1000
0010
,  // measure 66
0100
0010
0100
0010
1000
0000
0001
0000
,  // measure 67
0100
0010
0110
0001
,  // measure 68
0100
1100
0101
0011
,  // measure 69
1010
0000
0011
0000
0101
0000
0100
0100
,  // measure 70
0100
0100
0010
1000
0010
0000
1100
0000
,  // measure 71
0101
1100
0011
0110
,  // measure 72
1001
1100
0101
0011
,  // measure 73
1010
0000
0100
0010
0001
0010
0100
1000
,  // measure 74
0010
1001
0000
0000
;

//---------------dance-single - ----------------
#NOTES:
     dance-single:
     :
     Hard:
     16:
     0.809402,0.925264,0.897226,0.174461,0.556612,682.000000,574.000000,108.000000,21.000000,0.000000,0.000000,0.809402,0.925264,0.897226,0.174461,0.556612,682.000000,574.000000,108.000000,21.000000,0.000000,0.000000:
// measure 0
0000
0000
0000
0000
,  // measure 1
0000
0000
0000
0000
,  // measure 2
0000
0000
0000
0000
,  // measure 3
0000
0000
0000
0000
,  // measure 4
1000
0100
1000
0100
0010
0001
0010
0001
,  // measure 5
1000
0001
1000
0001
0100
0001
0010
0100
,  // measure 6
1000
0000
1010
0000
0010
0100
0001
0010
,  // measure 7
0100
1000
0100
0010
0001
0010
1000
0010
,  // measure 8
0001
0100
0010
0100
0001
1000
0010
1000
,  // measure 9
0001
0000
0000
0000
0100
0001
0100
0000
0001
0000
0010
0000
0100
0000
0000
0000
,  // measure 10
0100
0010
0001
0010
0100
1000
0002
0000
,  // measure 11
1003
0010
0100
0010
0001
0010
2000
0000
,  // measure 12
3100
0001
0100
0010
0001
0010
0200
0000
,  // measure 13
1300
0000
0000
0010
0000
0000
0001
0000
0000
0010
0000
0000
1000
0000
0000
0001
0000
0000
0100
0000
0010
0000
0100
0000
,  // measure 14
0001
0001
1000
0100
0100
0010
0001
0001
,  // measure 15
1000
1000
0010
0100
0100
0001
1000
1000
,  // measure 16
0010
0100
0010
0000
0100
0010
0100
0000
0001
1000
0001
0000
1000
0001
1000
0000
,  // measure 17
0010
0000
0000
0000
1010
0000
1000
0000
1001
0000
0000
0000
0101
0000
0000
1100
,  // measure 18
0000
0000
1010
0000
0010
0000
0100
0000
0101
0000
0000
0000
0011
0000
0000
0110
,  // measure 19
0000
0000
1100
0000
1000
0000
0001
0000
0100
0000
0000
0000
0010
0100
0010
0100
,  // measure 20
0001
1000
0001
0000
1001
0000
1001
0000
1001
0000
1001
0000
0001
0000
0100
0000
,  // measure 21
1000
0000
0100
0001
0100
0000
0010
0000
1000
0000
0010
0000
0001
0000
0010
0000
,  // measure 22
0100
0000
0001
0000
1000
0001
1000
0000
0001
0000
0010
0000
0001
0000
0100
0000
,  // measure 23
0010
0000
1000
0000
0001
0100
0001
0000
0001
0100
0001
0000
1000
0100
1000
0100
,  // measure 24
1000
0000
0001
0010
0001
0000
1001
0000
1010
0000
0000
0000
1000
0000
0100
0000
,  // measure 25
1100
0000
0000
0000
0011
0000
0000
0110
0000
0000
1100
0000
1000
0000
0001
0000
,  // measure 26
0010
0000
0000
0000
0011
0000
0000
0101
0000
0000
0110
0000
0010
0000
1000
0000
,  // measure 27
0001
0000
0000
0000
0100
0000
0001
1000
0002
0000
0000
0000
1003
0100
1000
0010
,  // measure 28
0100
0010
1000
0001
0010
0000
0010
0000
0010
0000
0000
0000
0110
0000
0000
1100
,  // measure 29
0000
0000
1001
0000
0001
0000
0100
0000
0001
0000
0000
0000
1001
0000
0000
1010
,  // measure 30
0000
0000
0110
0000
0100
0000
0001
0000
0011
0000
0000
0000
1010
0000
0000
0011
,  // measure 31
0000
0000
0101
0000
0100
0010
1000
0100
0010
0001
1000
0010
0011
0000
0001
0000
,  // measure 32
0011
0010
1010
1000
1100
0100
0110
0010
,  // measure 33
0011
0000
0001
0000
0101
0000
0101
0000
0010
1000
0010
1000
0001
0000
0100
0000
,  // measure 34
0101
0000
0000
0000
0001
0000
0000
0000
1001
0000
0000
0000
1000
0000
0000
0000
0010
0000
1000
0000
0010
0000
1000
0000
0001
0000
0000
0101
0000
0000
0110
0000
,  // measure 35
2002
0000
3003
0000
0001
0010
0001
0100
0001
0000
1000
0000
0010
1000
0010
0100
,  // measure 36
0010
0000
0100
0000
0101
0000
0000
1001
0000
0000
1000
0000
0010
0100
0010
0100
,  // measure 37
0010
0000
1000
0000
0001
1000
0001
1000
0001
0000
0100
0000
0110
0000
0000
1010
,  // measure 38
0000
0000
0000
0000
1001
0000
0000
0000
0101
0000
0000
0110
0000
0000
1010
0000
2200
0000
0000
0000
3300
0000
0000
0000
0001
0000
0000
0000
0010
0000
0000
0000
,  // measure 39
1000
0010
0002
0000
2003
0000
3200
0000
,  // measure 40
0300
0010
0001
1000
0001
0100
0020
0000
,  // measure 41
0000
2030
0000
0000
3002
0000
0023
0000
,  // measure 42
0031
0000
0000
0000
0000
0000
0000
0000
0000
0000
0000
0000
1000
0000
0000
0000
0100
0000
0000
0000
0010
0000
0000
0000
0001
0000
0000
0000
1000
0000
0000
0000
0100
0000
0000
0000
0010
0000
0000
0000
0000
0000
0100
0000
0000
1000
0000
0000
,  // measure 43
0100
0000
1000
0000
0001
0010
0000
0001
0010
0000
0100
0000
1000
0001
0000
1000
,  // measure 44
0001
0000
0100
0000
0010
1000
0000
0010
1000
0000
0001
0000
0100
0000
0001
0010
,  // measure 45
0000
0011
0000
0101
0000
0100
0010
0000
1000
0000
0100
0000
2002
0000
0000
0000
,  // measure 46
0000
0000
0000
0000
0000
0000
0000
0000
3003
0000
0000
0000
0101
0000
0100
0010
,  // measure 47
0000
1000
0010
0000
1010
0000
1000
0001
0000
0100
0001
0000
0011
0000
0010
0000
,  // measure 48
0110
0000
0100
1000
0000
0001
1000
0001
1000
0000
0010
0000
0100
0000
0001
0100
,  // measure 49
0000
0001
0000
0010
0000
0001
1000
0000
0100
0000
1000
0000
1010
0000
0010
0001
,  // measure 50
0010
0000
1000
0000
0100
0010
0000
0100
0010
0000
0001
0000
1000
0000
0010
1000
,  // measure 51
0000
0010
1000
0000
0001
0100
0001
0000
0100
0000
0010
0000
0010
0000
1000
0100
,  // measure 52
2000
0000
0000
0000
3001
0000
1000
0100
0000
1100
0000
1000
0020
0000
0000
0000
,  // measure 53
1030
0000
0001
0100
0010
0000
0100
0000
0001
1000
0000
1000
0100
0000
0010
0000
,  // measure 54
0001
0000
1000
0001
1000
0000
0010
0000
0100
0010
0000
0010
1000
0000
0001
0000
,  // measure 55
1000
0000
0010
0100
0010
0000
0001
0000
0010
0100
0000
0100
1000
0000
0100
0000
,  // measure 56
0001
0010
0100
0000
0001
0010
0100
0000
0010
1000
0100
0000
1000
0001
0100
0000
,  // measure 57
0202
0000
0000
0000
,  // measure 58
0000
0000
0000
0000
,  // measure 59
0000
0303
0000
0000
1001
0000
1000
0000
1010
0000
0000
0000
1010
0000
0000
0110
,  // measure 60
0000
0000
0100
0000
0101
0000
0001
0000
0011
0000
0000
0000
1010
0000
0000
0011
,  // measure 61
0000
0000
0101
0000
0100
0010
1000
0000
1010
0000
0010
0000
0100
0001
0010
0001
,  // measure 62
1000
0001
1000
0000
0110
0000
0110
0000
0110
0000
0110
0000
1001
0000
1001
0000
,  // measure 63
1001
0000
0000
0000
1100
0000
0000
0110
0000
0000
0011
0000
0101
0000
0100
0010
,  // measure 64
0100
0000
0000
0000
1010
0000
0000
1100
0000
0000
0110
0000
0010
0001
0010
0000
,  // measure 65
0110
0000
0000
0000
0100
1000
0100
1000
0010
1000
0010
0000
1000
0001
1000
0001
,  // measure 66
0100
0000
0001
0010
0001
0000
1000
0000
1010
0000
0000
0000
0101
0000
0100
0000
,  // measure 67
0110
0000
0000
0000
1010
0000
0000
1100
0000
0000
0101
0000
1100
0000
1000
0000
,  // measure 68
1010
0000
0000
0000
0110
0000
0000
0101
0000
0000
0011
0000
0010
0100
0010
0000
,  // measure 69
0100
0000
1000
0000
0001
0000
1000
0001
1000
0000
0010
0000
0100
0100
0100
0001
,  // measure 70
1000
1000
1000
0010
0100
0001
0100
0001
0100
0000
0001
0000
1000
0001
1000
0001
,  // measure 71
1000
0000
0010
0000
0110
0000
0100
0000
0101
0000
0001
0000
1000
0100
1000
0100
,  // measure 72
1000
0000
0001
0000
0100
0010
0100
0010
0100
0000
0001
0000
0011
0000
0000
1010
,  // measure 73
0000
0000
0011
0000
0100
0000
0100
0000
0010
0000
0010
0000
1000
0001
1000
0000
,  // measure 74
1010
0110
0000
0000
;

//---------------dance-single - ----------------
#NOTES:
     dance-single:
     :
     Challenge:
     17:
     0.976742,1.264528,1.212917,0.581535,0.888918,823.000000,677.000000,146.000000,70.000000,0.000000,0.000000,0.976742,1.264528,1.212917,0.581535,0.888918,823.000000,677.000000,146.000000,70.000000,0.000000,0.000000:
// measure 0
0000
0000
0000
0000
,  // measure 1
0000
0000
0000
0000
,  // measure 2
0000
0000
0000
0000
,  // measure 3
0000
0000
0000
0000
,  // measure 4
0001
0100
0001
0100
0010
1000
0010
1000
,  // measure 5
0100
0010
0100
0010
0001
0101
0110
1010
,  // measure 6
1001
0001
0010
0100
0001
0100
1000
0010
,  // measure 7
0100
0001
1000
0001
0010
0001
0100
0010
,  // measure 8
1000
1000
1001
0001
0100
0110
0000
0010
,  // measure 9
1000
0000
0100
0000
0010
0001
0100
0001
0010
0000
0100
0000
1200
0000
0000
0000
,  // measure 10
1300
0001
0011
0010
0001
0101
0100
0010
,  // measure 11
1000
0100
0010
0001
0200
0000
0320
0000
,  // measure 12
1030
0001
0101
0100
0010
1010
1000
0000
,  // measure 13
0001
0000
0000
0100
0000
0000
1000
0000
0000
0100
0000
0000
0001
0000
0000
0010
0000
0000
0100
0000
0010
0000
0001
0000
,  // measure 14
1000
1000
0010
0010
0001
0001
0011
0010
,  // measure 15
1010
1000
1001
0001
0011
0010
0110
0100
,  // measure 16
1000
0100
1000
0100
0010
0001
0010
0001
0100
0010
0100
0010
1000
0001
1000
0001
,  // measure 17
0100
0000
0000
0000
0110
0000
0010
1000
0001
0000
1000
0001
0100
0000
0000
0110
,  // measure 18
0000
0000
1010
0000
1100
0000
0100
0010
0001
0000
0001
0010
0100
0000
0000
1100
,  // measure 19
0000
0000
1001
0000
0001
0010
0100
1000
0010
0000
0110
0000
0010
1000
0100
0010
,  // measure 20
0001
1000
0001
1000
0001
0001
0100
0100
0010
0010
1000
0000
0001
0000
0100
0001
,  // measure 21
0100
0000
0010
0000
1000
0100
1000
0100
1000
0000
0001
0000
0010
0001
0010
0001
,  // measure 22
0100
0000
0010
0000
1000
0001
1000
0001
0100
0000
0010
0000
0100
0001
0010
0001
,  // measure 23
0010
0000
0001
0000
1000
0100
0010
0001
0100
0010
1000
0000
0001
0100
1000
0100
,  // measure 24
0001
0000
0001
0010
1000
0000
1010
0000
0022
0000
0033
0000
0101
0000
0110
0000
,  // measure 25
2020
0000
3030
0000
2200
0000
3300
0220
0000
0330
0011
0000
0101
0000
0110
0000
,  // measure 26
2020
0000
3030
0000
2002
0000
3003
0202
0000
0303
0110
0000
1010
0000
1000
0100
,  // measure 27
0010
0000
0000
0000
0001
0000
0100
1000
0200
0000
0000
0000
0301
0001
0010
0100
,  // measure 28
1100
1000
1001
0001
0100
0000
0001
0100
1000
0000
0100
0000
0101
0000
0000
0011
,  // measure 29
0000
0000
1100
0000
1000
0100
0001
0000
0101
0000
0000
0000
0110
0000
0000
0011
,  // measure 30
0000
0000
1010
0000
1000
0010
0100
0010
0100
0000
0000
0000
1001
0000
0000
0101
,  // measure 31
0000
0000
0110
0000
0010
0010
1000
0001
0100
0100
0010
1000
1001
0000
0001
0000
,  // measure 32
0011
0010
1010
1000
1100
0100
0101
0001
,  // measure 33
0011
0000
0010
0000
0110
0000
0110
0000
0100
1000
0001
0010
0100
0000
0110
0000
,  // measure 34
0010
0000
0100
0000
1000
0000
0000
0000
1001
0000
0000
0000
0001
0000
0000
0000
1000
0000
0100
0000
0001
0000
0100
0000
1000
0000
0000
1010
0000
0000
1001
0000
,  // measure 35
0101
0000
0001
0100
0001
0100
0010
0100
0010
0000
1000
0000
0010
0000
1000
0000
0100
0000
0000
0000
0010
0000
0000
0000
0001
0000
0100
0000
0001
0000
0100
0000
,  // measure 36
1000
0000
1100
0000
0101
0000
0000
0011
0000
0000
1001
0000
1000
0100
0001
0100
,  // measure 37
1000
0000
1000
0000
0001
0100
1000
0100
0001
0000
0101
0000
0220
0000
0330
0202
,  // measure 38
0000
0000
0303
0000
0022
0000
0033
0000
0220
0000
0330
2200
0000
3300
1001
0000
0001
0100
0001
0100
0010
1000
0100
0010
0001
0000
0000
0000
0100
0000
0000
0000
,  // measure 39
1000
0100
0002
0000
0013
1000
0020
0000
,  // measure 40
0031
0000
1000
0000
0200
0000
0000
0000
0310
0001
0010
0000
0002
0000
0000
0000
,  // measure 41
1003
0100
0002
0000
0103
1000
1000
0010
,  // measure 42
0010
0000
0100
0000
0100
0001
1000
0001
0100
0010
1000
0010
0100
0000
0001
0010
,  // measure 43
0001
0000
1000
0000
0100
0000
1000
0010
1000
0000
0001
0000
0100
0000
0001
1000
,  // measure 44
0001
0000
1000
0010
0000
1000
0001
1000
0001
0100
0010
0100
0010
0000
0100
0001
,  // measure 45
0000
0011
0000
0110
0000
0100
1000
0000
1100
0000
1010
0000
0220
0000
0000
0000
,  // measure 46
0000
0000
0000
0000
0000
0000
0330
0000
1001
0000
0000
0000
0101
0000
0100
0010
,  // measure 47
0000
1000
0010
0000
0100
0000
0001
0010
0000
1000
0010
0001
0010
0000
0110
0000
,  // measure 48
0100
0000
1000
0001
0000
0010
0001
0100
0010
1000
0100
0010
0001
0000
1000
0001
,  // measure 49
0000
0101
0000
0110
0000
0010
1000
0000
1100
0000
0100
0000
0101
0000
0001
0100
,  // measure 50
1000
0000
0100
0000
0010
0001
0000
0100
0001
0000
1001
0000
1000
0000
0100
1000
,  // measure 51
0000
0000
0100
0000
0010
0000
0000
0000
0001
0100
0001
0010
0001
1000
0001
0000
0101
0000
0000
0000
0110
0000
0000
0000
1010
0000
0000
0000
1000
0000
0001
0000
,  // measure 52
0100
0010
0100
0010
0100
0010
1000
0000
1001
0000
0000
0000
0001
0000
0100
0000
0000
0000
0110
0000
0000
0000
0010
0000
1000
0100
1000
0100
0010
0001
0010
0001
,  // measure 53
0100
0000
0001
1000
0010
0000
0100
0000
0010
0100
0000
0001
0010
0000
0011
0000
,  // measure 54
0101
0000
0100
0010
1000
0000
1010
0000
0010
1000
0000
0001
0100
0000
0001
0000
,  // measure 55
0011
0000
0010
0100
1000
0000
1001
0000
0001
0100
0000
1000
0100
0000
0101
0000
,  // measure 56
0001
0010
0100
1000
0010
0100
0001
0010
0100
1000
0010
0100
0001
0010
0100
1000
,  // measure 57
0001
0000
0000
0000
,  // measure 58
0000
0000
0000
0000
,  // measure 59
0000
0000
0000
0000
1001
0000
1001
0000
2002
0000
3003
0000
0202
0000
0303
0220
,  // measure 60
0000
0330
1010
0000
1100
0000
1001
0000
2002
0000
3003
0000
0202
0000
0303
0220
,  // measure 61
0000
0330
1010
0000
1000
0001
0010
0001
0200
0000
0000
0000
0310
1000
0100
1000
,  // measure 62
0001
0010
0001
0000
1001
0001
0100
0100
0010
0010
1000
1000
0001
0010
0001
0100
,  // measure 63
0020
0000
0030
0000
2002
0000
3003
0202
0000
0303
0110
0000
0010
1000
0001
0100
,  // measure 64
0002
0000
0003
0000
0022
0000
0033
0220
0000
0330
1100
0000
1000
0001
1000
0010
,  // measure 65
0100
0000
0001
1000
0010
1000
0100
1000
0010
0100
0001
0000
0010
0001
0100
1000
,  // measure 66
0100
0000
0001
0010
1000
0000
1010
0000
0022
0000
0033
0000
1000
0100
0001
0100
,  // measure 67
1000
0000
0010
0000
2200
0000
3300
2020
0000
3030
0110
0000
0001
0100
1000
0100
,  // measure 68
0001
0000
1000
0000
1100
0000
0110
0000
0100
0010
0001
0010
0100
0000
1100
0000
,  // measure 69
2002
0000
3003
0000
0101
0000
0001
1000
0001
0000
0000
0000
1001
0110
1001
0110
,  // measure 70
1001
0110
1001
0110
1000
0010
1000
0100
0010
0000
0001
0000
0100
1000
0100
0001
,  // measure 71
0100
0000
1000
0000
0101
0000
0011
0000
0010
0100
1000
0100
0010
0100
1000
0100
,  // measure 72
0010
0000
0011
0000
0001
0010
0100
0010
0001
0000
1001
0000
2200
0000
3300
0220
,  // measure 73
0000
0330
0011
0000
1001
0000
1000
0000
1010
0000
0010
0000
0100
0001
1000
0000
,  // measure 74
1001
0110
0000
0000
;
