#VERSION:0.83;
#TITLE:Eternal Ending;
#SUBTITLE:;
#ARTIST:Kobaryo;
#TITLETRANSLIT:;
#SUBTITLETRANSLIT:;
#ARTISTTRANSLIT:;
#GENRE:;
#ORIGIN:;
#CREDIT:;
#BANNER:;
#BACKGROUND:;
#PREVIEWVID:;
#JACKET:Eternal Ending-jacket.jpg;
#CDIMAGE:;
#DISCIMAGE:;
#LYRICSPATH:;
#CDTITLE:;
#MUSIC:Eternal Ending.ogg;
#OFFSET:-4.374000;
#SAMPLESTART:22.370171;
#SAMPLELENGTH:12.000000;
#SELECTABLE:YES;
#BPMS:0.000=200.000,
59.000=400.000,
311.000=200.000,
343.000=400.000,
403.000=800.000,
407.000=100.000,
423.000=200.000,
455.000=400.000,
583.000=100.000;
#STOPS:59.000=0.300,
73.000=0.150,
88.000=0.150,
135.000=0.150,
150.000=0.150,
357.000=0.150,
372.000=0.150;
#DELAYS:;
#WARPS:;
#TIMESIGNATURES:0.000=4=4;
#TICKCOUNTS:0.000=4;
#COMBOS:0.000=1;
#SPEEDS:0.000=1.000=0.000=0;
#SCROLLS:0.000=1.000;
#FAKES:;
#LABELS:0.000=Song Start;
#BGCHANGES:;
#KEYSOUNDS:;
#ATTACKS:
;

//---------------dance-single - ----------------
#NOTEDATA:;
#CHARTNAME:;
#STEPSTYPE:dance-single;
#DESCRIPTION:;
#CHARTSTYLE:;
#DIFFICULTY:Beginner;
#METER:5;
#RADARVALUES:0.198629,0.514449,0.000000,0.023173,0.000000,180.000000,180.000000,0.000000,3.000000,0.000000,0.000000,0.000000,0.000000,0.000000,0.198629,0.514449,0.000000,0.023173,0.000000,180.000000,180.000000,0.000000,3.000000,0.000000,0.000000,0.000000,0.000000,0.000000;
#CREDIT:;
#NOTES:
0000
0000
0000
0000
,
0000
0000
0000
0000
,
0000
0000
0000
0000
,
0000
0000
0000
0000
,
0000
0000
0000
0000
,
0000
0000
0000
0000
,
0000
0000
0000
0000
,
0001
0000
0000
0000
,
1000
0000
0000
0000
,
0010
0000
0000
0000
,
1000
0000
0000
0000
,
0001
0000
0000
0000
,
0100
0000
0000
0000
,
0001
0000
0000
0000
,
1000
0000
0000
1000
,
0000
0000
0000
0001
,
0000
0000
0000
0010
,
0000
0000
0000
1000
,
0000
0000
0000
0000
,
0001
0000
0000
0000
,
1000
0000
0000
0000
,
0001
0000
0000
0000
,
0100
0000
0000
0000
,
0010
0000
0000
0000
,
1000
0000
0000
0000
,
0000
0001
0000
0000
,
0000
1000
0000
0000
,
0000
0000
0000
0001
,
0000
0000
0000
0000
,
0000
1000
0000
1000
,
0000
0001
0000
0000
,
0000
0000
1000
0000
,
0000
0000
0001
0000
,
0000
0001
0000
1000
,
0000
0000
0000
0001
,
0000
0000
1000
0000
,
0000
0000
0000
0001
,
0000
0000
1000
0000
,
0000
0010
0000
0000
,
1000
0000
0000
0000
,
0010
0000
0000
1000
,
0000
0000
0000
0010
,
0000
0000
0000
0000
,
0000
1000
0000
0000
,
0001
0000
0000
1000
,
0000
0001
0000
0001
,
0000
0000
1000
0000
,
0000
0000
1000
0000
,
0000
0000
0000
0001
,
0000
0000
0000
1000
,
0000
1000
0000
0000
,
0001
0000
1000
0000
,
1000
0000
0000
0000
,
0000
0000
0000
0010
,
0000
0000
0000
0100
,
0000
0001
0000
0100
,
0000
0000
0000
0010
,
0000
0010
0000
1000
,
0000
0000
0000
0001
,
0000
0001
0000
1000
,
0000
0000
0000
0000
,
0010
0000
0000
0000
,
0100
0000
0000
0000
,
0010
0000
0000
0000
,
0001
0000
0000
0000
,
1000
0000
0000
0000
,
0001
0000
0000
0000
,
0100
0000
0000
0000
,
0010
0000
0000
0000
,
1000
0000
0000
0000
,
1000
0000
0000
0000
,
0001
0000
0000
0000
,
0001
0000
0000
0000
,
0100
0000
0000
0000
,
0100
0000
0000
0000
,
0010
0000
0010
0000
,
0100
0000
0100
0000
,
0001
0000
0000
1000
,
0000
1000
0000
0001
,
0000
0000
0100
0000
,
0010
0000
1000
0000
,
0001
0000
1000
0000
,
0010
0000
0100
0000
,
0001
0000
0100
0000
,
0010
0000
1000
0000
,
0001
0000
1000
0010
,
0000
0000
0000
1000
,
0000
0000
0000
0001
,
0000
0000
0000
1000
,
0000
0001
0000
0000
,
1000
0000
0000
0000
,
0001
0000
0000
0000
,
1000
0000
0000
0000
,
0010
0000
0000
0100
,
0000
0000
0000
0001
,
0000
0000
0000
1000
,
0000
0000
0000
0001
,
0000
0000
0000
1000
,
0000
0000
0000
0010
,
0000
0000
0000
1000
,
0000
0000
0000
0001
,
0000
0000
0000
1000
,
0000
1000
0000
0010
,
0000
0010
0000
0100
,
0001
1000
0001
0100
,
0010
1000
0001
1000
,
0010
1000
0000
0001
,
0000
0100
0000
0001
,
1000
0001
0000
1000
,
0000
0010
0000
1000
,
0100
1000
0000
0001
,
0000
0100
0000
0010
,
0100
0010
0000
1000
,
0001
1000
0000
0001
,
0000
0000
0000
0000
,
1000
0000
0000
0010
,
0000
0000
0000
1000
,
0000
0000
0000
0010
,
0000
0000
0000
0100
,
0000
0000
0000
0001
,
0000
0000
0000
1000
,
0000
0000
0000
0001
,
0000
0000
0000
0100
,
0000
0000
0000
0001
,
0000
0000
0000
1000
,
0000
0000
0000
0001
,
0000
0000
0000
0010
,
0000
0000
0000
0100
,
0000
0000
0000
1000
,
0000
0000
0000
0001
,
0000
0000
0000
0100
,
0000
0000
0000
0010
,
0000
0000
0000
1000
,
0000
0000
0000
0001
,
0000
0000
0000
1000
,
0000
0000
0000
0010
,
0000
0000
0000
0100
,
0000
0000
0000
0001
,
0000
0000
0000
1000
,
0000
0000
0000
0001
,
0000
0000
0000
1000
,
0000
0000
0000
0010
,
0000
0000
0000
0100
,
0000
0000
0000
0001
,
0000
0000
0000
1000
,
0000
0000
0000
0002
,
0000
0000
0000
0203
,
0000
0000
0320
0000
,
0030
0000
0000
0000
;

//---------------dance-single - ----------------
#NOTEDATA:;
#CHARTNAME:;
#STEPSTYPE:dance-single;
#DESCRIPTION:;
#CHARTSTYLE:;
#DIFFICULTY:Easy;
#METER:11;
#RADARVALUES:0.386223,0.684773,0.046347,0.131316,0.003862,350.000000,344.000000,6.000000,17.000000,0.000000,0.000000,0.000000,0.000000,0.000000,0.386223,0.684773,0.046347,0.131316,0.003862,350.000000,344.000000,6.000000,17.000000,0.000000,0.000000,0.000000,0.000000,0.000000;
#CREDIT:;
#NOTES:
0000
0000
0000
0000
,
0000
0000
0000
0000
,
0000
0000
0000
0000
,
0000
0000
0000
0000
,
0000
0000
0000
0000
,
0000
0000
0000
0000
,
0000
0000
0000
0000
,
1000
1000
0001
0000
,
0100
0100
0001
0000
,
0010
0010
0001
0000
,
1000
1000
0100
0000
,
0001
0100
1000
0000
,
0010
0001
0010
0000
,
1000
0001
0100
0001
,
0010
0001
0010
1001
,
0000
1000
0000
0001
,
0000
1000
0000
0010
,
0000
0100
0000
0001
,
0000
1000
0000
0000
,
0001
0000
1000
0000
,
0001
0000
1000
0000
,
0010
0000
0100
0000
,
0001
0000
1000
0000
,
0010
0000
1000
0000
,
0001
0000
0100
0000
,
0001
0000
0010
0000
,
0001
0000
1000
0000
,
0100
0000
1000
0000
,
0010
0000
0100
0000
,
0001
1000
0001
0000
,
1000
0000
0010
0000
,
1000
0000
0001
0000
,
0100
0000
0010
0000
,
0100
0010
0100
0010
,
0000
1000
0000
1000
,
0000
0000
0001
0000
,
0001
0000
0000
0000
,
0001
0000
1000
0000
,
1000
0000
0010
0000
,
0010
0000
0100
0000
,
0001
0000
1000
0000
,
0001
0000
1000
0000
,
0010
0000
0100
0000
,
0001
0000
1000
0000
,
0001
0100
0001
0000
,
1000
0000
0000
0010
,
0000
1000
0000
0001
,
0000
1000
0000
0010
,
0000
1000
0000
0001
,
0000
0100
0000
0010
,
0000
0100
0000
0001
,
0000
1000
0000
0001
,
0000
1000
0000
0010
,
0000
0100
0000
0001
,
0000
1000
0000
0010
,
0000
1000
0000
0001
,
0000
0100
0000
0001
,
0000
1000
0000
0010
,
0000
1000
0000
0001
,
0000
0100
0000
0010
,
0000
0100
0000
0001
,
0000
1000
0001
1000
,
0000
0001
0000
1000
,
0000
0001
0000
1000
,
0000
0010
0000
0100
,
0000
0010
0000
0100
,
0000
0001
0000
1000
,
0000
0100
0000
1000
,
0000
0100
0000
1000
,
0100
1000
0000
0001
,
0000
0100
0000
0001
,
0000
0100
0000
0010
,
0000
0100
0000
0010
,
0000
0100
0000
0001
,
1000
0001
0000
1000
,
0001
1000
0000
0001
,
0100
0001
0000
0100
,
0010
0100
0000
0010
,
1000
0001
1000
0010
,
0100
0000
0001
0000
0010
0000
0001
0100
,
1000
0100
0000
0000
0001
0010
1000
0010
,
0000
0000
0001
0000
0100
0010
0100
0000
,
0001
1000
0100
1000
,
0010
0100
0001
0010
,
0001
1000
0001
1000
,
0100
1000
0010
0100
,
0000
0100
0000
0100
,
0000
0100
0000
0001
,
0000
0001
0000
0001
,
0000
0001
0000
0000
,
1000
0000
1000
0000
,
1000
0000
0001
0000
,
0001
0000
0100
0000
,
0100
0000
0010
0000
,
0010
0000
1000
0000
,
1000
0000
0001
0000
,
0001
0000
0100
0000
,
0100
0000
0010
0000
,
0010
0000
1000
0000
,
1000
0000
0001
0000
,
0001
0000
0000
0100
,
0000
0000
0000
0000
0000
0000
0000
0000
0000
0000
0000
0000
0010
1000
0001
0000
,
2000
3200
0320
0032
,
0203
0320
2030
3002
,
0203
0320
2030
3002
,
0203
0302
0023
0031
,
0001
1000
1000
0001
,
0001
0100
0100
0110
,
0010
1000
1000
0101
,
0001
0100
0100
1010
,
0010
0100
0001
1000
,
0001
0100
0010
1010
,
0100
0001
0001
1000
,
1000
0010
0010
0100
,
0001
0100
0000
0001
,
1000
0001
0000
1000
,
0000
0010
1000
0010
,
0000
1000
0000
0001
,
0000
0100
0001
0100
,
0000
0010
0000
1000
,
0000
1000
0000
1000
,
0000
1000
0000
0001
,
0000
0001
0000
0001
,
0000
0001
0000
0100
,
0000
0100
0000
0100
,
0000
0100
0000
0010
,
0000
0010
0000
0010
,
0000
1000
0000
0001
,
0000
1000
0000
0001
,
0000
1000
0000
0001
,
0000
0100
0000
0001
,
0000
1000
0000
0010
,
0000
1000
0000
0001
,
0000
0100
0000
0010
,
0000
0100
0010
0100
,
0000
0010
0000
1000
,
0000
0001
1000
0001
,
0000
1000
0000
0010
,
0000
0100
0000
0001
,
0000
0010
0000
0100
,
0000
1000
0000
0100
,
0000
0010
0000
0001
,
0000
1000
0000
0001
,
0000
1000
0000
0001
,
0000
0100
0000
0010
,
0000
0100
0000
2002
,
0000
0000
0000
0000
,
0000
0000
0000
3003
;

//---------------dance-single - ----------------
#NOTEDATA:;
#CHARTNAME:;
#STEPSTYPE:dance-single;
#DESCRIPTION:;
#CHARTSTYLE:;
#DIFFICULTY:Medium;
#METER:14;
#RADARVALUES:0.642233,1.700345,0.324427,0.154489,0.108142,582.000000,540.000000,42.000000,20.000000,0.000000,0.000000,0.000000,0.000000,0.000000,0.642233,1.700345,0.324427,0.154489,0.108142,582.000000,540.000000,42.000000,20.000000,0.000000,0.000000,0.000000,0.000000,0.000000;
#CREDIT:;
#NOTES:
0000
0000
0000
0000
,
0000
0000
0000
0000
,
0000
0000
0000
0000
,
0000
0000
0000
0000
,
0000
0000
0000
0000
,
0000
0000
0000
0000
,
0000
0000
0000
0000
,
1001
0001
0100
0010
,
1000
0001
0100
0001
,
1010
0010
0100
0100
,
1001
0010
0100
0001
,
1000
0001
1000
0000
0010
0100
0010
0000
,
0100
0001
0100
0000
0001
1000
0001
0000
,
1000
0100
0010
0001
0000
0100
0001
0010
,
0100
1000
0000
0010
1000
0001
1000
0000
,
0000
0001
1000
0000
,
1000
0010
0000
0010
,
0100
0000
0100
0010
,
0000
0110
0001
0000
,
1000
0001
0000
0001
,
1000
0000
1000
0100
,
0000
0100
1000
0000
,
1001
0100
0000
0100
,
0001
0000
0001
1000
,
0000
1000
0010
0000
,
0010
0100
0000
0001
,
0010
0001
0000
1000
,
0001
0000
1000
0100
,
0000
1000
0010
0000
,
0010
0100
0000
1001
,
0000
0001
0100
0001
,
0100
0010
1000
0010
,
1000
0001
0010
0100
,
1000
0100
0010
0001
,
1000
0010
1000
0010
,
0100
0001
0100
0001
,
1000
0100
0010
0001
,
0010
0100
1000
0001
,
1000
0000
0001
0010
0001
0000
0100
0000
,
0010
0000
1000
0100
1000
0000
0001
0000
,
0010
0001
0100
0010
,
1000
0001
0010
0001
,
0000
0001
0100
0000
,
0100
0010
0000
0010
,
1000
0000
1000
0001
,
0000
0001
0000
2000
,
0000
0000
3020
0000
,
0000
0000
0230
0000
,
0000
0000
0000
0302
,
0000
0000
0000
2000
,
0003
3020
0230
0000
,
0000
0000
0302
0000
,
0000
0000
0000
0000
,
0000
0000
0000
2003
,
0000
0000
0000
3020
,
0230
0000
0302
0000
,
0000
0000
0000
2003
,
0000
0000
0000
3020
,
0000
0000
0000
0230
,
0302
0000
2003
0000
,
0000
0000
0000
0000
,
0000
0000
0000
3001
,
0000
1001
0000
1000
,
0010
0100
0010
1000
,
0000
1001
0000
0001
,
0100
0010
0100
0001
,
0000
1001
0000
1000
,
0100
1000
0000
0010
,
0100
0001
0000
0011
,
0000
1010
0000
0011
,
0000
0110
0000
1010
,
0000
1100
0000
0110
,
0000
0011
0000
1001
,
0000
1100
0000
1000
,
0000
0100
0000
0010
,
0001
1000
0100
1000
,
0010
0100
0010
1000
,
0001
0000
0010
0000
0001
0000
0100
0010
,
1000
0001
1000
0000
0010
1000
0001
0010
,
0001
0000
0101
0000
0100
0010
1000
0001
,
0100
0001
0000
0000
0010
0001
1000
1100
,
0000
0000
0000
0000
0110
0000
0000
0000
0010
0000
0001
0000
0100
0010
0100
0000
,
1000
0100
0100
0000
0001
0001
0000
1000
,
1000
0000
0000
0000
1001
0000
0000
0000
0001
0100
0001
0000
0010
0000
0100
0000
,
1000
0001
0001
0100
1000
1000
0100
0100
,
0001
0000
0001
1000
0001
0000
0100
0000
,
0010
1000
0001
0000
,
1000
0001
0100
0010
,
1000
0000
0001
0010
,
0100
1100
1000
0001
,
0100
0110
0000
0010
,
1000
0001
0010
0001
,
0000
0100
0010
1000
,
1001
0001
0010
0100
,
1000
0000
1000
0100
,
0010
0001
0100
1000
,
0100
0000
0001
0010
0001
0000
0100
0000
,
1000
0100
0100
0001
,
0010
0010
1000
0001
,
0001
0100
1000
1000
,
0010
0000
0100
0001
1000
0001
2000
0000
,
0000
0000
0000
3000
,
1000
0001
0000
0100
0000
0010
1000
0001
0000
0000
1000
0000
0010
1000
0100
0000
,
1000
0001
0000
0010
0000
0001
0100
0010
0000
0100
0001
1000
0001
0010
0100
1000
,
0001
0100
0000
0101
0000
0100
0010
1000
0000
0001
1000
0010
1000
0100
0010
0000
,
0001
0011
0000
0101
0000
0010
1000
1100
0000
1000
0001
0010
0001
0000
0100
0000
,
0001
1000
0010
1000
0000
1010
0000
0010
,
0100
0001
0000
0010
0001
0100
0010
1000
,
0100
0000
0010
0011
0000
0101
0000
0001
,
1000
0010
0000
1000
0010
0100
0010
0001
,
0010
0000
0100
1010
0000
1100
0000
0100
,
0010
0001
0000
1000
0001
0010
0011
0000
,
0100
0101
0000
0010
0110
0000
1000
0100
,
0010
0001
0010
0100
1000
0001
1000
0000
,
0001
0000
1000
0010
1000
0000
0010
0000
,
0100
0001
0100
0000
0010
0000
1000
0000
,
0001
0000
0100
0000
0010
1000
0010
0000
,
1000
0001
1000
0000
0001
0000
0100
0000
,
0010
0000
1000
0100
1000
0000
0001
0010
,
0001
0100
0000
0010
,
1000
0001
1000
0001
,
0100
0010
0100
0000
0010
0000
1000
0000
,
0001
1000
0001
0000
0100
0000
0010
0000
,
1000
1001
0000
0001
,
0100
0001
0100
0000
0010
0000
1000
0000
,
0100
0000
1000
0001
1000
0000
0001
0000
,
0100
0010
0000
0010
,
1000
0000
1001
0000
,
0001
0100
1000
0000
,
1000
0100
0001
0010
,
0001
1000
0001
1000
0100
0000
1000
0000
,
0010
1000
0000
0001
,
0100
0000
0010
0100
0010
0100
0001
0000
,
1000
0001
1000
0010
,
0100
0000
0001
0010
0001
0000
1000
0000
,
0010
1000
0000
0001
,
0100
0000
0010
0000
1000
0001
1000
0000
,
0010
0000
0100
0001
0100
0000
0010
0000
,
1000
0001
0100
0001
,
0010
0001
0100
0000
0000
0000
0100
0000
,
0010
1000
0100
1000
,
0001
1000
0010
0000
1000
0000
0100
0000
,
0010
0001
0000
0010
,
0001
0000
0110
0000
,
1000
0100
0010
0000
,
0001
0010
0100
2002
,
0000
0000
0000
3003
;

//---------------dance-single - ----------------
#NOTEDATA:;
#CHARTNAME:;
#STEPSTYPE:dance-single;
#DESCRIPTION:;
#CHARTSTYLE:;
#DIFFICULTY:Hard;
#METER:17;
#RADARVALUES:0.833137,1.700345,0.324427,0.146765,0.227871,755.000000,713.000000,42.000000,19.000000,0.000000,0.000000,0.000000,0.000000,0.000000,0.833137,1.700345,0.324427,0.146765,0.227871,755.000000,713.000000,42.000000,19.000000,0.000000,0.000000,0.000000,0.000000,0.000000;
#CREDIT:;
#NOTES:
0000
0000
0000
0000
,
0000
0000
0000
0000
,
0000
0000
0000
0000
,
0000
0000
0000
0000
,
0000
0000
0000
0000
,
0000
0000
0000
0000
,
0000
0000
0000
0000
,
0011
0001
0100
0010
1000
0000
1100
1000
,
0010
0100
0001
0000
1001
0000
1000
0010
,
0100
0001
0100
0000
0001
0000
1000
0000
0000
0000
0000
0000
0010
1000
0010
0000
,
1000
0001
0000
0000
0101
0000
0100
0001
,
0010
0010
0100
1000
1010
0000
0001
0100
,
0100
0010
1000
0000
0010
1000
0100
0010
,
0001
1000
0001
0000
0100
0000
0010
0000
0000
0000
1000
0000
0010
0100
0010
0000
,
1000
0001
0010
0001
0100
0010
1000
0000
,
0000
0000
1000
0001
1000
0000
0000
0000
,
0100
0010
0100
0000
0000
0000
0010
0001
,
0010
0000
0000
0000
0001
1000
0001
0000
,
0000
0101
0110
0000
,
0010
1000
0001
0000
0000
0000
1000
0001
,
0010
0000
0000
0000
0001
0100
0010
0000
,
0000
0000
0100
0010
1000
0000
0000
0000
,
1001
0011
0000
0010
,
0110
0000
1000
1001
,
0000
0001
0101
0000
,
0010
1010
0000
1000
,
0001
0101
0000
0110
,
1010
0000
1001
0101
,
0000
0110
1001
0000
,
0101
1100
0000
1001
,
0000
0000
1100
0000
0100
0010
0100
0000
,
0010
0001
1000
0001
,
0100
0010
0100
0000
0001
0000
1000
0000
,
0010
1000
0100
0010
,
0001
1000
0001
1000
0001
0000
1000
0000
,
0010
0000
1000
0100
1000
0100
1000
0000
,
0001
0000
0010
0001
0010
0000
0100
0000
,
1000
0000
0001
1000
0001
0000
1000
0000
,
0010
1000
0010
1000
0010
1000
0001
0000
,
0100
0000
0001
1000
0001
1000
0001
0000
,
1000
0000
0010
0100
0010
0100
0010
1000
,
0001
1000
0001
0000
1000
0000
0100
0010
,
0100
0000
1000
0000
0001
0010
0001
0000
,
1000
0000
0001
0100
0001
0000
0100
0000
,
0010
1000
0010
0000
1000
0000
0001
0100
,
0001
1000
0001
2001
,
0000
0000
3020
0000
,
0000
0000
0230
0000
,
0000
0000
0000
0302
,
0000
0000
0000
2000
,
0003
3020
0230
0000
,
0000
0000
0302
0000
,
0000
1000
0000
1000
,
0000
1000
0000
2003
,
0000
0000
0000
3020
,
0230
0000
0302
1000
,
0000
1000
0000
2003
,
0000
0010
0000
3020
,
0000
0100
0000
0230
,
0302
0000
2003
0000
,
0000
0001
0000
0001
,
0000
0001
0001
3010
,
0001
0000
1000
0000
0100
0000
1000
0010
,
1000
0001
0000
0100
,
0001
0000
0010
0000
0100
0000
1000
0001
,
1000
0010
0000
0100
,
0001
0000
0010
0000
0001
0000
1000
0100
,
1000
0010
0000
0100
,
0010
0000
1000
0000
0100
0000
0010
0100
,
0010
0001
0000
1000
,
0010
0001
1000
0100
,
0001
1000
0010
0100
,
0000
0000
0001
0000
0100
0000
0010
1000
,
0010
0100
0001
1000
,
0000
0100
0010
0001
,
0100
0010
1000
0001
,
1000
0000
0100
0000
1000
0000
0001
1000
,
0001
0000
1000
0000
0010
0000
0100
0000
0010
0000
0100
0000
0001
0010
0001
0000
,
1000
0000
1010
0000
0010
0000
0100
0000
0001
1000
0010
1000
0010
0000
0100
0000
,
0001
0000
0000
0000
0101
0000
0000
0000
0100
0010
1000
0001
0010
0000
0010
0000
,
0100
0001
0100
0000
1000
1000
0001
0010
,
0001
0000
1001
0000
1000
0100
0001
0100
,
0100
0010
0001
0000
1000
1000
0010
0100
,
0001
0000
0000
0000
1001
0000
0000
0000
0100
0000
0100
0000
0010
1000
0010
0000
,
0010
0000
0100
0001
0100
0000
0000
0000
0100
0000
0010
0000
0000
0000
0010
0000
,
1000
0000
0000
0000
1000
0000
0001
0000
1000
0001
0100
0000
0001
0000
0000
0000
,
0010
1000
0010
0001
,
0100
1000
0100
0001
,
0010
0000
1000
0000
0010
0000
0001
1000
,
0001
1000
0001
0000
1000
0000
0010
0000
,
0001
0010
1000
0100
,
0001
0100
1000
0010
,
0001
0000
0010
0000
1000
0001
1000
0001
,
1000
0000
0001
0100
0010
0000
1000
0000
,
0010
1000
0100
0000
0010
0000
0001
1000
,
0001
0000
1000
0000
0100
0010
0100
0010
,
0100
0000
0010
0001
0010
0000
0001
1000
,
0010
0000
1000
0010
0100
0000
0001
0000
,
1000
0001
0100
0000
0001
0000
0010
0001
,
1000
0000
0010
0000
0100
0010
0100
0000
,
0001
1000
0001
0000
1000
0010
0110
0000
,
0000
0000
0000
0000
,
0100
0001
0000
1001
0000
0001
0010
0100
0000
1000
0001
0010
0001
0100
0010
0000
,
0010
1000
0000
1001
0000
0001
0100
0010
0000
1000
0100
0010
0100
1000
0001
0000
,
1000
1001
0000
0101
0000
0100
1000
0100
0000
0001
0010
0100
0010
0001
0100
0000
,
0010
1010
0000
1100
0000
0100
0010
0001
0000
1000
0001
0010
0001
0100
0001
0000
,
1000
0000
0010
1010
0000
1001
0000
0001
,
0010
0000
0100
0000
0000
0000
0100
0000
1000
0000
0010
0000
1000
0001
0100
0000
,
0001
0000
0001
1001
0000
1010
0000
0010
,
0100
0000
0001
0000
0000
0000
0001
0000
1000
0001
1000
0000
0001
0100
0001
0000
,
1000
0000
0010
0000
0100
0001
1000
0000
0010
0000
1000
0000
0001
1000
0010
0000
,
1000
0000
0100
0000
1000
0001
1000
0000
0001
0010
0001
0000
0010
0001
1000
0000
,
0100
0010
0001
0000
1000
0001
0100
0000
0010
1000
0001
0000
1000
0001
1000
0001
,
1000
0001
1000
0001
1000
0001
1000
0001
1000
0001
1000
0001
0100
0000
0000
0000
,
0001
1000
0001
1000
0001
0000
1000
0010
,
1000
0010
1000
0000
0001
0000
0100
0000
,
0010
0000
0100
0010
0100
0010
1000
0000
,
0001
0000
1000
0000
0100
0000
0010
0001
,
0010
0001
0010
0000
0001
0000
0100
0010
,
1000
0010
1000
0000
0010
0000
1000
0100
,
1000
0100
1000
0000
0100
0000
0010
0001
,
0010
0001
0010
0000
0001
0000
0100
0010
,
0100
0010
0100
0000
0001
0000
1000
0100
,
1000
0100
1000
0000
0001
0000
0100
0001
,
1000
0000
0010
1000
0010
1000
0001
0000
,
1000
0000
0001
1000
0001
0000
1000
0000
,
0001
0010
0000
0001
,
0100
0000
0110
0000
,
0010
1000
0001
0000
,
1000
0000
0001
0000
0100
0000
0010
1000
,
0010
0000
1000
0001
1000
0001
1000
0000
,
0001
0010
0001
0000
1000
0000
0010
1000
,
0010
0000
1000
0100
1000
0100
1000
0000
,
0001
1000
0001
0000
0010
0000
0100
1000
,
0100
0000
1000
0001
1000
0001
1000
0000
,
0010
1000
0010
0000
1000
0000
0001
1000
,
0001
0000
0100
0001
0100
0001
0100
0000
,
0001
0010
0001
0000
1000
0100
1000
0100
,
1000
0000
0001
0000
1000
0000
0010
1000
,
0010
1000
0010
0000
0100
0000
0001
1000
,
0001
0000
1000
0010
1000
0000
0001
1000
,
0001
1000
0010
0000
0100
0000
0001
0000
,
0010
0001
0000
1000
,
0100
1000
0010
0000
,
0100
0001
0010
0100
,
1000
0001
1000
0000
0001
0000
2002
0000
,
0000
0000
0000
3003
;

//---------------dance-single - ----------------
#NOTEDATA:;
#CHARTNAME:;
#STEPSTYPE:dance-single;
#DESCRIPTION:;
#CHARTSTYLE:;
#DIFFICULTY:Challenge;
#METER:18;
#RADARVALUES:1.014110,2.097092,0.587058,0.270356,0.339876,919.000000,843.000000,76.000000,35.000000,0.000000,0.000000,0.000000,0.000000,0.000000,1.014110,2.097092,0.587058,0.270356,0.339876,919.000000,843.000000,76.000000,35.000000,0.000000,0.000000,0.000000,0.000000,0.000000;
#CREDIT:;
#NOTES:
// measure 0
0000
0000
0000
0000
,  // measure 1
0000
0000
0000
0000
,  // measure 2
0000
0000
0000
0000
,  // measure 3
0000
0000
0000
0000
,  // measure 4
0000
0000
0000
0000
,  // measure 5
0000
0000
0000
0000
,  // measure 6
0000
0000
0000
0000
,  // measure 7
1001
0001
0010
0100
1000
0000
1100
1000
,  // measure 8
0100
0010
0001
0000
1001
0000
1000
0010
,  // measure 9
0100
0001
0100
0000
0001
0000
1000
0001
1000
0000
0000
0000
0100
0010
0100
0000
,  // measure 10
0010
0000
0001
1000
0001
0000
0000
0000
0101
0000
0000
0000
0100
0000
0001
0000
,  // measure 11
0011
0000
0010
0000
0100
0000
1000
0010
1000
0000
0000
0000
0001
0100
0010
0000
,  // measure 12
0100
0010
1000
0000
1010
0000
0100
0010
,  // measure 13
1000
0100
1000
0100
0010
0000
0011
0000
0000
0000
1000
0000
0001
0010
0001
0010
,  // measure 14
0100
1100
0010
0001
0100
0010
1000
0000
,  // measure 15
0000
0000
0001
1000
0010
0000
0000
0000
,  // measure 16
0100
0010
1000
0000
0000
0000
0010
1000
,  // measure 17
0001
0000
0000
0000
0001
1000
0100
1000
,  // measure 18
0010
0100
0001
0000
0110
0000
0000
0000
,  // measure 19
0010
1000
0001
1000
0001
0000
1000
0001
,  // measure 20
0010
0001
0010
0000
0001
0100
0010
0100
,  // measure 21
0010
0000
0100
0010
1000
0001
1000
0000
,  // measure 22
1001
0011
0000
0110
,  // measure 23
1001
0000
1100
1001
,  // measure 24
0000
0101
1001
0000
,  // measure 25
1010
0110
0000
0110
,  // measure 26
1001
0101
0000
0110
,  // measure 27
1010
0000
1001
0101
,  // measure 28
0000
0110
1001
0000
,  // measure 29
1001
1100
0000
1001
,  // measure 30
1000
0000
0100
0000
0010
0001
0100
0001
,  // measure 31
0010
0000
0001
0000
1000
0000
0001
0100
,  // measure 32
0010
1000
0010
0000
0100
0001
0010
0100
,  // measure 33
1000
0000
1000
0100
0010
0001
0100
0000
,  // measure 34
0001
1000
0001
1000
0001
0000
1000
0000
,  // measure 35
0010
1000
0100
1000
0001
0010
0001
0000
,  // measure 36
0100
0000
0010
1000
0010
1000
0001
0000
,  // measure 37
1000
0010
0100
0010
1000
0000
1001
0000
,  // measure 38
0100
0010
0100
0001
1000
0100
1000
0000
,  // measure 39
0100
0000
1000
0100
0010
0001
0010
0100
,  // measure 40
1000
0000
0001
0100
0010
0100
0001
0100
,  // measure 41
0010
0100
0001
0100
0010
0000
1000
0001
,  // measure 42
0010
0000
0011
0000
0010
0001
0010
0000
,  // measure 43
0101
0000
0001
0100
0001
0000
1100
0000
,  // measure 44
1000
0100
1000
0000
0101
0000
0100
0001
,  // measure 45
0100
0001
1000
2001
,  // measure 46
0010
0001
3020
0100
,  // measure 47
1000
0100
2030
0001
,  // measure 48
0010
0001
0010
3002
,  // measure 49
0100
0010
0100
2000
,  // measure 50
0003
3020
0230
0001
,  // measure 51
0000
0001
2300
0001
,  // measure 52
0010
0100
0010
0001
,  // measure 53
0010
0100
3010
0002
,  // measure 54
0000
1000
0000
0203
,  // measure 55
0320
0000
2030
0001
,  // measure 56
0000
0001
0000
3002
,  // measure 57
0000
0100
0000
0023
,  // measure 58
0000
0100
0000
0230
,  // measure 59
0302
0000
2003
0000
,  // measure 60
0001
0010
0001
0100
,  // measure 61
0001
0010
0100
3010
,  // measure 62
0001
0000
0010
0000
0100
0000
1000
0010
,  // measure 63
1000
0010
1000
0000
0001
0000
0100
0000
,  // measure 64
0001
0000
0010
0000
0100
0000
1000
0001
,  // measure 65
1000
0001
0010
0000
0000
0000
0001
0000
,  // measure 66
0010
0000
0100
0000
0010
0000
0001
1000
,  // measure 67
0100
1000
0010
0000
0000
0000
0100
0000
,  // measure 68
0010
0000
1000
0000
0100
0000
1000
0100
,  // measure 69
0001
0100
1000
0000
0000
0000
0001
0000
,  // measure 70
0100
0101
0001
1000
,  // measure 71
0001
1001
0001
0100
,  // measure 72
0001
0000
0011
0000
0010
0000
0100
1000
,  // measure 73
0100
0010
0001
0100
,  // measure 74
0000
0100
0010
1000
,  // measure 75
0100
0010
0001
0010
,  // measure 76
0001
0000
0100
0000
0010
0000
1000
0100
,  // measure 77
0010
0000
0001
0000
0010
0000
0100
0000
1000
0000
0001
0000
1000
0001
0100
0001
,  // measure 78
0010
0000
0110
0000
0100
0000
1000
0000
0001
1000
0010
0000
1000
0010
0100
0000
,  // measure 79
0001
0000
0000
0000
0011
0000
0000
0000
0100
1000
0001
0010
0100
0000
0010
0000
,  // measure 80
0001
1000
0010
0000
1000
0000
0000
0000
0100
1000
0001
1000
0010
0100
0010
0100
,  // measure 81
0001
0000
0000
0000
1001
0000
0000
0000
1000
0000
0100
0000
0010
0001
0010
0001
,  // measure 82
1000
0000
0010
0000
1000
0000
0000
0000
1000
0001
1000
0001
0010
0000
0100
0000
,  // measure 83
0010
0000
0000
0000
1001
0000
0000
0000
0010
0000
0001
0000
1000
0010
0100
0000
,  // measure 84
0010
0000
0100
0001
1000
0000
0100
0000
1000
0010
0100
0000
0001
0000
0010
0001
,  // measure 85
0100
0010
0100
0010
1000
0010
1000
0010
1000
0001
1000
0001
1000
0000
0100
0000
,  // measure 86
0010
0001
1000
0001
0010
0100
1000
0000
,  // measure 87
0100
0000
1000
0001
0100
0001
1000
0010
,  // measure 88
1000
0001
0010
0000
0001
0000
1000
0001
,  // measure 89
0100
0001
1000
0000
0001
0010
0100
1000
,  // measure 90
0001
1000
0100
0010
0001
0000
1000
0010
,  // measure 91
0100
0010
1000
0100
1000
0001
0010
0100
,  // measure 92
1000
0000
0010
0100
0001
0010
0100
1000
,  // measure 93
0001
0000
1000
0100
0010
0001
0100
0010
,  // measure 94
1000
0100
0010
0000
0001
0000
1000
0010
,  // measure 95
1000
0010
1000
0001
0100
0001
0100
0000
,  // measure 96
0001
0010
0001
0010
0001
0010
0100
1000
,  // measure 97
0010
0000
0010
0100
0001
0000
1000
0000
,  // measure 98
0001
1000
0100
0000
1000
0000
0010
0100
,  // measure 99
0001
0000
0010
0000
0100
0010
0100
0000
,  // measure 100
1000
0001
1000
0000
0010
0100
0110
0000
,  // measure 101
0000
0000
0000
0000
,  // measure 102
1000
1001
0000
0101
0000
0001
0100
0210
0000
0301
1000
0100
1000
0010
0110
0000
,  // measure 103
0010
2020
3030
1001
0000
0101
0100
0120
0030
1100
0010
0001
0010
0100
1100
0000
,  // measure 104
1001
2002
3003
0202
0303
0100
1000
2200
3300
0001
0010
1000
0010
0001
0202
0303
,  // measure 105
0010
2002
3003
2200
3300
0100
0010
0001
0000
1000
0001
0010
0001
0100
0001
0010
,  // measure 106
0001
0000
0000
0000
1010
0000
1001
0000
0000
0000
0101
0000
0000
0000
0001
1000
,  // measure 107
0100
1000
0010
0000
0000
0000
0100
0000
0001
0000
0010
0000
0001
1000
0010
1000
,  // measure 108
0100
0000
1001
0011
0000
1100
0000
1000
,  // measure 109
0100
0000
0001
0000
0000
0000
0100
0000
1000
0001
1000
0000
0001
0100
0001
1000
,  // measure 110
0010
0000
1000
0000
0001
1000
0010
0100
0001
0000
1000
0000
0001
1000
0010
0000
,  // measure 111
0001
0000
0100
0000
0001
1000
0001
1000
0100
0000
0000
0000
0010
0001
1000
0000
,  // measure 112
0100
0010
0001
0000
1000
0001
0100
0000
0010
1000
0001
0000
1000
0100
0010
0001
,  // measure 113
0100
0010
1000
0100
0010
0001
0100
0010
1000
0100
0010
0001
0100
0000
0000
0000
,  // measure 114
0001
1000
0010
1000
0001
0000
1000
0001
,  // measure 115
0100
0001
1000
0000
0001
0000
0100
0000
,  // measure 116
0010
0000
0100
0010
1000
0001
1000
0000
,  // measure 117
0001
0000
1000
0000
0100
0000
0010
0001
,  // measure 118
1000
0001
0010
0000
0001
0000
0100
0010
,  // measure 119
1000
0001
1000
0000
0100
0000
0010
0001
,  // measure 120
1000
0100
1000
0000
0100
0000
0010
0001
,  // measure 121
1000
0010
0100
0000
0001
0000
1000
0100
,  // measure 122
0010
0001
1000
0000
0010
0000
0100
0001
,  // measure 123
1000
0010
1000
0000
0100
0000
0010
0001
,  // measure 124
0100
0000
0010
1000
0100
0010
0001
0000
,  // measure 125
0100
0000
0001
1000
0100
1000
0010
0000
,  // measure 126
0100
1001
0000
1001
,  // measure 127
0101
0000
0110
0000
,  // measure 128
0010
0000
1000
0000
0001
1000
0100
1000
,  // measure 129
0010
0000
0100
0000
0001
0000
1000
0010
,  // measure 130
0100
0010
1000
0010
0100
0010
1000
0010
,  // measure 131
0100
0010
1000
0000
0001
0000
0100
0001
,  // measure 132
1000
0001
0100
0001
1000
0001
0100
0001
,  // measure 133
1000
0001
0100
0001
0010
0000
0100
0010
,  // measure 134
0001
0010
0100
0010
0001
0010
0100
0010
,  // measure 135
0001
0010
0100
0000
1000
0000
0001
0100
,  // measure 136
0010
1000
0001
0100
0010
1000
0001
0100
,  // measure 137
0010
1000
0001
0100
0010
0000
1000
0010
,  // measure 138
0100
0001
1000
0010
0100
0001
1000
0010
,  // measure 139
0100
0001
1000
0010
0100
0001
1000
0100
,  // measure 140
0010
0001
0100
0010
1000
0100
0010
0001
,  // measure 141
0100
0010
1000
0100
0010
0001
0100
0000
,  // measure 142
0010
0110
0000
0100
,  // measure 143
0010
1000
1010
0000
,  // measure 144
0010
0100
0101
0000
,  // measure 145
0001
0010
0100
1000
0100
0010
0022
0000
,  // measure 146
0000
0000
0000
0033
;
