#TITLE:Engraved Mark-Gows ill! RMX-;
#SUBTITLE:;
#ARTIST:DesRow feat. Ryu;
#TITLETRANSLIT:;
#SUBTITLETRANSLIT:;
#ARTISTTRANSLIT:;
#GENRE:;
#CREDIT:;
#BANNER:;
#BACKGROUND:Engraved Mark-Gows ill! RMX--bg.png;
#LYRICSPATH:;
#CDTITLE:;
#MUSIC:Engraved Mark-Gows ill! RMX-.ogg;
#OFFSET:-3.951000;
#SAMPLESTART:80.609833;
#SAMPLELENGTH:14.999997;
#SELECTABLE:YES;
#BPMS:0.000000=216.000000
;
#STOPS:
;
#BGCHANGES:;
#KEYSOUNDS:;
#ATTACKS:;

//---------------dance-single - ----------------
#NOTES:
     dance-single:
     :
     Beginner:
     4:
     0.195500,0.291424,0.000000,0.000000,0.000000,166.000000,166.000000,0.000000,0.000000,0.000000,0.000000,0.195500,0.291424,0.000000,0.000000,0.000000,166.000000,166.000000,0.000000,0.000000,0.000000,0.000000:
0000
0000
0000
0000
,
0000
0000
0000
0000
,
0000
0000
0000
0000
,
0000
0000
0000
0000
,
0000
0000
0000
0000
,
1000
0000
0000
0000
,
1000
0000
0000
0000
,
0001
0000
0000
0000
,
0001
0000
0000
0000
,
0100
0000
0000
0000
,
0100
0000
0000
0000
,
0010
0000
0000
0000
,
0010
0000
0010
0000
,
0010
0000
0000
0000
,
1000
0000
0000
0000
,
1000
0000
0000
0000
,
0001
0000
0000
0000
,
0001
0000
0000
0000
,
0100
0000
0100
0000
,
0100
0000
0000
0000
,
0010
0000
0010
0000
,
0010
0000
0000
0000
,
1000
0000
0000
0000
,
1000
0000
1000
0000
,
1000
0000
0000
0000
,
0001
0000
0001
0000
,
0001
0000
0000
0000
,
1000
0000
1000
0000
,
1000
0000
0000
0000
,
0010
0000
0000
0000
,
0010
0000
0000
0000
,
0100
0000
0000
0000
,
0100
0000
0000
0000
,
0001
0000
0000
0000
,
0001
0000
0000
0000
,
1000
0000
0000
0000
,
1000
0000
0000
0000
,
0100
0000
0000
0100
,
0000
0000
0100
0000
,
0010
0000
0000
0010
,
0000
0000
0010
0000
,
0001
0000
0001
0000
,
0001
0000
0000
0000
,
1000
0000
1000
0000
,
1000
0000
0000
0000
,
0100
0000
0100
0000
,
0100
0000
0000
0000
,
0010
0000
0010
0000
,
0010
0000
0000
0000
,
0001
0000
0001
0000
,
0001
0000
0000
0000
,
1000
0000
1000
0000
,
1000
0000
0000
0000
,
0100
0000
0000
0000
,
0100
0000
0000
0000
,
0010
0000
0000
0000
,
0010
0000
0000
0000
,
0001
0000
0000
0000
,
0001
0000
0000
0000
,
1000
0000
1000
0000
,
1000
0000
1000
0000
,
0010
0000
0000
0000
,
0100
0000
0000
0000
,
0001
0000
0001
0000
,
0001
0000
0001
0000
,
1000
0000
0000
0000
,
1000
0000
1000
0000
,
0010
0010
0010
0000
,
0100
0100
0100
0000
,
0001
0000
0001
0000
,
1000
1000
1000
0000
,
0100
0100
0100
0000
,
0010
0000
0010
0010
,
0010
0000
0001
0000
,
0100
0100
0100
0000
,
0010
0010
0010
0000
,
1000
0000
0001
0001
,
0001
0000
0100
0000
,
0010
0000
1000
0000
,
0001
0001
0001
0000
,
1000
0000
1000
0000
,
0001
0000
0001
0000
,
0100
0000
0100
0000
,
0010
0010
0010
0000
,
1000
1000
1000
0000
,
0001
0000
0001
0000
,
0100
0000
0100
0000
,
0010
0000
0010
0000
,
1000
0000
1000
0000
,
0001
0001
0001
0000
,
0100
0000
0000
0000
,
0100
0100
0100
0000
,
0010
0000
0010
0000
,
1000
1000
1000
0000
,
0001
0001
0001
0000
,
0100
0000
0100
0000
,
0010
0000
0010
0000
,
1000
0000
1000
0000
,
0001
0000
0001
0000
,
0100
0000
0100
0000
,
0010
0010
0010
0010
,
0010
0000
0000
0000
;

//---------------dance-single - ----------------
#NOTES:
     dance-single:
     :
     Medium:
     11:
     0.479327,0.582848,0.098927,0.140147,0.000000,407.000000,395.000000,12.000000,17.000000,0.000000,0.000000,0.479327,0.582848,0.098927,0.140147,0.000000,407.000000,395.000000,12.000000,17.000000,0.000000,0.000000:
0000
0000
0000
0000
,
0000
0000
0000
0000
,
0000
0000
0000
0000
,
0000
0000
0000
0000
,
0000
0000
0000
0000
,
0010
0100
0010
1000
,
0100
1000
0001
0010
,
0001
0100
0010
0100
,
0001
1000
0100
0100
,
0100
1000
0010
0100
,
0001
1000
0001
1000
,
0010
0100
0001
0010
,
0001
0010
0001
0000
1000
0100
1000
0000
,
0010
0100
0001
1000
,
0001
0100
0010
0100
,
0001
1000
0100
1000
,
0010
0100
0001
1000
,
0002
0000
0203
0000
,
0320
0000
2030
0000
,
3200
0000
2300
0000
,
3001
0001
0001
0001
,
0100
0010
0100
0000
0010
0000
1000
0000
,
0100
0000
1000
0000
0100
1000
0100
0000
,
0010
0001
0010
0001
,
0010
0100
1000
0100
,
1000
0001
1000
0001
,
0010
0001
0010
0001
,
0100
0010
0100
0010
,
1000
0100
1000
0000
0001
1000
0001
0000
,
0100
0100
0010
0010
,
1000
1000
0001
0001
,
0100
0100
0010
0010
,
1010
0000
1000
0000
0001
0100
0001
0000
,
0100
0100
1000
1000
,
0100
0100
0001
0001
,
1010
1010
1100
1100
,
0001
0000
0100
0000
0001
0100
0001
0000
,
1000
0010
1000
0100
,
1000
0100
0010
0001
,
0001
0001
1000
1000
,
2000
0000
0000
3020
0000
0000
0230
0000
,
0302
0000
0000
0203
0000
0000
0310
0000
,
1000
0001
1000
0010
,
0100
0100
0001
0001
,
1000
0001
1000
0010
1000
0100
1000
0000
,
0001
0001
0100
0100
,
0010
0010
1000
1000
,
0100
0001
0100
1000
,
0010
0001
0010
1000
,
0002
0000
0103
0010
,
1000
0100
0010
0001
,
1000
0010
0100
0001
,
1000
0001
0100
0010
,
1000
1000
1000
0100
,
0100
0001
0001
0100
,
2000
0000
0000
3002
0000
0000
0203
0000
,
0320
0000
0000
2030
0000
0000
3001
0000
,
0100
0001
0100
0000
,
0010
1000
0010
0000
,
1000
1000
0001
0001
,
0100
0100
0100
0100
,
0010
0010
1000
1000
,
0100
0001
0100
1000
,
0010
0001
0010
1000
,
0001
0100
1000
0100
,
0001
0010
1000
0010
,
0001
1000
0001
0000
1000
0100
1000
0000
,
0010
0010
0010
0010
,
0010
0010
0010
0000
,
0100
0100
0001
0001
,
1000
1000
0001
0001
,
1000
1000
0100
0100
,
0010
0001
0010
0001
,
0100
0100
0010
0010
,
1000
1000
0001
0001
,
0100
0100
1000
1000
,
0100
0000
0001
0000
1000
0001
1000
0000
,
0001
0010
0001
0100
,
1000
0100
0001
1000
,
0010
1000
0010
0000
1000
0100
1000
0000
,
0100
0000
0010
0000
0001
1000
0001
0000
,
1000
0100
1000
0010
,
0100
0010
1000
0001
,
1000
1000
1000
1000
,
0001
1000
0001
1000
0001
1000
0001
0000
,
1000
0100
0010
0001
,
1000
0100
0010
0001
,
1000
0100
1000
0100
,
0010
0010
0010
0010
,
0001
0100
0001
0100
,
0010
1000
0010
1000
,
0100
0100
0001
0001
,
0100
0100
1000
1000
,
1010
0100
0001
0010
,
0011
0001
0100
1000
,
1100
0100
0001
0010
,
0011
0010
0100
1000
,
1001
0001
0100
0010
,
0110
0100
0001
1000
,
1001
1000
0100
1000
,
0100
1000
0100
1000
0100
1000
0100
1000
,
0001
0000
0000
0000
;

//---------------dance-single - ----------------
#NOTES:
     dance-single:
     :
     Hard:
     16:
     0.793775,0.882928,0.123659,0.832639,0.296782,674.000000,659.000000,15.000000,101.000000,0.000000,0.000000,0.793775,0.882928,0.123659,0.832639,0.296782,674.000000,659.000000,15.000000,101.000000,0.000000,0.000000:
0000
0000
0000
0000
,
0000
0000
0000
0000
,
0000
0000
0000
0000
,
0000
0000
0000
0000
,
0000
0000
0000
0000
,
2000
0000
3000
0001
1000
0000
0001
0000
,
0200
0000
0300
0010
0100
0000
0001
0000
,
1000
0000
0001
0010
0000
0001
1000
0000
,
2002
0000
0000
3003
0010
1000
0100
0010
,
0002
0100
0003
0100
0002
0000
1003
0000
,
0100
2000
0000
3100
2000
0000
3010
0000
,
0100
0000
0001
0010
0000
0010
0001
0100
,
0001
0010
0001
0100
0001
0010
0001
0100
,
0001
0000
0100
1000
0100
0000
0010
0000
,
1000
0000
0100
0001
0100
1000
0010
0000
,
1000
0000
0010
0001
0000
0001
0010
0000
,
0210
0000
0300
0010
1000
0001
1000
0100
,
0020
0000
0030
0001
0010
0100
1000
0001
,
2000
0000
3001
0010
1000
0010
0001
1000
,
0100
0000
1001
0000
0100
0001
0010
0100
,
0010
0000
0011
0000
1000
0001
0100
0010
,
1000
0100
0010
0002
0000
0003
0010
0100
,
0010
0002
0000
0103
0010
1000
0100
0010
,
0001
1000
0010
2000
0000
3000
0001
0010
,
0001
0100
0010
1000
0000
1001
0000
1000
,
0010
0100
0010
0002
0000
0013
1000
0001
,
0010
0100
0010
0001
0100
0001
1000
0001
,
0100
0000
0001
0000
0010
0000
0001
0000
1000
0100
1000
0000
0001
0000
0100
0001
,
0100
0000
0010
0100
0010
0000
0100
0000
0001
0000
1000
0000
0100
0000
1000
0000
,
0001
0200
0300
0100
0010
1000
0010
0100
,
0010
2000
3000
1000
0001
0100
0001
0010
,
0001
0000
2000
0000
3000
0000
1000
0000
0020
0000
0000
0000
1030
0001
1000
0000
,
0010
0010
0200
0000
0301
0010
0100
0010
,
0001
0010
0001
0000
1000
0000
0100
0000
1000
0000
0010
0000
0100
0000
0001
0000
,
1000
0010
1000
0000
0001
0000
0100
0000
0010
0000
1000
0000
0001
0000
0010
0000
,
0001
0000
0000
0100
0000
0000
0010
0000
0000
1000
0000
0000
0100
0000
0010
0000
,
0200
0000
1300
0000
0001
0100
0001
0010
,
0100
1000
0000
0100
1000
0000
0010
0100
0000
0010
0100
0000
0001
0000
0010
0000
,
0001
0010
0000
0001
0010
0000
0100
1000
0000
0100
1000
0000
0010
0000
0010
0000
,
0100
0000
0000
0101
0000
0000
1001
0000
0000
1010
0000
0000
0010
0000
0100
0000
,
0002
0000
1003
0020
0000
1030
0002
0000
,
0103
0010
0100
0000
0010
0000
1000
0000
0001
0000
2000
0000
0000
0000
3001
0000
,
0010
0001
0020
0000
0000
0000
0032
0000
0000
0000
0000
0000
0203
0000
0000
0000
,
0310
0100
0010
0000
1000
0000
0001
0000
0000
0000
1000
0000
0010
0000
1000
0000
,
0001
0100
0001
0000
0010
0000
0001
0000
0100
0001
0100
0000
0001
0000
0010
0000
,
0002
0000
1003
0200
0000
0300
1000
0020
,
0000
0230
0000
0300
0010
0100
0001
0010
,
0200
0000
0000
0310
0002
0000
0203
0000
,
0320
0000
0030
1000
0100
1000
0010
1000
,
0200
0000
1300
0002
0000
0003
1000
0020
,
0000
0230
0000
0301
1000
0001
0010
0100
,
2000
0000
3010
0200
0000
0310
1000
0010
,
0100
0010
0001
0010
0100
0010
1000
0010
,
0200
0000
0301
0002
0000
0003
1000
2000
,
0000
3020
0000
0030
0100
0010
0001
0010
,
2000
0000
3000
2020
0000
3030
0101
0000
,
0022
0000
0033
1000
0010
1000
0100
0010
,
0002
0000
0013
0200
0000
0300
0010
0002
,
0000
2003
0000
0000
3010
1000
0010
0001
,
0020
0000
0130
0200
0000
0301
0010
0001
,
1000
0100
0001
0100
1000
0010
0001
0010
,
2000
0000
3001
0200
0000
0310
0200
0001
,
1300
1000
0001
0010
0100
0001
0100
1000
,
0001
0010
0100
1000
0001
0000
0100
0010
,
0100
0010
1000
0001
0000
0001
0000
0001
,
0100
0010
0100
0000
1000
0000
1000
0100
,
0010
0000
0010
0000
0010
0100
0010
1000
,
0001
0000
0010
0000
0100
0000
1000
0000
0001
0010
0001
0000
0010
0000
0100
0000
,
1000
0100
1000
0000
0001
0000
0010
0000
0100
0010
0100
0000
0020
0000
0000
0000
,
0130
0010
0000
0100
0010
0000
0100
0010
0000
0100
0010
0000
0001
0000
1000
0000
,
0001
1000
0000
0001
1000
0000
0001
1000
0000
0001
1000
0000
0100
0000
0010
0000
,
0100
1000
0000
0100
1000
0000
0001
0010
0000
0001
0010
0000
0100
0000
0010
0000
,
0001
0001
2000
0000
3010
0010
0100
0010
,
1000
0001
0000
1000
0001
0000
1000
0001
0000
1000
0001
0000
0100
0000
0100
0000
,
0010
1000
0000
0010
1000
0000
0001
0100
0000
0001
0100
0000
0010
0000
0010
0000
,
1000
0100
0000
1000
0100
0000
0010
0001
0000
0010
0001
0000
0100
0000
0100
0000
,
0010
0100
0000
0010
0100
0000
0001
0000
1000
0000
1000
0000
0001
0000
0010
0000
,
0001
0010
0000
0001
0010
0000
0001
0010
0000
0001
0010
0000
0100
0000
1000
0000
,
0100
0010
0000
0100
0010
0000
0100
0010
0000
0100
0010
0000
0001
0000
1000
0000
,
0010
0000
0000
1010
0000
0000
1100
0000
0000
1001
0000
0000
0001
0000
0100
0000
,
0010
0100
0020
0000
0000
0000
0130
0000
0002
0000
0000
0000
1003
0100
1000
0000
,
0002
0000
0103
0020
0000
0130
0001
0000
,
1000
0010
1000
0000
0001
0000
0100
0000
0010
0000
0000
0000
0010
0000
0000
0000
,
0100
0100
0001
0200
0000
0301
0001
1000
,
0001
0010
0100
0000
1000
0000
0100
0000
0010
0100
1000
0000
0100
0000
0010
0000
,
0001
0100
1000
0200
0300
0200
0300
0200
,
0301
0010
0001
0000
2000
0000
0000
0000
3001
0000
0010
0000
0002
0000
0000
0000
,
1003
0100
0001
0200
0300
0200
0300
0200
,
1300
0001
1000
0000
0001
0000
0010
0000
0100
0000
1000
0000
0020
0000
0000
0000
,
1030
0010
0001
0020
0030
0020
0030
0020
,
0030
0020
0030
0020
1030
0100
1000
0010
,
0100
2000
3000
2000
3000
2000
3000
2000
,
3000
2000
3000
2000
3100
0001
0010
0100
,
1000
0010
0100
0002
0000
1003
0020
0000
,
1030
0100
1000
0001
0010
0001
0200
0000
,
0320
0000
1030
0002
0000
1003
0002
0100
,
0103
0001
0010
0001
1000
0100
1000
0010
,
0200
0000
0301
0020
0000
0031
0200
0000
,
0310
1000
0010
2000
0000
3100
2000
0000
,
3002
0000
0000
0000
0103
0000
0100
0000
0001
1000
0001
0000
0100
0000
0001
0000
,
0010
0100
0010
0000
0001
0000
1000
0000
0001
0010
0001
0000
1000
0000
0010
0000
,
0220
0000
0000
0000
,
0330
0000
0000
0000
;

//---------------dance-single - ----------------
#NOTES:
     dance-single:
     :
     Easy:
     8:
     0.393354,0.456818,0.082440,0.098927,0.000000,334.000000,324.000000,10.000000,12.000000,0.000000,0.000000,0.393354,0.456818,0.082440,0.098927,0.000000,334.000000,324.000000,10.000000,12.000000,0.000000,0.000000:
0000
0000
0000
0000
,
0000
0000
0000
0000
,
0000
0000
0000
0000
,
0000
0000
0000
0000
,
0000
0000
0000
0000
,
1000
0000
1000
0000
,
0001
0001
0100
0000
,
0010
1000
0010
0000
,
1000
0000
0001
0100
,
0001
0000
1000
0000
,
0010
0000
0100
0000
,
0010
0000
1000
0000
,
0001
0100
0001
0100
,
0001
0000
1000
0000
,
0010
0000
0100
0010
,
0100
0000
0010
0000
,
1000
0000
0001
0100
,
0001
0000
1000
0100
,
0001
0000
0100
0000
,
1000
0010
0001
0010
,
1000
0001
0100
0001
,
1000
1000
1000
0000
,
0010
0000
0010
0010
,
0010
0000
0100
0000
,
0001
0001
0001
0000
,
1000
0000
1000
0000
,
0100
0100
0100
0000
,
0001
0100
1000
0010
,
0001
0010
1000
0100
,
0001
0001
0001
0100
,
1000
1000
1000
0010
,
0100
0100
0100
0001
,
2002
3003
0010
0100
,
0001
1000
0001
0100
,
0010
1000
0100
0010
,
0001
1000
0001
0100
,
0010
0010
1000
1000
,
0001
0001
0100
0100
,
0010
0010
1000
1000
,
0001
0001
0100
0100
,
0020
0000
2030
0000
,
3002
0000
0203
0000
,
0320
0000
2030
0000
,
3001
0100
0001
1000
,
0010
0100
0001
0100
,
1010
0001
1000
0010
,
0100
0001
0010
1000
,
0010
0001
0010
0100
,
0010
0001
1000
0001
,
0101
0100
0010
1000
,
0100
0010
0001
1000
,
1001
0010
0100
0010
,
0001
1000
0010
0100
,
0001
1000
0001
0100
,
0010
1000
0010
0001
,
0010
1000
0010
0001
,
0100
0010
0100
0001
,
1000
0001
0100
0010
,
0100
0001
1000
0001
,
0100
0010
0001
0010
,
1000
0010
0001
0010
,
1000
0010
0001
0100
,
0010
0100
0001
1000
,
0001
0100
0010
0100
,
0001
1000
0010
1000
,
0001
0100
0010
0100
,
0001
1000
0100
0001
,
0100
0100
0100
0100
,
0100
0100
0100
0000
,
1000
0001
1000
0001
,
0100
0000
0010
1000
,
0001
0000
1000
0001
,
0200
0300
0010
1000
,
0002
0003
0100
0010
,
2000
3000
0100
0010
,
0002
0003
1000
0001
,
0100
0010
1000
1000
,
0001
0001
0100
0100
,
0010
0010
1000
1000
,
0001
0001
0100
0100
,
0110
0000
1001
0000
,
0110
0000
1100
0000
,
0011
0000
1100
0000
,
0001
0010
0001
1000
,
0100
1000
0010
0100
,
0001
0001
0001
0001
,
0001
0001
0001
0000
,
1000
1000
1000
1000
,
1000
1000
1000
0000
,
0010
0010
0010
0010
,
0010
0010
0010
0010
,
0010
0100
0100
0100
,
0100
0100
0100
0100
,
0001
0000
1000
0000
,
0001
0000
0100
0010
,
1000
0000
0001
0000
,
1000
0000
0001
0100
,
0010
0000
1000
0000
,
0010
0000
0001
0000
,
0010
1000
0001
1000
,
0010
0100
0001
0100
;
