#TITLE:DUB-I-DUB Club Remix;
#SUBTITLE:;
#ARTIST:Me & My;
#TITLETRANSLIT:;
#SUBTITLETRANSLIT:;
#ARTISTTRANSLIT:;
#GENRE:Eurodance;
#CREDIT:;
#BANNER:DUB-I-DUB (Club Remix).png;
#BACKGROUND:DUB-I-DUB (Club Remix)-bg.png;
#LYRICSPATH:;
#CDTITLE:;
#MUSIC:DUB-I-DUB (Club Remix).ogg;
#OFFSET:-0.000000;
#SAMPLESTART:49.341000;
#SAMPLELENGTH:12.000000;
#SELECTABLE:YES;
#DISPLAYBPM:136.250000;
#BPMS:0.000000=136.209000
,112.000000=136.195007
,144.000000=135.539001
;
#STOPS:
;
#BGCHANGES:;
#KEYSOUNDS:;
#ATTACKS:;

//---------------dance-single - ----------------
#NOTES:
     dance-single:
     :
     Beginner:
     2:
     0.128565,0.141004,0.000000,0.000000,0.000000,73.000000,73.000000,0.000000,0.000000,0.000000,0.000000,0.128565,0.141004,0.000000,0.000000,0.000000,73.000000,73.000000,0.000000,0.000000,0.000000,0.000000:
0000
0000
0000
0000
,
0000
0000
0000
0000
,
0000
0000
0000
0000
,
0000
0000
0000
0000
,
1000
0000
0010
0000
,
1000
0000
0001
0000
,
0100
0000
0001
0000
,
0010
0000
0100
0000
,
1000
0000
0000
0000
,
0001
0000
0100
0000
,
0001
0000
1000
0000
,
0001
0000
0000
0000
,
0010
0000
0010
0000
,
0100
0000
0100
0000
,
1000
0000
1000
0000
,
0001
0000
0000
0000
,
0100
0000
0100
0000
,
0010
0000
0010
0000
,
1000
0000
0000
0000
,
0001
0000
0001
0000
,
0100
0000
0100
0000
,
0010
0000
0010
0000
,
1000
0000
1000
0000
,
0000
0000
0100
0000
,
0100
0000
0010
0000
,
1000
0000
0001
0000
,
0100
0000
0001
0000
,
1000
0000
0010
0000
,
1000
0000
1000
0000
,
0001
0000
0001
0000
,
0100
0000
0100
0000
,
0010
0000
0000
0000
,
1000
0000
0000
0000
,
0001
0000
0000
0000
,
1000
0000
0000
0000
,
0010
0000
0000
0000
,
0100
0000
0001
0000
,
0100
0000
0010
0000
,
1000
0000
0001
0000
,
1000
0000
0100
0000
,
0010
0000
0001
0000
,
1000
0000
0001
0000
,
0100
0000
0010
0000
,
0100
0000
0010
0000
,
1000
0000
0000
0000
,
0001
0000
0000
1000
;

//---------------dance-single - ----------------
#NOTES:
     dance-single:
     :
     Easy:
     3:
     0.160266,0.194169,0.000000,0.000000,0.000000,91.000000,91.000000,0.000000,0.000000,0.000000,0.000000,0.160266,0.194169,0.000000,0.000000,0.000000,91.000000,91.000000,0.000000,0.000000,0.000000,0.000000:
0000
0000
0000
0000
,
0000
0000
0000
0000
,
0000
0000
0000
0000
,
0000
0000
0000
0000
,
1000
0001
1000
0000
,
0010
0100
0010
0000
,
0100
0001
0100
0000
,
0001
0001
0001
0000
,
1000
1000
1000
0000
,
0010
0000
0010
0000
,
0100
0000
0100
0000
,
0001
0000
0000
0000
,
1000
0000
0100
0000
,
1000
0000
0010
0000
,
0100
0000
0001
0000
,
0010
0000
0001
0000
,
1000
0000
0100
0000
,
1000
0000
0010
0000
,
0100
0000
0010
0000
,
1000
0000
0001
0000
,
0100
0001
0100
0000
,
0001
1000
0001
0000
,
1000
0000
0010
0000
,
0100
0000
0000
0000
,
0010
1000
0010
0000
,
1000
0100
1000
0000
,
0001
1000
0001
0000
,
0100
0100
0100
0000
,
0010
0000
0010
0000
,
1000
0000
1000
0000
,
0001
0000
0001
0000
,
0100
0000
0100
0000
,
0010
0000
0010
0000
,
1000
0000
1000
0000
,
0001
0000
0001
0000
,
0100
0000
0100
0000
,
0010
0000
0010
0000
,
1000
0000
1000
0000
,
0001
0000
0001
0000
,
0010
0000
0010
0000
,
0100
0000
0100
0000
,
1000
0000
1000
0000
,
0001
0000
0100
0000
,
0001
0000
0010
0000
,
0100
0000
0000
0000
,
1000
0000
0000
0000
;

//---------------dance-single - ----------------
#NOTES:
     dance-single:
     :
     Medium:
     7:
     0.295876,0.360599,0.160266,0.061641,0.000000,168.000000,155.000000,13.000000,5.000000,0.000000,0.000000,0.295876,0.360599,0.160266,0.061641,0.000000,168.000000,155.000000,13.000000,5.000000,0.000000,0.000000:
0000
0000
0000
0000
,
0000
0000
0000
0000
,
0000
0000
0000
0000
,
0000
0000
0000
0000
,
1000
0100
1000
0010
,
0100
0001
0010
0001
,
0101
0100
0010
1000
,
1100
0100
0010
0001
,
1001
1000
0010
0100
,
0010
1000
0100
0010
,
0011
0001
0100
0010
,
2000
0000
0000
0000
,
3001
0010
0001
0100
,
0010
0000
1000
0010
0000
1000
0010
1000
,
0000
0000
0100
0010
,
0001
0010
0100
1000
,
0002
0000
2003
0000
,
3010
0000
0100
0001
0000
0100
0001
0100
,
0000
0000
0010
1000
,
0010
0100
0001
1000
,
0010
0000
1000
0010
0000
1000
0010
0000
,
0000
1000
0000
0100
0000
0000
0000
0000
,
1000
0001
1000
0010
,
0100
0001
0100
0010
,
1000
0000
0001
1000
0000
0001
0000
1000
,
0000
0010
0000
1000
0000
0010
1000
0010
,
0000
0000
0000
0000
0100
0000
0001
0100
,
0000
0001
0000
0100
0000
0000
0000
0000
,
0010
1000
0010
0100
,
0001
1000
0001
0100
,
0010
1000
0100
0010
,
0001
1000
0001
0000
1000
0000
0010
0000
,
0100
0010
1000
0001
,
0100
0001
0010
0001
,
1000
0100
1000
0010
,
0100
0001
0100
0001
,
0010
0100
1000
0100
,
0011
0001
0101
0100
,
0010
1000
0100
0010
,
0001
1000
1001
0001
,
0101
0100
0010
1000
,
1100
0100
0010
0001
,
1001
1000
1100
0100
,
0110
0010
0001
1000
,
2002
0000
0000
0000
,
3003
0000
0000
0000
;

//---------------dance-single - ----------------
#NOTES:
     dance-single:
     :
     Hard:
     12:
     0.547723,0.623806,0.184923,0.308204,0.351353,311.000000,296.000000,15.000000,25.000000,0.000000,0.000000,0.547723,0.623806,0.184923,0.308204,0.351353,311.000000,296.000000,15.000000,25.000000,0.000000,0.000000:
// measure 0
0000
0000
0000
0000
,  // measure 1
0000
0000
0000
0000
,  // measure 2
0000
0000
0000
0000
,  // measure 3
0000
0000
0000
0000
,  // measure 4
0001
0000
1000
0000
0001
1000
0000
0001
1000
0000
0001
1000
0000
0001
1000
0000
,  // measure 5
0010
0000
0100
0000
0010
0100
0000
0010
0100
0000
0010
0100
0000
0010
0100
0000
,  // measure 6
0001
0000
0010
0000
0001
0010
0000
0001
0010
0000
0001
0010
0000
0001
0010
0000
,  // measure 7
0100
0000
1000
0000
0100
1000
0000
0100
1000
0000
0100
1000
0000
0100
1000
0000
,  // measure 8
0001
0000
0010
0000
0001
0010
0000
0001
0010
0000
0100
1000
0000
0100
1000
0000
,  // measure 9
0010
0000
0100
0000
0010
0100
0000
0010
0100
0000
0001
1000
0000
0001
1000
0000
,  // measure 10
0100
0000
0010
0000
0001
0010
0000
0001
0010
0000
0100
1000
0000
0100
1000
0000
,  // measure 11
2002
3003
0000
1001
,  // measure 12
0102
0103
1020
1030
,  // measure 13
1200
0000
0301
0100
1000
0000
0001
0100
,  // measure 14
0010
0000
1000
0010
1000
0000
1000
0010
,  // measure 15
2000
0000
3100
0010
0002
0000
1003
0100
,  // measure 16
1200
1300
0021
0031
,  // measure 17
2001
0000
3010
0100
0010
0000
0001
0010
,  // measure 18
0001
0000
0010
1000
0010
0100
0001
0010
,  // measure 19
0100
1000
0001
0100
1000
0000
1000
0100
,  // measure 20
0002
0000
1003
0200
0000
0302
0000
0103
,  // measure 21
0010
0001
1000
0020
0000
0130
0010
2000
,  // measure 22
0000
3010
0100
0002
0000
1003
0010
0100
,  // measure 23
0001
0010
0100
1000
0100
0010
0001
0000
,  // measure 24
1001
0000
1000
0001
0010
0001
1000
0010
,  // measure 25
1000
0100
0010
0001
0000
0001
0010
0002
,  // measure 26
0100
0003
0100
0010
2000
0000
3001
0000
,  // measure 27
1001
0110
1001
0110
,  // measure 28
0010
0000
0100
0010
0000
0100
0010
0000
1000
0000
1000
0000
0001
0000
0000
0000
,  // measure 29
0100
0000
0001
0100
0000
0001
0100
0000
0010
0000
1000
0000
0001
0000
0010
0000
,  // measure 30
0001
0000
1000
0001
0000
1000
0010
0000
0100
0000
0001
0000
0200
0000
0000
0000
,  // measure 31
0310
1000
0100
2000
0001
3001
0100
0010
,  // measure 32
0100
0000
0010
0100
0000
0010
1000
0000
0001
0000
0001
0000
0001
0000
0000
0000
,  // measure 33
0100
0000
0001
0010
0000
0001
0100
0000
0010
0000
0100
0001
0000
0001
0010
0000
,  // measure 34
0001
0000
1000
0001
0000
0001
1000
0000
0010
0000
0100
0000
0010
0000
0001
0000
,  // measure 35
0010
0000
1000
0000
0100
0010
0100
0000
0010
0000
0001
1000
0000
0001
1000
0000
,  // measure 36
0010
0000
0010
0100
0000
0100
0010
0000
0010
0000
1000
0000
1000
0000
0000
0000
,  // measure 37
0001
0000
0010
0100
0000
1000
0100
0000
0001
0000
0001
0000
0100
0000
1000
0000
,  // measure 38
0010
0000
0100
0001
0000
0001
1000
0000
0010
0000
0010
0000
0100
0000
0000
0000
,  // measure 39
0001
0010
0100
2000
0000
3010
0020
0000
,  // measure 40
0130
0000
0001
0100
0000
0001
1000
0000
0010
0000
0010
0000
0010
0000
0000
0000
,  // measure 41
0100
0000
0001
1000
0000
0010
1000
0000
1100
0000
0000
0000
1001
0000
0000
0000
,  // measure 42
0001
0000
0100
0010
0000
0100
0001
0000
1000
0000
0010
0000
1000
0000
0000
0000
,  // measure 43
0100
0010
0001
2000
0000
3002
0000
0000
,  // measure 44
0200
0000
0000
0000
,  // measure 45
0000
0000
0000
0000
,  // measure 46
0303
0000
0000
0000
;
