#TITLE:DRG;
#SUBTITLE:;
#ARTIST:ani;
#TITLETRANSLIT:;
#SUBTITLETRANSLIT:;
#ARTISTTRANSLIT:;
#GENRE:;
#CREDIT:;
#BANNER:DRG.png;
#BACKGROUND:DRG-bg.png;
#LYRICSPATH:;
#CDTITLE:;
#MUSIC:DRG.ogg;
#OFFSET:-1.707000;
#SAMPLESTART:40.410000;
#SAMPLELENGTH:15.000000;
#SELECTABLE:YES;
#BPMS:0.000000=155.000000
;
#STOPS:
;
#BGCHANGES:;
#KEYSOUNDS:;
#ATTACKS:;

//---------------dance-single - ----------------
#NOTES:
     dance-single:
     :
     Beginner:
     3:
     0.147356,0.213725,0.000000,0.239306,0.000000,125.000000,125.000000,0.000000,29.000000,0.000000,0.000000,0.147356,0.213725,0.000000,0.239306,0.000000,125.000000,125.000000,0.000000,29.000000,0.000000,0.000000:
0000
0000
0000
0000
,
0000
0000
0000
0000
,
0000
0000
0000
0000
,
0000
0000
0000
0000
,
0000
0000
0000
0000
,
1000
0000
0000
0000
,
0010
0000
0000
0000
,
1000
0000
0000
0000
,
0100
0000
0000
0000
,
0010
0000
0000
0000
,
0001
0000
1000
0000
,
0001
0000
0000
0000
,
0100
0000
0010
0000
,
0100
0000
0000
0000
,
0010
0000
1000
0000
,
0010
0000
0000
0000
,
1000
0000
0000
0000
,
0001
0000
0001
0000
,
1000
0000
1000
0000
,
0100
0000
0100
0000
,
0010
0000
0010
0000
,
0001
0000
0001
0000
,
1000
0000
1000
0000
,
0010
0000
0010
0000
,
0100
0000
0000
0000
,
0001
0000
0001
0000
,
1000
0000
1000
0000
,
0010
0000
0010
0000
,
0100
0100
0100
0000
,
0001
0000
1000
0000
,
0001
0000
1000
0000
,
0001
0000
1000
0000
,
0001
0000
1000
0000
,
0010
0000
0100
0000
,
0010
0000
0100
0000
,
0010
0010
0010
0000
,
0100
0100
0100
0000
,
0010
0000
1000
0000
,
0010
0000
1000
0000
,
0001
0000
0100
0000
,
0001
0000
0100
0000
,
0010
0000
1000
0000
,
0010
0000
1000
0000
,
0001
0000
0100
0000
,
0001
0000
0100
0000
,
1000
0000
0100
0000
,
1000
0000
0100
0000
,
0001
0000
0010
0000
,
0001
0000
0010
0000
,
1000
0000
0010
0000
,
1000
0000
0010
0000
,
0001
0000
0100
0000
,
0001
0000
0100
0000
,
0020
0000
1030
0000
,
0100
0000
1000
0000
,
0000
0000
0000
0000
,
0100
0000
0010
0000
,
0100
0000
0000
0000
,
0002
0000
2003
0000
,
3020
0000
0230
0000
,
0302
0000
2003
0000
,
3200
0000
2300
0000
,
3020
0000
0230
0000
,
0302
0000
2003
0000
,
3002
0000
0023
0000
,
0032
0000
0203
0000
,
0320
0000
0000
0000
,
2030
0000
0000
0000
,
3002
0000
0000
0000
,
0203
0000
0320
0000
,
2030
0000
0000
0000
,
3002
0000
0203
0000
,
0302
0000
0023
0000
,
0230
0000
2300
0000
,
3001
0000
0000
0000
;

//---------------dance-single - ----------------
#NOTES:
     dance-single:
     :
     Easy:
     5:
     0.299427,0.433225,0.123779,0.618894,0.000000,254.000000,239.000000,15.000000,75.000000,0.000000,0.000000,0.299427,0.433225,0.123779,0.618894,0.000000,254.000000,239.000000,15.000000,75.000000,0.000000,0.000000:
0000
0000
0000
0000
,
0000
0000
0000
0000
,
0000
0000
0000
0000
,
0000
0000
0000
0000
,
0000
0000
0000
0000
,
1000
0100
2000
3000
,
0010
0100
0020
0030
,
1000
0001
2000
3000
,
0001
0010
0002
0003
,
0100
0010
0200
0300
,
0001
0010
0002
0003
,
1000
0100
2000
3000
,
0001
0010
2000
3000
,
0010
0001
0200
0300
,
1000
0100
0002
0003
,
0010
1000
0020
0030
,
0001
0100
1000
0000
,
0100
0001
0020
0030
,
1000
0010
0002
0003
,
0100
0010
2000
3000
,
0010
0100
0002
0003
,
2000
0000
3100
0010
,
0002
0000
0103
0010
,
2000
0000
3100
0010
,
0002
0000
0000
0000
,
1003
0001
1000
0100
,
1000
0000
0010
0100
,
0001
0100
0010
0000
,
1000
1000
1001
0000
,
0001
0001
0100
0100
,
0010
0010
1000
1000
,
1001
0001
0101
0100
,
0110
0010
1010
1000
,
1000
0100
0010
0001
,
1000
0100
0010
0001
,
1000
0001
0010
0001
,
0200
0320
2030
3002
,
0103
0010
1000
0010
,
0200
0302
2003
3002
,
0203
0320
2030
3020
,
0230
0302
0023
0032
,
0103
0020
2030
3020
,
0230
0302
0023
0230
,
2300
3002
2003
3002
,
0203
0320
2030
3200
,
2300
3002
0023
0032
,
0203
0320
2030
3200
,
2300
3002
0023
0032
,
0203
0320
2030
3200
,
2300
0000
0000
0000
,
3001
0100
0002
0003
,
0010
0001
0200
0300
,
0010
1000
0200
0300
,
0020
0000
0031
1000
,
0001
1000
0100
0010
,
0100
0010
0001
1000
,
0001
1000
0100
0010
,
0110
0000
0000
0000
,
0101
0001
0020
0230
,
1300
0100
2000
3100
,
0010
0001
0010
0100
,
1000
0100
0010
0001
,
1000
0010
0001
0010
,
1000
0100
0001
0100
,
1000
0010
0001
0010
,
1000
0000
0000
0000
,
0001
0001
1000
1000
,
0001
0001
1000
1000
,
0010
0010
0100
0100
,
0010
0010
0100
0100
,
1001
1001
0100
0100
,
0110
0110
0010
0010
,
1010
1010
1000
1000
,
1001
1001
0001
0001
,
0200
0000
0000
0000
,
0300
0000
0000
0000
;

//---------------dance-single - ----------------
#NOTES:
     dance-single:
     :
     Medium:
     10:
     0.406702,0.491814,0.148534,0.849947,0.000000,345.000000,327.000000,18.000000,103.000000,0.000000,0.000000,0.406702,0.491814,0.148534,0.849947,0.000000,345.000000,327.000000,18.000000,103.000000,0.000000,0.000000:
0000
0000
0000
0000
,
0000
0000
0000
0000
,
0000
0000
0000
0000
,
0000
0000
0000
0000
,
0000
0000
0000
0000
,
1000
0100
1000
0000
0010
0100
0010
0000
,
1000
0001
1000
0000
0001
0100
0001
0000
,
0100
0010
1000
0100
,
0020
0032
0203
0320
,
1030
0000
0001
0000
1000
0001
1000
0000
,
0000
0100
0010
0001
,
0010
0000
0100
0000
1000
0001
1000
0000
,
0010
0001
0010
1000
,
0100
0001
0100
1000
,
0020
0032
0013
1000
,
0200
0302
0203
1300
,
0020
0000
0030
0000
,
0001
0000
1000
0000
0001
1000
0001
0000
,
0100
0000
0010
0000
0100
0010
0100
0000
,
0010
0000
1000
0000
0010
1000
0010
0000
,
1000
0000
0001
0000
1000
0001
1000
0000
,
0001
0100
0001
0000
0100
0000
0010
0000
,
1000
0100
0010
0001
,
1000
0010
0100
0001
,
0100
0010
0000
0000
,
2000
3002
0203
0320
,
2030
3020
0230
0302
,
0023
0230
2300
3002
,
2003
3002
2003
3002
,
0023
0230
0320
0230
,
0320
0230
2300
3002
,
2003
3002
0023
0032
,
0023
0032
0203
0320
,
0230
0000
0320
0000
2000
0030
3020
0000
,
2030
3200
0302
0203
,
2300
3020
0032
0023
,
2030
0000
3200
0000
0302
0000
0103
1000
,
1002
0203
0320
2030
,
3200
0000
0302
0000
0203
0000
1300
0010
,
0200
0302
0023
2030
,
3020
0000
0032
0000
0103
1000
0100
1000
,
0200
0302
0023
0032
,
2003
0000
3100
1000
0200
0000
0302
0000
,
0023
2030
3020
0032
,
0103
1000
0200
0000
0302
0000
0023
0000
,
2030
3020
0032
0203
,
2300
0000
3100
0001
0020
0000
2030
0000
,
3200
0302
0023
2030
,
3010
0001
0010
1000
0100
0010
0001
0000
,
1000
0010
2000
0000
3001
0000
0100
0000
,
0010
0100
0010
0000
1000
0100
1000
0000
,
0001
0010
0001
0000
0100
0010
0100
0000
,
1000
0010
1000
0000
0100
0010
0100
0000
,
0001
1000
0002
0000
1003
0000
0100
0000
,
0010
0001
0100
0010
,
2000
3002
0203
0320
,
2030
0000
0000
0000
,
3001
1001
1000
1010
,
0110
0000
0101
0000
0001
0010
0100
1000
,
0001
0000
1010
0000
0100
0010
1000
0010
,
0100
0000
0011
0000
0100
0010
1000
0010
,
0100
0000
0011
0000
0100
0001
0010
0001
,
0100
0000
0110
0000
1000
0010
0100
0010
,
1000
0000
0110
0000
0001
0100
0010
0100
,
0001
0000
1100
0000
0010
0001
0100
0010
,
0001
1100
0110
0011
,
0001
0010
0100
0000
1000
0100
0010
0000
,
0001
0100
0010
0000
1000
0100
0001
0000
,
0100
1000
0010
0000
0001
0010
1000
0000
,
1100
0110
0011
0101
,
1000
0100
0001
0000
0010
1000
0010
0000
,
0100
0010
0100
0000
0010
1000
0010
0000
,
0001
0100
1000
0000
0100
0001
0010
0000
,
1000
0010
0001
0100
1000
0100
0001
0010
,
0002
0000
0003
0000
;

//---------------dance-single - ----------------
#NOTES:
     dance-single:
     :
     Hard:
     14:
     0.709665,0.768459,0.585886,0.107275,0.453855,602.000000,531.000000,71.000000,13.000000,0.000000,0.000000,0.709665,0.768459,0.585886,0.107275,0.453855,602.000000,531.000000,71.000000,13.000000,0.000000,0.000000:
// measure 0
0000
0000
0000
0000
,  // measure 1
0000
0000
0000
0000
,  // measure 2
0000
0000
0000
0000
,  // measure 3
0000
0000
0000
0000
,  // measure 4
0000
0000
0000
0000
,  // measure 5
1000
0001
1001
0000
0001
0100
0110
0000
,  // measure 6
0010
1000
1100
0000
1000
0010
0110
0010
,  // measure 7
1000
0001
1001
0000
1000
0010
1010
0000
,  // measure 8
1000
1001
0000
0011
0000
1001
0000
0000
,  // measure 9
1000
0001
0000
1000
0010
0000
0000
1000
0000
0001
0000
1000
0100
0000
1000
0000
,  // measure 10
0010
0100
0000
0001
0100
0000
0000
0001
0000
1000
0000
0001
1000
0000
0010
0000
,  // measure 11
0100
0001
0000
0100
0001
0000
0000
0100
0000
0001
0000
1000
0001
0000
1000
0000
,  // measure 12
0010
1000
0000
0010
1000
0000
0000
0001
0000
1000
0000
0001
1000
0000
0010
0000
,  // measure 13
1000
0100
0000
1000
0100
0000
0000
1000
0000
0001
0000
1000
0010
0000
1000
0000
,  // measure 14
0001
0100
0000
0001
0100
0000
0000
0001
0000
1000
0000
0001
1000
0000
0010
0000
,  // measure 15
1000
0100
0000
1000
0100
0000
0000
1000
0000
0001
0000
0010
0001
0000
0100
0000
,  // measure 16
0202
0000
0000
0303
,  // measure 17
1000
0001
1000
0000
0001
0000
0010
0000
0100
0000
1000
0000
0010
0000
0100
0000
,  // measure 18
0001
1000
0001
0000
1000
0100
0000
1000
0000
0001
0000
1000
0001
0000
0100
0000
,  // measure 19
0001
0010
0001
0000
0100
0001
0000
0100
0000
0001
0000
1000
0010
0000
1000
0000
,  // measure 20
0001
0010
0001
0000
1000
0001
0000
0010
0000
0100
0000
1000
0100
0000
1000
0000
,  // measure 21
0001
1000
0001
0000
0010
0000
0001
0000
1000
0000
0100
0000
0010
0000
0100
0000
,  // measure 22
1000
0001
0010
0001
1000
0001
0010
0001
,  // measure 23
0100
0010
1000
0010
0100
0010
1000
0010
,  // measure 24
0200
0000
0320
0000
,  // measure 25
1030
0001
0100
0100
0001
0010
0001
0001
,  // measure 26
1000
0100
1000
1000
0010
0100
0010
0010
,  // measure 27
0100
0100
0001
0001
0100
0100
1000
1000
,  // measure 28
0100
0100
0001
0001
0100
0000
0010
1000
,  // measure 29
1001
0000
0101
0000
0100
0001
0011
0000
,  // measure 30
0010
0100
0110
0000
0100
1000
1100
0000
,  // measure 31
1001
0011
0110
1100
,  // measure 32
0110
0000
0000
0000
0011
0000
0000
0000
1001
0000
0000
1000
0001
0000
0010
0000
,  // measure 33
0001
0100
1000
0100
0001
0010
1000
0010
,  // measure 34
0001
0010
0100
1000
0001
1000
0100
0010
,  // measure 35
0001
0001
0010
0010
0100
0100
1000
1000
,  // measure 36
0001
0100
1000
0100
0001
0010
1000
0010
,  // measure 37
0001
0100
0101
0000
0100
0010
0110
0000
,  // measure 38
0010
1000
1010
0000
1000
0001
1001
0000
,  // measure 39
0001
0010
0011
0000
0010
0100
0110
0000
,  // measure 40
0100
0000
1000
0000
1100
0000
0000
0000
1000
0000
0000
1000
0001
0000
1000
0000
,  // measure 41
0010
0000
1000
0000
0002
0000
0003
0000
0010
0001
0000
0010
0001
0000
0100
0000
,  // measure 42
0010
1000
0000
0010
1000
0000
0100
0000
0010
0001
0000
0010
0001
0000
0100
0000
,  // measure 43
0010
0100
0000
0010
0100
0000
0001
0000
1000
0100
0000
1000
0100
0000
0010
0000
,  // measure 44
0001
0100
0000
0001
0100
0000
0001
0000
1000
0010
0000
1000
0010
0000
1000
0000
,  // measure 45
0001
0010
0100
0010
0011
0001
1000
0100
,  // measure 46
1100
1000
0010
0100
0110
0010
0100
0001
,  // measure 47
1001
1000
0100
0010
0011
0001
1000
1001
,  // measure 48
0000
0000
0001
0000
0100
0001
0000
0001
1000
0000
0010
0000
2000
0000
0000
0000
,  // measure 49
3010
0100
0010
0100
0020
0000
0000
0000
1030
0000
0100
0000
0001
0000
0000
0000
,  // measure 50
1000
0010
0001
0000
1000
0100
0001
0000
,  // measure 51
1000
0010
0001
0000
0001
0100
1000
0000
,  // measure 52
0001
0010
1000
0000
0001
0100
1000
0100
,  // measure 53
0001
0100
0001
0100
0002
0000
0003
0000
1000
0000
0100
0000
1000
0000
0100
0000
,  // measure 54
2100
0000
3010
0100
0010
0100
0010
0100
,  // measure 55
0120
0000
0130
0001
2001
0000
3001
0100
,  // measure 56
0010
0100
0010
0100
0010
0100
0010
0000
1000
0001
1000
0001
1000
0001
1000
0001
,  // measure 57
0100
0000
0000
0110
0000
0000
0010
0000
0000
1000
0100
0010
0001
0000
1000
0000
,  // measure 58
0001
0000
0000
0101
0000
0000
1001
0000
0000
0001
0010
0100
1000
0000
0100
0000
,  // measure 59
1000
0000
0000
1010
0000
0000
1001
0000
0000
1000
0100
0010
0001
0000
0100
0000
,  // measure 60
0001
0000
0000
0011
0000
0000
0101
0000
0000
0100
0001
0010
0100
0000
1000
0000
,  // measure 61
0010
0000
0000
0110
0000
0000
1010
0000
0000
0010
1000
0100
0010
0000
0100
0000
,  // measure 62
1000
0000
0000
1001
0000
0000
1100
0000
0000
0100
0010
0001
0010
0000
0100
0000
,  // measure 63
1000
0000
0000
1001
0000
0000
1100
0000
0000
0100
0010
0100
1000
0000
0001
0000
,  // measure 64
1000
1001
0000
1100
1000
1010
0000
0010
,  // measure 65
0100
0000
0001
0000
0010
0000
0100
0000
1000
0010
1000
0010
1000
0000
0001
0000
,  // measure 66
1001
1000
1100
0000
1100
0100
0110
0000
,  // measure 67
0110
0010
0011
0000
0011
0001
1001
0000
,  // measure 68
1001
0001
0011
0000
0011
0010
0110
0000
,  // measure 69
0110
0100
1100
0000
1100
1000
1001
0001
,  // measure 70
0100
0100
1000
1000
0100
0100
0001
0001
,  // measure 71
0010
0010
1000
1000
0010
0010
0001
0001
,  // measure 72
0100
0000
0100
0000
0010
0000
0010
0000
0100
0010
0100
0010
0100
0000
0001
0000
,  // measure 73
1000
0001
1000
0001
1000
0000
0001
0000
0100
0001
0100
0001
0100
0000
0001
0000
,  // measure 74
2002
0000
3003
0000
;
