#TITLE:DEEP PURPLE;
#SUBTITLE:;
#ARTIST:NAOKI;
#TITLETRANSLIT:;
#SUBTITLETRANSLIT:;
#ARTISTTRANSLIT:;
#GENRE:;
#CREDIT:;
#BANNER:DEEP PURPLE.png;
#BACKGROUND:DEEP PURPLE-bg.png;
#LYRICSPATH:;
#CDTITLE:;
#MUSIC:DEEP PURPLE.ogg;
#OFFSET:-0.058000;
#SAMPLESTART:51.939537;
#SAMPLELENGTH:14.999998;
#SELECTABLE:YES;
#BPMS:0.000000=148.000000
;
#STOPS:
;
#BGCHANGES:;
#KEYSOUNDS:;
#ATTACKS:;

//---------------dance-single - ----------------
#NOTES:
     dance-single:
     :
     Beginner:
     1:
     0.114361,0.153526,0.000000,0.000000,0.000000,73.000000,73.000000,0.000000,0.000000,0.000000,0.000000,0.114361,0.153526,0.000000,0.000000,0.000000,73.000000,73.000000,0.000000,0.000000,0.000000,0.000000:
0000
0000
0000
0000
,
0000
0000
0000
0000
,
0000
0000
0000
0000
,
0000
0000
0000
0000
,
0001
0000
0000
0000
,
1000
0000
0000
0000
,
0010
0000
0000
0000
,
0100
0000
0000
0000
,
0001
0000
0000
0000
,
1000
0000
0000
0000
,
0100
0000
0000
0000
,
1000
0000
0000
0000
,
0001
0000
0000
0000
,
0010
0000
0000
0000
,
0001
0000
0000
0000
,
1000
0000
0000
0000
,
0100
0000
0100
0000
,
0010
0000
0010
0000
,
0001
0000
0001
0000
,
1000
0000
1000
0000
,
0100
0000
0100
0000
,
0010
0000
0010
0000
,
0001
0000
1000
0000
,
0001
0000
1000
0000
,
0010
0000
0000
0000
,
0010
0000
0000
0000
,
0100
0000
0000
0000
,
0100
0000
0000
0000
,
0001
0000
0000
0000
,
0000
0000
0000
0000
,
0001
0000
1000
0000
,
0001
0000
0000
0000
,
1000
0000
0100
0000
,
1000
0000
0000
0000
,
0000
0000
0000
0000
,
0010
0000
0100
0000
,
0010
0000
0000
0000
,
0100
0000
0001
0000
,
0100
0000
0000
0000
,
0001
0000
1000
0000
,
0001
0000
0000
0000
,
1000
0000
0000
0000
,
0010
0000
0000
0000
,
0100
0000
0000
0000
,
0001
0000
0001
0000
,
1000
0000
1000
0000
,
0010
0000
0010
0000
,
0100
0000
0100
0000
,
0001
0000
1000
0000
,
0001
0000
1000
0000
,
0100
0000
0010
0000
,
0100
0000
0010
0000
,
0001
0000
0000
0000
,
1000
0000
0000
0000
,
0001
0000
0000
0000
,
1000
0000
0100
0000
,
1000
0000
0000
0000
;

//---------------dance-single - ----------------
#NOTES:
     dance-single:
     :
     Easy:
     3:
     0.200523,0.214936,0.000000,0.000000,0.000000,128.000000,128.000000,0.000000,0.000000,0.000000,0.000000,0.200523,0.214936,0.000000,0.000000,0.000000,128.000000,128.000000,0.000000,0.000000,0.000000,0.000000:
0000
0000
0000
0000
,
0000
0000
0000
0000
,
0000
0000
0000
0000
,
0000
0000
0000
0000
,
1000
0000
0010
0000
,
1000
0000
0001
0000
,
0100
0000
0001
0000
,
1000
0000
0100
0000
,
1000
0000
1000
0000
,
0001
0000
0001
0000
,
0100
0000
0010
0000
,
0100
0000
0010
0000
,
1000
0000
0001
0000
,
1000
0000
0001
0000
,
0100
0000
0001
0000
,
0010
0000
0001
0000
,
1000
0100
1000
0000
,
0010
0100
0010
0000
,
0100
0001
0100
0000
,
0001
1000
0001
0000
,
1000
0001
1000
0000
,
0001
0100
0001
0000
,
0100
0010
0100
0000
,
0010
1000
0010
0000
,
1000
0000
0100
0000
,
0010
0000
0001
0000
,
0100
0000
0010
0000
,
1000
0000
0001
0000
,
1000
0000
0001
0000
,
0100
0000
0010
0000
,
0100
0000
0001
0000
,
1000
0000
0001
0000
,
1000
0001
1000
0000
,
0001
0010
0001
0000
,
1000
0100
0100
0000
,
1000
1000
1000
0000
,
0010
0010
0100
0000
,
0001
0001
0010
0000
,
0100
0100
1000
0000
,
0001
0001
1000
0000
,
0001
0100
0001
0000
,
1000
0010
1000
0000
,
0001
1000
0001
0000
,
1000
0100
1000
0000
,
0010
0100
0010
0000
,
0100
0001
0100
0000
,
0001
0000
1000
0000
,
0001
1000
0001
0000
,
1000
0000
0100
0000
,
0010
0000
0001
0000
,
1000
0000
0100
0000
,
1000
0000
0100
0000
,
0010
0000
0001
0000
,
1000
0000
0001
0000
,
1000
0000
0100
0000
,
1000
0000
1000
0000
,
0010
0000
0000
0000
;

//---------------dance-single - ----------------
#NOTES:
     dance-single:
     :
     Medium:
     9:
     0.375981,0.429872,0.142559,0.054831,0.000000,240.000000,227.000000,13.000000,5.000000,0.000000,0.000000,0.375981,0.429872,0.142559,0.054831,0.000000,240.000000,227.000000,13.000000,5.000000,0.000000,0.000000:
0000
0000
0000
0000
,
0000
0000
0000
0000
,
0000
0000
0000
0000
,
0000
0000
0000
0000
,
0010
0010
0100
0100
,
0001
0001
1000
1000
,
0100
0010
0100
0010
,
0001
1000
0001
1000
,
0100
0100
0010
0000
,
0001
1000
0001
1010
,
0100
0001
0010
0001
,
0100
0010
1000
0100
,
1000
0001
0010
0001
,
0100
0000
0010
0000
0100
0000
0010
1000
,
0100
0000
1000
0000
0001
0000
0100
0010
,
1000
0100
0010
0001
,
1000
0001
1000
0000
0001
0000
0100
0000
,
0010
0100
0010
0000
0110
0000
0100
0000
,
0001
1000
0001
0000
1001
0000
1000
0000
,
0100
1000
0100
0000
1100
0000
0000
0000
,
0010
0001
0010
0011
,
0001
0100
0001
0101
,
0100
0010
0100
0110
,
0010
1000
0010
1010
,
1000
0100
0010
0001
,
0100
0000
0010
0000
1000
0100
1000
0000
,
0001
0000
0100
0000
0010
0100
0010
0000
,
1000
0100
1000
0001
,
0100
0000
0010
0000
0100
0001
0100
0000
,
0001
0000
1000
0000
0001
1000
0001
0000
,
1000
0000
0100
0000
1000
0100
1000
0000
,
0010
0100
0001
1000
,
0001
1000
0001
0000
0100
0000
0010
0000
,
1000
0100
1000
0000
0010
0000
0100
0000
,
0010
0100
0010
0000
0001
0000
0010
0000
,
0100
0010
0100
0000
0010
0000
1000
0000
,
0100
0010
0100
0000
0010
0000
0001
0000
,
0010
0001
0010
0000
0001
0000
1000
0000
,
0001
1000
0001
0000
1000
0000
0100
0000
,
1000
0100
1000
0000
0010
0000
0100
0000
,
0001
1000
0001
1000
,
0001
0100
0010
0110
,
0100
0001
1000
0100
,
1000
0010
0100
0001
,
1000
0001
1000
0000
0001
0000
0101
0000
,
0100
0110
0010
1010
,
1000
0100
0010
0001
,
0100
0100
0010
0010
,
2000
0000
3001
0100
,
0002
0000
0103
0010
,
0100
0010
0100
0000
0010
0000
1000
0000
,
0100
1000
0100
0000
2000
0000
0000
0000
,
3001
0100
0001
0000
0200
0000
0000
0000
,
0310
1000
0010
0000
2000
0000
0000
0000
,
3100
0010
0100
0000
0010
0000
0001
0000
,
0100
0101
0100
0001
,
1000
0000
0000
0000
;

//---------------dance-single - ----------------
#NOTES:
     dance-single:
     :
     Hard:
     13:
     0.631335,0.736923,0.153526,0.186424,0.323500,403.000000,389.000000,14.000000,17.000000,0.000000,0.000000,0.631335,0.736923,0.153526,0.186424,0.323500,403.000000,389.000000,14.000000,17.000000,0.000000,0.000000:
// measure 0
0000
0000
0000
0000
,  // measure 1
0000
0000
0000
0000
,  // measure 2
0000
0000
0000
0000
,  // measure 3
0000
0000
0000
0000
,  // measure 4
1000
0010
1000
0010
0000
0010
0001
0010
,  // measure 5
0000
0010
0100
0001
0100
1000
0100
0010
,  // measure 6
1000
0000
0010
0000
0100
0000
0100
0000
0000
0000
0001
0000
1000
0010
1000
0000
,  // measure 7
0000
0000
0001
0000
1000
0010
1000
0000
0100
0000
0010
0000
0001
0100
0001
0000
,  // measure 8
1000
0000
0010
0000
0001
0010
1000
0010
,  // measure 9
0100
0000
0001
0000
1000
0100
0001
0100
,  // measure 10
0010
0000
0001
0000
1000
0010
0001
0010
,  // measure 11
0100
0000
0000
0000
0001
0000
0000
0000
0100
0000
1000
0000
0100
0000
0001
0010
,  // measure 12
0001
0100
0010
0000
0100
0000
0001
1000
,  // measure 13
0010
0000
0000
0000
1000
0000
0000
0000
0010
0000
0100
0000
0001
0010
0001
0010
,  // measure 14
0001
1000
0010
0100
0001
1000
0010
0100
,  // measure 15
0001
0010
0100
1000
0001
0000
1000
0001
,  // measure 16
1000
0010
1000
0000
0100
0000
0010
0001
0010
0000
0001
0000
0100
0000
0000
0000
,  // measure 17
0001
0010
0001
0000
0010
0000
0100
0010
0100
0000
1000
0000
0010
0000
0000
0000
,  // measure 18
0100
0001
0100
0000
0001
0000
0010
0100
0010
0000
1000
0000
0010
0000
0000
0000
,  // measure 19
0001
1000
0001
0000
1000
0000
0010
1000
0010
0000
1000
0000
0001
0000
0000
0000
,  // measure 20
0010
0001
0010
0000
0100
0000
1000
0001
1000
0000
0001
0100
0001
0000
0000
0000
,  // measure 21
1000
0010
1000
0000
0100
0000
0010
0001
0010
0000
0001
1000
0001
0000
0000
0000
,  // measure 22
1000
0001
1000
0000
0001
0000
0100
1000
0100
0000
0100
0001
0100
0000
0000
0000
,  // measure 23
0001
1000
0001
0000
1000
0000
0010
1000
0010
0000
0010
0001
0010
0000
1000
0000
,  // measure 24
2001
0000
3010
0020
0000
0130
0200
0000
,  // measure 25
0302
0000
0013
1000
0010
0001
0100
1000
,  // measure 26
0200
0000
0301
1000
0020
0000
1030
0001
,  // measure 27
0100
0001
0020
0000
0031
1000
0100
1000
,  // measure 28
0020
1000
0100
1000
,  // measure 29
0032
0100
0010
0100
,  // measure 30
0023
1000
0100
1000
,  // measure 31
0200
0000
0000
0330
,  // measure 32
0001
0010
0100
1000
0010
0000
1010
0000
,  // measure 33
1000
0100
0010
0001
0100
0000
0101
0000
,  // measure 34
0001
0100
1000
0100
0001
0000
1100
0000
,  // measure 35
1000
0010
0001
0010
1000
0000
0011
0000
,  // measure 36
0001
0100
0001
0000
0100
0000
0010
1000
0010
0000
1000
0000
0001
0000
0000
0000
,  // measure 37
0010
0001
0010
0000
0001
0000
1000
0001
1000
0000
0001
0000
0100
0000
0000
0000
,  // measure 38
0010
0100
0010
0000
0100
0000
0001
0010
0001
0000
1000
0100
1000
0000
0000
0000
,  // measure 39
0100
0010
0100
0000
1000
0000
0001
0100
0001
0000
1000
0010
1000
0000
0000
0000
,  // measure 40
0020
0100
0130
0001
1000
0100
0001
0001
,  // measure 41
0100
0010
0120
0030
0100
0001
0201
0300
,  // measure 42
0100
1000
0100
0000
2000
0000
3000
0000
0000
0000
0000
0000
0000
0000
0000
0000
,  // measure 43
0001
1000
1001
0000
0000
0000
0000
0000
,  // measure 44
0100
0010
0110
0100
0001
1000
0010
0001
,  // measure 45
0010
0100
0120
0030
0100
0001
0012
0003
,  // measure 46
1000
0001
1000
0000
0010
0000
0100
0000
0010
0000
0100
0000
0010
0000
0000
0000
,  // measure 47
0100
0000
0100
0000
0001
0000
0000
0000
1000
0000
0001
1000
0001
0000
0000
0000
,  // measure 48
0100
0000
0100
0000
0010
0000
1000
0001
1000
0000
0000
0000
1001
0000
0000
0000
,  // measure 49
0010
0000
0010
0000
0100
0000
0001
1000
0001
0000
0000
0000
1001
0000
0000
0000
,  // measure 50
1000
0100
1000
0000
1000
0000
0001
0100
0001
0000
0001
0100
0001
0000
0000
0000
,  // measure 51
0100
0010
0100
0000
0100
0000
0001
1000
0001
0000
0001
1000
0001
0000
0000
0000
,  // measure 52
1000
0010
1000
0000
0001
0000
0100
0001
1000
0000
0010
1000
0001
0000
0000
0000
,  // measure 53
0010
0001
0010
0000
0001
0000
1000
0001
0100
0000
0001
1000
0010
0000
0000
0000
,  // measure 54
1000
0100
0010
0000
0100
0000
1000
0100
0010
0000
0001
0010
0100
0000
0010
0000
,  // measure 55
0001
0010
0100
0000
0010
0000
0001
0010
0100
0000
1000
0100
0010
0000
0001
0000
,  // measure 56
1001
0000
0000
0000
;
