#TITLE:Cross Time;
#SUBTITLE:;
#ARTIST:Brandy;
#TITLETRANSLIT:;
#SUBTITLETRANSLIT:;
#ARTISTTRANSLIT:;
#GENRE:;
#CREDIT:;
#BANNER:Cross Time.png;
#BACKGROUND:Cross Time-bg.png;
#LYRICSPATH:;
#CDTITLE:;
#MUSIC:Cross Time.ogg;
#OFFSET:-1.039999;
#SAMPLESTART:98.506844;
#SAMPLELENGTH:12.000000;
#SELECTABLE:YES;
#BPMS:0.000000=160.000000
,190.000000=80.000000
,206.000000=160.000000
;
#STOPS:188.000000=0.563000,
188.500000=0.563000,
189.000000=0.563000,
189.500000=0.563000
;
#BGCHANGES:;
#KEYSOUNDS:;
#ATTACKS:;

//---------------dance-single - ----------------
#NOTES:
     dance-single:
     :
     Beginner:
     3:
     0.155370,0.211016,0.000000,0.007881,0.000000,138.000000,138.000000,0.000000,1.000000,0.000000,0.000000,0.155370,0.211016,0.000000,0.007881,0.000000,138.000000,138.000000,0.000000,1.000000,0.000000,0.000000:
0000
0000
0000
0000
,
0000
0000
0000
0000
,
0000
0000
0000
0000
,
0000
0000
0000
0000
,
1000
0000
0001
0000
,
1000
0000
0010
0000
,
1000
0000
0100
0000
,
0010
0000
0001
0000
,
1000
0000
1000
0000
,
0001
0000
0001
0000
,
0100
0000
0100
0000
,
0010
0000
0010
0000
,
1000
0000
1000
0000
,
0001
0000
0001
0000
,
0100
0000
0100
0000
,
0010
0000
0010
0000
,
1000
0000
1000
0000
,
0001
0000
0001
0000
,
0100
0000
0100
0000
,
0010
0000
0010
0000
,
1000
0000
1000
0000
,
0001
0000
0001
0000
,
0100
0000
0000
0000
,
0100
0000
0000
0000
,
0010
0000
0000
0000
,
0010
0000
0000
0000
,
1000
0000
0000
0000
,
0001
0000
0000
0000
,
0100
0000
0000
0000
,
0010
0000
0000
0000
,
0100
0000
0100
0000
,
0001
0000
0001
0000
,
1000
0000
1000
0000
,
0010
0000
0010
0000
,
0100
0000
0100
0000
,
0001
0000
0001
0000
,
1000
0000
1000
0000
,
0100
0000
0100
0000
,
0010
0000
0010
0000
,
1000
0000
1000
0000
,
0001
0000
0001
0000
,
0100
0000
0100
0000
,
0010
0000
0010
0000
,
1000
0000
1000
0000
,
0001
0000
0001
0000
,
0100
0000
0100
0000
,
0010
0000
0010
0000
,
2000
0000
0000
0000
,
3001
0100
0001
0000
,
1000
0000
0010
0010
,
0010
0000
0100
0100
,
0100
0000
0001
0000
,
0001
0000
1000
0000
,
1000
0000
0100
0000
,
0100
0000
0010
0000
,
0010
0000
0001
0000
,
1000
0000
0001
0000
,
1000
0000
0010
0000
,
0100
0000
0010
0000
,
0100
0000
0001
0000
,
0001
0000
1000
0000
,
1000
0000
0010
0000
,
0100
0000
0001
0000
,
0100
0000
0010
0000
,
1000
0000
0010
0000
,
0000
0000
0100
0000
,
0001
0000
0100
0000
,
0000
0000
0001
0000
,
0001
0000
1000
0000
,
1000
0000
0010
0000
,
0010
0000
0100
0000
,
0100
0000
0001
0000
,
0001
0000
1000
0000
,
1000
0000
0100
0000
,
0100
0000
0010
0000
,
0010
0000
0001
0000
,
0001
0000
1000
0000
;

//---------------dance-single - ----------------
#NOTES:
     dance-single:
     :
     Easy:
     5:
     0.245440,0.271307,0.015762,0.023643,0.000000,218.000000,216.000000,2.000000,3.000000,0.000000,0.000000,0.245440,0.271307,0.015762,0.023643,0.000000,218.000000,216.000000,2.000000,3.000000,0.000000,0.000000:
0000
0000
0000
0000
,
0000
0000
0000
0000
,
0000
0000
0000
0000
,
0000
0000
0000
0000
,
0100
0100
0001
0000
,
1000
1000
0001
0000
,
0010
0010
0001
0000
,
0100
0100
0010
0000
,
1000
1000
0001
0000
,
0100
0100
0010
0000
,
1000
0100
0001
0000
,
1000
0100
0001
0000
,
1000
1000
0000
0000
,
0010
0010
0000
0000
,
0100
0100
0001
0001
,
1000
1000
0010
0010
,
0100
0100
0001
0001
,
1000
0000
0001
0000
,
1000
0001
0010
0000
,
0001
0100
0010
0000
,
1000
0010
0100
0000
,
0002
0000
2003
0000
,
3010
0010
0000
0100
,
0100
0001
0000
1000
,
1000
0001
0000
0100
,
0010
1000
0010
0100
,
0001
0000
1000
0001
,
0010
0001
1000
0000
,
0100
1000
0010
0000
,
1000
0100
0010
0001
,
1000
1000
0000
0001
,
0001
0100
0000
0000
,
0010
0010
0000
1000
,
0100
1000
0100
0000
,
0010
0001
0000
0010
,
0001
0100
0010
1000
,
0010
0100
0001
0000
,
0010
0000
0110
0000
,
0001
1000
0001
0000
,
1000
0100
1000
0000
,
0100
0010
0100
0000
,
0010
0001
0010
0000
,
0001
0001
1000
1000
,
0100
0000
0010
0000
,
0001
0000
1000
0000
,
0001
0000
1000
0000
,
0010
0000
1000
0000
,
0200
0000
0310
1000
,
0001
1000
0010
0100
,
0001
0100
0010
1000
,
0010
0100
0001
0010
,
0100
1000
0001
0001
,
1000
0000
1000
1000
,
0100
0000
0100
0100
,
0010
0000
0010
0010
,
0001
0000
1000
1000
,
0001
0000
0001
0000
,
0100
0000
0010
0000
,
0100
0000
0001
0000
,
1000
0000
0001
1000
,
0001
0000
0100
0010
,
0100
0000
0010
1000
,
0010
0000
1000
0100
,
1000
0000
0001
1000
,
0001
0000
1000
0010
,
1000
0000
0010
0100
,
0010
0000
0100
0001
,
0100
0000
0001
1000
,
0001
0000
1000
0010
,
1000
0000
0100
0010
,
0100
0000
0010
0001
,
0010
0000
0001
1000
,
0001
0000
1000
0010
,
1000
0000
0100
0010
,
0100
0000
0010
0001
,
0010
0000
0001
1000
,
0001
0000
1001
0000
;

//---------------dance-single - ----------------
#NOTES:
     dance-single:
     :
     Medium:
     11:
     0.460481,0.542613,0.520152,0.000000,0.003941,409.000000,343.000000,66.000000,0.000000,0.000000,0.000000,0.460481,0.542613,0.520152,0.000000,0.003941,409.000000,343.000000,66.000000,0.000000,0.000000,0.000000:
0000
0000
0000
0000
,
0000
0000
0000
0000
,
0000
0000
0000
0000
,
1000
0001
1000
0000
0010
0000
0100
0000
,
0001
0100
1010
1000
,
1100
0000
0000
0000
0100
0000
0000
0000
0110
0000
0000
0010
0000
0000
0001
0000
,
0000
0001
0100
0000
0100
0010
0000
0000
,
1000
0010
0000
0010
0000
0100
0001
0000
,
1000
0000
0001
0000
1000
0010
0000
0100
,
0000
0010
0000
1000
0100
1000
0100
0000
,
0010
0001
1000
0001
,
0100
0010
1000
0000
,
1001
1001
0110
0110
,
1001
1001
0110
0110
,
0001
0000
1000
0000
0001
1000
0001
0000
,
1000
0000
0010
0000
0100
0010
0100
0000
,
0010
0000
0100
0000
0001
1000
0001
0000
,
1000
0000
0001
0000
0100
0001
0100
0000
,
0001
0000
0010
0000
0100
1000
0100
0000
,
1000
0000
0001
0000
0010
0001
0010
0000
,
0011
0000
0001
0100
0001
0000
1000
0000
,
1100
0001
0100
0010
,
0110
0000
0100
0001
0000
1000
0001
1000
,
0001
0000
0100
0010
0000
0100
0010
0100
,
0010
0000
1000
0100
0000
1000
0100
1000
,
0100
0001
0100
1000
,
1010
0000
0010
0100
0000
0001
0100
0001
,
0100
0000
0010
1000
0000
0100
1000
0100
,
1000
0000
0001
0000
0100
0010
0000
0000
,
0100
0010
0100
0001
,
1001
1001
0100
0010
,
0100
0001
0011
0011
,
0100
0000
1000
0000
1000
0100
0000
1000
,
0100
1100
1001
0101
,
0110
0000
0010
0000
1000
0010
1000
0000
,
0010
0000
0100
0000
0001
0100
0001
0000
,
0100
0010
1000
0100
,
0001
0100
1000
0100
,
0001
0100
1000
0010
,
0011
0010
1000
0100
,
0101
0100
1000
0001
,
1001
1000
0010
0100
,
0101
0001
0011
0010
,
0110
0100
1100
1000
,
1001
0001
0100
0010
,
0100
0001
0010
0100
,
1100
1000
0001
0100
,
0110
0010
0010
0010
0100
0001
0100
0000
,
0010
1000
0001
1000
,
0100
0000
1000
0100
1000
0000
0010
0100
,
0010
0000
1000
0001
1000
0001
0100
0010
,
0100
0010
1000
0001
0100
0000
0100
0000
,
0010
0010
1000
1000
,
0001
0001
0100
0100
,
0010
0010
1000
1000
,
0001
1000
0001
0000
0100
0000
0010
0000
,
0100
0001
0010
0001
,
1000
0000
0100
0000
1000
0100
1000
0000
,
0010
0100
0010
0000
0100
0000
0001
0000
,
0010
0000
0100
0000
1000
0001
1000
0001
,
0000
1000
0001
1000
0001
0000
0100
0010
,
0000
0100
0010
0100
0010
0000
0100
0001
,
0000
1000
0001
1000
0000
0001
0100
0000
,
0010
0000
1000
0000
0010
0000
0100
0001
,
0000
1000
0001
1000
0001
0000
1000
0100
,
0000
1000
0100
1000
0100
0000
1000
0000
,
0010
0100
1001
1001
,
0100
0010
1010
1010
,
1100
1100
0101
0101
,
0110
0110
0010
1000
,
1100
1100
0101
0101
,
1100
1100
1010
1010
,
0011
0011
1010
1010
,
0100
0010
1001
1001
,
0100
0100
0110
0110
,
1010
1010
1100
1100
,
0101
0101
1001
0000
;

//---------------dance-single - ----------------
#NOTES:
     dance-single:
     :
     Hard:
     12:
     0.612473,0.849582,0.496509,0.063049,0.208849,544.000000,481.000000,63.000000,8.000000,0.000000,0.000000,0.612473,0.849582,0.496509,0.063049,0.208849,544.000000,481.000000,63.000000,8.000000,0.000000,0.000000:
0000
0000
0000
0000
,
0000
0000
0000
0000
,
0000
0000
0000
0000
,
0001
0100
0001
1000
0010
1000
0100
0010
,
0001
1000
1010
0001
,
0110
0000
0000
1001
0000
1000
0100
0010
,
0001
0100
0000
0000
0001
1000
0000
0000
,
1000
0010
0000
1010
0000
1000
0010
0001
,
0010
0000
0110
0000
0100
0001
0000
0010
,
0000
0100
0000
1000
0010
1000
0001
0001
,
0010
0100
1000
0010
0100
0001
0100
0010
,
1000
0000
0100
0000
0001
0000
0100
0000
0010
0000
0000
0001
0000
0000
1000
0000
,
0001
0000
0000
0101
0000
0000
0100
0000
0010
0000
0000
1010
0000
0000
1000
0000
,
0100
0000
0000
0101
0000
0000
0001
0000
0100
0000
0000
1010
0000
0000
0010
0000
,
0100
0000
0000
0101
0000
0000
0001
0000
0010
0000
1000
0000
0010
0000
0001
0000
,
0100
0000
0000
0110
0000
0000
0010
0000
0100
0000
0001
0000
0010
0000
0001
0000
,
1000
0000
0000
1100
0000
0000
0010
0000
0001
0000
0010
0000
1000
0000
0010
0000
,
0001
0100
0001
0000
1000
0010
1000
0000
,
1001
0000
0001
0100
0010
0100
0001
0100
,
0010
0000
0100
0010
1000
0010
0100
0010
,
1010
0000
1001
0000
0001
0100
0000
0110
,
0000
0010
1000
0001
1000
0000
1001
0000
,
0010
0100
0010
1000
0000
1000
0001
1000
,
0001
0100
0001
0100
0000
0010
1000
0010
,
1000
0001
1000
0001
0000
1000
0100
0010
,
1000
0010
0001
0010
0100
0001
0100
1000
,
0001
0000
0010
0001
0000
1000
0010
0001
,
0010
0000
1000
0100
0010
0001
0100
0010
,
0100
0000
0110
0000
0010
1000
0000
1001
,
0000
0001
0100
0010
0100
0000
0001
0000
,
1001
0000
0110
0000
1000
0010
0000
0001
,
0010
1010
0101
1100
,
0011
0000
1001
0000
0001
0100
1000
0100
,
0001
0011
1100
0110
,
0001
0010
0000
0010
0001
0100
0010
0000
,
1000
0010
0000
0010
0100
0001
1000
0000
,
0001
0100
0010
1000
0001
0010
0100
1000
,
1001
0000
0000
0000
0000
0000
0000
0000
1000
0000
0000
1010
0000
0000
0010
0000
,
0100
0001
0000
0100
0000
0001
0100
0000
0010
0000
1000
0000
0010
0000
0000
0000
,
1001
0000
0100
0001
0010
0100
1000
0000
,
0001
1000
0000
0001
0000
1000
0001
0000
0100
0000
0010
0000
0100
0000
0000
0000
,
0010
1000
0000
1000
0001
0100
0001
0000
,
0010
0100
0000
0100
1000
0010
1000
0000
,
0001
0100
0010
0000
0010
0100
0001
0000
,
1000
0010
0001
0010
1000
0001
0100
0001
,
0010
0100
1000
0010
1000
0001
0100
0010
,
1000
0010
0100
0100
0001
0010
1000
0010
,
0001
0000
0101
0000
1000
0000
1010
0000
0100
0001
0010
0100
0010
0001
1000
0010
,
1000
0000
0000
0000
0010
0000
0100
0000
0001
0000
0100
0000
0010
0000
0000
0000
1000
0000
0100
0000
1000
0000
0001
0000
0010
0000
0000
0001
0000
0000
0100
0000
,
0000
0010
1000
0001
0000
1000
0001
1000
0010
0000
0100
0000
0010
0000
1000
0000
,
0010
0000
0000
0000
0100
0000
0000
0000
0001
0000
0010
0000
0100
0000
1000
0000
0001
0000
0010
0000
0001
0000
0100
0000
0001
0000
0000
1000
0000
0000
0001
0000
,
0100
0010
1000
0010
0100
0001
0100
0000
1001
0000
0000
0000
0001
0000
0000
0000
,
0100
0010
0000
1010
0000
1100
0000
0110
,
0000
0011
0000
0001
0100
1000
0000
1000
,
0100
0001
0000
0001
0010
0100
1000
0001
,
1000
0100
0010
0001
0100
0000
0110
0000
,
0010
1000
0001
1000
0000
1010
0000
0110
,
0000
0101
0000
0001
1000
0000
1010
0000
,
0000
0110
0000
0001
0100
0010
1000
0100
,
0010
0000
0011
0000
0010
0100
1000
0100
,
0000
0010
0001
0100
0020
0000
1030
0001
,
0000
0010
0001
1000
0020
0000
1030
0001
,
0000
0100
0010
2010
0000
3001
1000
2001
,
0000
3010
1000
0010
0200
0000
0301
1000
,
0000
1000
0001
0010
0002
0000
1003
0010
,
0000
0010
0100
0001
0010
0001
1000
0010
,
1000
0100
0010
0011
0000
1001
0000
1100
,
0000
0000
0110
0000
0000
0000
0010
0000
0001
0000
0000
0101
0000
0000
0100
0000
,
0010
1000
0010
0000
1000
0000
0000
0000
0001
0000
0000
0011
0000
0000
0010
0000
,
0100
0000
1000
0000
0010
0000
1000
0000
0001
0000
0000
1001
0000
0000
1000
0000
,
0010
0000
0100
0000
0010
0000
0001
0000
0010
0000
0000
1010
0000
0000
1000
0000
,
0100
0000
0000
0110
0000
0000
0010
0000
0001
0010
0000
0001
0000
0000
1000
0000
,
0100
0000
1000
0000
0010
0000
0000
0000
0100
0001
0000
0100
0000
0000
0010
0000
,
1000
0000
0100
0000
0010
0000
0000
0000
0001
0000
0000
0101
0000
0000
0100
0000
,
0010
0000
1000
0000
0100
0000
0000
0000
1000
0000
0000
1010
0000
0000
0010
0000
,
0100
0000
0000
0101
0000
0000
0001
0000
1000
0000
0000
1010
0000
0000
1000
0000
,
0001
0000
0000
0101
0000
0000
0220
0000
0000
0000
0000
0000
0000
0000
0000
0000
,
0330
0000
0000
0000
;

//---------------dance-single - ----------------
#NOTES:
     dance-single:
     :
     Challenge:
     16:
     0.872549,1.001292,0.662012,0.126097,0.713239,775.000000,691.000000,84.000000,16.000000,0.000000,0.000000,0.872549,1.001292,0.662012,0.126097,0.713239,775.000000,691.000000,84.000000,16.000000,0.000000,0.000000:
// measure 0
0000
0000
0000
0000
,  // measure 1
0000
0000
0000
0000
,  // measure 2
0000
0000
0000
0000
,  // measure 3
1000
0100
0001
0100
1000
0010
0001
0010
,  // measure 4
1010
0000
1000
0000
0100
0010
0100
0010
0001
0000
1000
0000
0001
0000
0100
0000
,  // measure 5
0110
0010
1000
0001
0010
0001
0100
0010
,  // measure 6
1000
1100
0000
0000
0001
0011
0000
0000
,  // measure 7
0100
0110
0000
1010
1000
0100
0001
0100
,  // measure 8
1000
0000
0000
0000
0001
0000
1000
0100
1000
0000
0100
0000
0010
0000
0001
0000
,  // measure 9
0000
0000
0011
0000
0000
0000
0001
0000
0010
0000
0100
0000
1000
0001
1000
0000
,  // measure 10
0100
0000
1000
0000
0001
0010
0001
0000
0100
0010
0100
1000
0100
0010
0100
0000
,  // measure 11
0001
1000
0010
0000
1000
0000
0001
1000
0100
0000
0000
0110
0000
0000
0010
0000
,  // measure 12
1010
0000
0000
0011
0000
0000
0001
0000
0101
0000
0000
0110
0000
0000
0010
0000
,  // measure 13
1010
0000
0000
1100
0000
0000
0110
0000
0011
0000
0000
1001
0000
0000
1100
0000
,  // measure 14
0100
0010
0001
0000
0010
0000
0100
0000
1000
0000
0001
0000
0010
0000
0001
0000
,  // measure 15
0100
0010
0001
0000
0010
0000
1000
0000
0100
0000
0010
0000
1000
0000
0010
0000
,  // measure 16
0011
0000
0001
1000
0010
0000
1000
0000
0100
0000
0010
0000
0100
0000
1000
0000
,  // measure 17
0001
0100
0001
0010
0001
0100
0001
0010
0100
0001
0100
0010
0100
1000
0100
0010
,  // measure 18
0001
0001
0100
0100
0010
0010
0100
0100
,  // measure 19
1010
0010
1000
1000
0100
0100
0010
0010
,  // measure 20
0101
0000
1001
0000
0001
0010
0100
1000
,  // measure 21
0001
0000
0100
0000
0010
1000
0001
0000
0100
0000
0100
0000
0001
1000
0100
0000
,  // measure 22
1001
0001
0100
0010
0100
0001
0010
1000
,  // measure 23
0010
0100
1000
0100
0010
1000
0010
0100
,  // measure 24
1000
0001
0100
0001
0010
0100
0001
0100
,  // measure 25
1000
0100
1000
0000
0100
0000
0010
0000
0001
1000
0001
0000
0010
0000
0001
0000
,  // measure 26
0101
0000
1000
0010
0001
0010
1000
0001
,  // measure 27
1000
0100
0001
0100
1000
0010
0100
0001
,  // measure 28
0010
0100
1000
0000
0001
0000
0001
0000
0100
0010
0100
0000
0001
1000
0001
0000
,  // measure 29
0100
0000
0001
0000
0010
0100
0010
0000
1100
0000
0000
0000
1010
0000
0000
0000
,  // measure 30
1001
0000
0000
0000
0011
0000
0000
0000
0001
0000
0100
0000
0001
0000
1000
0010
,  // measure 31
1000
0000
0100
0000
0010
0001
0010
0000
0001
1000
0100
0000
1000
0010
0100
0000
,  // measure 32
0001
0010
0001
0010
0001
0100
0001
0100
0010
0000
1000
0000
0100
0010
0100
0000
,  // measure 33
1000
0001
1000
0000
0100
0000
0010
0000
0001
0000
1000
0000
0100
0000
1000
0000
,  // measure 34
0001
0000
0011
0000
0000
0000
0100
0000
0001
1000
0001
0000
0000
0000
0100
0000
,  // measure 35
0010
0000
1000
0000
0000
0000
1000
0000
0001
0000
0100
0001
0100
0000
0010
0000
,  // measure 36
1000
0000
0100
0000
0010
0001
0010
0000
0010
1000
0010
0000
0010
0001
0010
0000
,  // measure 37
0101
0000
0100
0000
0100
0000
0100
0000
0110
0000
0000
1010
0000
0000
1001
0000
,  // measure 38
0001
0100
0000
0101
0000
0010
1000
0000
1100
0000
0100
0010
0000
0010
0001
0000
,  // measure 39
0101
0000
0100
0010
1000
0001
1000
0100
,  // measure 40
0010
0001
0000
0101
0000
0100
0010
0000
1010
0000
1000
0100
0000
0001
0100
0000
,  // measure 41
1000
0000
1010
0000
0000
0000
0001
0000
0100
0000
0001
0000
0010
0000
0100
0010
,  // measure 42
0100
0000
1000
0001
0000
0011
0000
0010
1000
0000
1010
0000
0011
0000
0000
0001
,  // measure 43
0100
0000
0010
0100
0000
1010
0000
1000
0100
0000
0010
0000
0001
1000
0001
1000
,  // measure 44
0100
0010
0000
0010
0001
0000
1001
0000
1000
0100
0000
1100
0000
0010
0100
0000
,  // measure 45
0010
0000
1000
0001
1000
0001
0100
0001
0100
0010
0100
0010
1000
0010
1000
0010
,  // measure 46
1000
0100
0010
0001
0100
0010
1000
0100
0010
0001
0100
0010
1000
0100
0010
0001
,  // measure 47
2000
3000
2200
3300
2020
3030
0220
0330
0001
0010
0100
1000
0001
0010
0001
0100
,  // measure 48
0010
0000
1000
0000
0010
0000
0100
0000
0001
0000
0010
0000
0010
0000
0100
0000
1000
0000
0001
0000
1000
0000
0001
0000
0100
0000
0000
0110
0000
0000
1010
0000
,  // measure 49
0000
1000
0001
0200
0300
0010
1000
0100
0010
0001
1000
0100
1000
0010
0100
0001
,  // measure 50
0010
0000
0001
0000
1000
0000
0100
0000
0001
0000
0100
0000
1000
0000
0010
0000
0200
0000
0302
0000
0023
0000
0230
0000
1300
0000
0000
0001
0000
0000
1001
0000
,  // measure 51
0000
0010
0100
0001
0000
0100
0010
1000
1002
0000
0000
0000
1003
0000
0010
0000
,  // measure 52
0001
0020
0000
1030
0000
1100
0000
0011
,  // measure 53
0000
0101
0000
0100
0110
0000
0001
1000
,  // measure 54
0100
0000
1000
0000
0010
0000
0100
0000
0001
1000
0001
1000
0001
1000
0001
1000
,  // measure 55
0100
0010
0100
0010
0100
0010
0100
0010
0001
0000
1000
0000
0100
0000
0010
0000
,  // measure 56
0001
0100
0001
1000
1100
0100
0110
0010
,  // measure 57
0011
0001
1001
1000
0100
1000
0010
0100
,  // measure 58
0001
0000
0010
0000
0001
0000
1000
0000
0100
0010
0100
0010
0001
1000
0001
1000
,  // measure 59
0010
1000
0010
1000
0001
0100
0001
0100
0010
0000
1000
0000
0100
0000
0001
0000
,  // measure 60
0100
0000
0010
0001
0010
0000
0001
0000
1000
0001
1000
0000
0100
0000
0010
0000
,  // measure 61
1000
0000
0010
0100
1000
0000
0100
0000
0010
0001
0100
0000
0010
0000
0001
0000
,  // measure 62
0010
0000
1000
0000
0001
0100
0001
0000
0010
0000
0001
0000
0100
0001
0100
0000
,  // measure 63
0010
1000
0010
0100
0001
0010
0100
1000
,  // measure 64
0010
0100
0010
1000
0100
0010
0001
0100
,  // measure 65
0010
1000
0010
0000
1000
0000
0100
0000
0010
0001
0010
0001
0100
0010
0100
0010
,  // measure 66
1000
0100
1000
0100
0010
0000
0011
0000
0000
0000
0101
0000
0000
0000
1100
0000
,  // measure 67
0000
0000
0101
0000
0000
0000
0110
0000
1001
0000
0000
1010
0000
0000
0010
0000
,  // measure 68
0100
0001
0010
0100
1000
0100
0001
0000
0100
1000
0010
0100
0001
0000
1000
0000
,  // measure 69
1001
0000
0001
0000
0101
0000
0100
0000
0110
0000
0000
1010
0000
0000
1000
0000
,  // measure 70
0100
0010
0001
0010
0100
0010
0001
0000
1000
0100
0010
0100
1000
0000
0001
0000
,  // measure 71
0100
0010
0001
0010
0100
0000
0010
0000
1000
0010
0001
0010
1000
0000
0001
0000
,  // measure 72
1000
0010
0100
0010
0001
0010
0100
0000
0001
0100
0000
1100
0000
0000
1000
0000
,  // measure 73
0100
0001
0100
0000
0010
1000
0001
0000
1000
0010
0000
0010
0100
0000
0010
0000
,  // measure 74
0100
0010
0100
0000
0001
0000
0100
0000
0101
0000
0000
1100
0000
0000
1010
0000
,  // measure 75
0011
0000
0000
1001
0000
0000
1100
0000
0101
0000
0000
0011
0000
0000
1001
0000
,  // measure 76
1100
0000
0000
0110
0000
0000
2002
0000
0000
0000
0000
0000
0000
0000
0000
0000
,  // measure 77
3003
0000
0000
0000
;
