#TITLE:Crab Rave;
#SUBTITLE:;
#ARTIST:Noisestorm;
#TITLETRANSLIT:;
#SUBTITLETRANSLIT:;
#ARTISTTRANSLIT:;
#GENRE:;
#CREDIT:;
#BANNER:;
#BACKGROUND:;
#LYRICSPATH:;
#CDTITLE:;
#MUSIC:Crab Rave.ogg;
#OFFSET:-0.021000;
#SAMPLESTART:30.617180;
#SAMPLELENGTH:14.999997;
#SELECTABLE:YES;
#BPMS:0.000000=124.999992
;
#STOPS:
;
#BGCHANGES:;
#KEYSOUNDS:;
#ATTACKS:;

//---------------dance-single - ----------------
#NOTES:
     dance-single:
     :
     Beginner:
     2:
     0.072569,0.123148,0.000000,0.000000,0.000000,66.000000,66.000000,0.000000,0.000000,0.000000,0.000000,0.072569,0.123148,0.000000,0.000000,0.000000,66.000000,66.000000,0.000000,0.000000,0.000000,0.000000:
0000
0000
0000
0000
,
0000
0000
0000
0000
,
0000
0000
0000
0000
,
0000
0000
0000
0000
,
0000
0000
0000
0000
,
0000
0000
0000
0000
,
0000
0000
0000
0000
,
0000
0000
0000
0000
,
0001
0000
0000
0000
,
1000
0000
0000
0000
,
0010
0000
0000
0000
,
0100
0000
0000
0000
,
0001
0000
0000
0000
,
1000
0000
1000
0000
,
1000
0000
0000
0000
,
0001
0000
0001
0000
,
0001
0000
0100
0000
,
0100
0000
0100
0000
,
0010
0000
0000
0000
,
1000
0000
0000
0000
,
0001
0000
0000
0000
,
0100
0000
0000
0000
,
0010
0000
0000
0000
,
1000
0000
0000
0000
,
0001
0000
0000
0000
,
0100
0000
0000
0000
,
0001
0000
0000
0000
,
1000
0000
0000
0000
,
0001
0000
0000
0000
,
0010
0000
0000
0000
,
0001
0000
0000
0000
,
1000
0000
0000
0000
,
0010
0000
0000
0000
,
0100
0000
0000
0000
,
0001
0000
0000
0000
,
1000
0000
0000
0000
,
0001
0000
0000
0000
,
1000
0000
0000
0000
,
0010
0000
0000
0000
,
0000
0100
0000
0000
,
0001
0000
0000
0000
,
1000
0000
0000
0000
,
0001
0000
0000
0000
,
1000
0000
0000
0000
,
0001
0000
0000
0000
,
0100
0000
0000
0000
,
0001
0000
0000
0000
,
1000
0000
0000
0000
,
0010
0000
0010
0000
,
0100
0000
0100
0000
,
0001
0000
0000
0000
,
0001
0000
0000
0000
,
1000
0000
0000
0000
,
1000
0000
0000
0000
,
0010
0000
0000
0000
,
0100
0000
0000
0000
,
0001
0000
1000
0000
,
0001
0000
0000
0000
,
1000
0000
0000
0000
,
1000
0000
0000
0000
,
0001
0000
0001
0000
,
0001
0000
0000
0000
,
0100
0000
0100
0000
,
0100
0000
0000
0000
,
0010
0000
0000
0000
;

//---------------dance-single - ----------------
#NOTES:
     dance-single:
     :
     Easy:
     3:
     0.142940,0.197037,0.007697,0.138541,0.000000,130.000000,129.000000,1.000000,18.000000,0.000000,0.000000,0.142940,0.197037,0.007697,0.138541,0.000000,130.000000,129.000000,1.000000,18.000000,0.000000,0.000000:
0000
0000
0000
0000
,
0000
0000
0000
0000
,
0000
0000
0000
0000
,
0000
0000
0000
0000
,
0000
0000
0000
0000
,
0000
0000
0000
0000
,
0000
0000
0000
0000
,
0000
0000
0000
0000
,
0001
0000
1000
0000
,
0001
0001
0100
0000
,
0010
0010
1000
0000
,
0001
0000
1000
0000
,
0100
0100
1000
0000
,
0010
0010
0100
0000
,
0001
1000
0001
0000
,
2002
0000
0000
3003
,
0010
0000
0010
0000
,
0100
0000
0100
0000
,
0001
0000
0001
0000
,
1000
0000
1000
0000
,
0010
0000
0010
0000
,
0100
0000
0100
0000
,
0001
0000
0001
0000
,
1000
0000
1000
0000
,
0010
0000
0010
0000
,
0100
0000
0100
0000
,
0001
0000
0001
0000
,
1000
0000
1000
0000
,
0100
0000
0100
0000
,
0010
0000
0010
0000
,
0001
0000
0001
0000
,
1000
0000
1000
0000
,
0020
0000
0000
0200
,
0030
0302
0000
2003
,
0000
3002
0000
2003
,
0000
3002
0000
0203
,
0000
0320
0000
2030
,
0000
3002
0000
0203
,
0000
0320
0000
0230
,
0000
0302
0000
2003
,
0000
3010
0010
0010
,
0100
0100
0100
0000
,
0001
0001
0001
0000
,
1000
1000
1000
0000
,
0010
0000
0010
0000
,
0100
0000
0100
0000
,
0001
0000
0001
0000
,
1000
1000
1000
1000
,
0001
0000
0100
0000
,
0001
0000
1000
0000
,
0010
0000
1000
0000
,
0001
0000
0100
0000
,
0001
0000
0010
0000
,
0001
0001
1000
0000
,
0100
0100
1000
0000
,
0010
0010
0100
0000
,
0001
0000
0001
0000
,
0100
0000
0100
0000
,
0010
0000
0010
0000
,
1000
0000
1000
1000
,
0001
0000
0001
0000
,
0100
0000
0100
0010
,
0100
0000
0001
0000
,
1000
0001
1000
0000
,
0010
0000
0000
0000
;

//---------------dance-single - ----------------
#NOTES:
     dance-single:
     :
     Medium:
     8:
     0.396932,0.443333,0.854339,0.130845,0.000000,361.000000,250.000000,111.000000,17.000000,0.000000,0.000000,0.396932,0.443333,0.854339,0.130845,0.000000,361.000000,250.000000,111.000000,17.000000,0.000000,0.000000:
0000
0000
0000
0000
,
0000
0000
0000
0000
,
0000
0000
0000
0000
,
0000
0000
0000
0000
,
0000
0000
0000
0000
,
0000
0000
0000
0000
,
0000
0000
0000
0000
,
0000
0000
0000
0000
,
1000
1000
0001
0100
,
0001
0010
0001
1001
,
1000
0010
0110
0100
,
0101
0001
1001
1010
,
0110
0101
1001
1010
,
0110
0011
0110
1100
,
1001
0110
1001
0110
,
2001
0010
0001
0010
,
3001
0001
0001
0000
1000
1000
1000
0000
,
0001
0001
0001
0000
0100
0100
0100
0000
,
0010
0100
0001
0000
1000
0010
0001
0000
,
1000
0100
0001
0000
0001
0010
1000
0000
,
0001
0100
1000
0000
0001
0010
1000
0000
,
0001
0100
1000
0000
0001
0010
1000
0000
,
1000
0100
0001
0010
1000
0100
0001
0010
,
1000
0100
0001
0010
1000
0100
0001
0010
,
1000
0001
0100
0000
0001
1000
0010
0000
,
0001
0100
1000
0000
0100
0001
0010
1000
,
0010
0001
0100
0000
1000
0100
0001
0000
,
0010
1000
0010
0000
0001
0100
1000
0100
,
0001
1000
0010
0000
0100
0001
1000
0000
,
0010
1000
0100
0000
0010
0001
0100
0000
,
0010
1000
0001
0000
0001
0100
0010
0000
,
0100
0010
1000
0000
1000
0100
0001
0100
,
2000
0000
3002
0000
,
0203
0000
0320
0000
,
2030
0000
3002
0000
,
0023
0000
0230
0000
,
2300
0000
3002
0000
,
0203
0000
0320
0000
,
2030
0000
3002
0000
,
0203
0000
0320
0000
,
1030
1100
1001
1010
,
0101
1001
0101
1001
,
0110
0110
0110
0110
,
1001
1001
1001
1001
,
0101
0110
1100
0101
,
0011
1010
0011
0101
,
0110
1001
0110
1001
,
1100
0011
1100
0011
,
1000
1000
0001
0100
0001
0000
1001
0000
,
1100
1100
0011
0011
,
1100
0101
1100
0011
,
1100
0011
0101
1100
,
0101
1100
0110
1001
,
0110
1001
1100
0011
,
1100
0011
1100
0011
,
1001
0110
1001
0110
,
1001
1001
0110
0110
,
0011
0011
1100
1100
,
1001
1001
1100
1100
,
0101
0101
0011
0011
,
1010
1010
0101
0101
,
1100
1100
0110
0110
,
1001
1001
0110
0110
,
1001
1001
1100
0011
,
1001
0000
0000
0000
;

//---------------dance-single - ----------------
#NOTES:
     dance-single:
     :
     Hard:
     13:
     0.560763,0.664999,0.615740,0.123148,0.573408,510.000000,430.000000,80.000000,16.000000,0.000000,0.000000,0.560763,0.664999,0.615740,0.123148,0.573408,510.000000,430.000000,80.000000,16.000000,0.000000,0.000000:
// measure 0
0000
0000
0000
0000
,  // measure 1
0000
0000
0000
0000
,  // measure 2
0000
0000
0000
0000
,  // measure 3
0000
0000
0000
0000
,  // measure 4
0000
0000
0000
0000
,  // measure 5
0000
0000
0000
0000
,  // measure 6
0000
0000
0000
0000
,  // measure 7
0000
0000
0000
0000
,  // measure 8
1001
0000
0000
0000
0110
0000
0000
0010
0000
1000
0000
0001
1000
0000
0000
0000
,  // measure 9
1010
0000
0000
0000
0101
0000
0000
0001
0000
0000
0010
0000
1000
0000
0010
0000
,  // measure 10
0001
0000
0000
0000
1001
0000
0000
0100
0000
1000
0000
0000
0101
0000
0000
0000
,  // measure 11
1001
0000
0000
0000
0110
0000
0000
0001
0000
0000
0100
0000
0010
0000
1000
0000
,  // measure 12
1100
1100
0011
0011
,  // measure 13
0110
0110
1001
1001
,  // measure 14
0001
1000
0001
0000
1000
0010
1000
0000
0001
0100
0001
0000
0010
0001
0010
0000
,  // measure 15
0011
0001
1100
1000
0110
0100
1001
0001
,  // measure 16
0100
0000
1000
0000
0100
0000
0001
0100
0000
1000
0100
0000
0001
0000
0010
1000
,  // measure 17
0000
0010
0001
0000
0010
0000
0001
0100
0000
0001
0000
1000
0000
0010
1000
0000
,  // measure 18
0010
0000
0100
0000
0001
0000
0100
0001
0000
1000
0001
0000
0010
0000
0100
1000
,  // measure 19
0000
0100
0010
0000
0001
0000
1000
0001
0000
0010
0000
0001
0000
0100
0001
0000
,  // measure 20
0100
0000
1000
0000
0100
0000
0001
0010
0000
0001
0010
0000
0100
0000
1000
0010
,  // measure 21
0000
1000
0010
0000
0100
0000
0001
1000
0000
1000
0000
0010
0000
0010
0100
0000
,  // measure 22
0001
0000
1000
0000
0001
0000
0100
0010
0000
1000
0010
0000
0100
0000
0001
0010
,  // measure 23
0000
0001
0100
0000
0010
0000
1000
0001
0000
0001
0000
0100
0000
0100
0010
0000
,  // measure 24
1000
0000
0100
0000
1100
0000
0010
0001
0000
0010
0001
0000
1001
0000
1000
0001
,  // measure 25
0000
1000
0001
0000
0101
0000
0100
0010
0000
1000
0000
0001
0000
1000
0010
0000
,  // measure 26
0100
0000
0001
0000
0101
0000
0001
0010
0000
1000
0010
0000
0101
0000
0100
1000
,  // measure 27
0000
0100
0001
0000
1100
0000
0100
0001
0000
0100
0000
1100
0000
0001
1000
0001
,  // measure 28
1000
0000
0010
0000
0100
0000
0001
0010
0000
0010
1000
0000
0001
0000
1000
0100
,  // measure 29
0000
0100
0001
0000
1000
0000
0010
0100
0000
0001
0000
0100
0000
0010
0100
0010
,  // measure 30
1000
0000
0001
0000
1001
0000
0001
0100
0000
0100
0010
0000
0110
0000
0010
0100
,  // measure 31
0000
0100
0001
0000
1000
0000
0010
1000
0000
0001
0000
1000
0000
0001
0100
0001
,  // measure 32
2000
0000
3200
0000
,  // measure 33
0302
0000
2003
0000
,  // measure 34
3020
0000
0032
0000
,  // measure 35
2003
0000
3200
0000
,  // measure 36
0320
0000
0032
0000
,  // measure 37
0023
0000
2030
0000
,  // measure 38
3020
0000
0032
0000
,  // measure 39
0203
0000
0320
0000
,  // measure 40
1030
0000
0011
0000
0101
0100
0110
0000
,  // measure 41
1001
0000
1100
0000
0100
0010
0001
0010
,  // measure 42
0100
0000
1001
0000
0110
0100
0110
0000
,  // measure 43
1001
0000
1100
0000
0110
0010
0011
0001
,  // measure 44
1001
1100
0011
1100
,  // measure 45
1001
0000
0110
0000
1001
0001
0101
0100
,  // measure 46
0010
1000
0010
0000
1000
0100
1000
0000
0001
0010
0001
0000
1000
0001
1000
0000
,  // measure 47
1001
0100
1010
0001
0110
0001
1100
0001
,  // measure 48
1001
0000
1000
0000
0100
0000
0010
0001
0000
0001
0100
0000
0110
0000
0010
1000
,  // measure 49
0000
1000
0001
0000
0101
0000
0100
0001
0000
0001
0000
1000
0000
1000
0010
0000
,  // measure 50
1000
0000
0010
0000
0001
0000
0010
1000
0000
1000
0100
0000
0001
0000
0100
1000
,  // measure 51
0000
1000
0010
0000
0100
0000
0010
0001
0000
0001
0000
0001
0000
0010
1000
0000
,  // measure 52
1001
0000
0001
0000
0100
0000
0010
1000
0000
1000
0100
0000
0110
0000
0010
0001
,  // measure 53
0000
0001
0100
0000
0110
0000
0010
1000
0000
0001
0000
1001
0000
1000
0010
0000
,  // measure 54
0100
0000
0001
0000
0011
0000
0010
1000
0000
1000
0010
0000
0011
0000
0001
0100
,  // measure 55
0000
0100
1000
0000
1100
0000
0100
0001
0000
0011
0000
0110
0000
0100
1000
0000
,  // measure 56
1001
0000
0001
0000
0101
0000
0100
0010
0000
0010
1000
0000
1001
0000
0001
0100
,  // measure 57
0000
0100
0010
0000
1010
0000
1000
0001
0000
0010
0000
0011
0000
0001
0100
0000
,  // measure 58
0010
0000
1000
0000
1001
0000
0001
0100
0000
0100
1000
0000
0001
0000
1000
0010
,  // measure 59
0000
0010
0001
0000
1000
0000
0010
1000
0000
1001
0000
0101
0000
0100
0001
1000
,  // measure 60
0001
0000
1000
0000
0010
0000
1000
0100
0000
0100
0001
0000
0100
0000
1000
0010
,  // measure 61
0000
0010
0001
0000
0010
0000
1000
0001
0000
1001
0000
1010
0000
0010
0100
0001
,  // measure 62
0100
0000
0001
0000
0101
0000
0001
0010
0000
0100
1000
0000
1001
0000
1000
0100
,  // measure 63
0000
0010
0001
0000
0101
0000
0100
0010
0000
1010
0000
1001
0000
0001
0100
0001
,  // measure 64
0100
0000
0000
0000
;

//---------------dance-single - ----------------
#NOTES:
     dance-single:
     :
     Challenge:
     14:
     0.589351,0.714258,0.661920,0.123148,0.638830,536.000000,450.000000,86.000000,16.000000,32.000000,0.000000,0.589351,0.714258,0.661920,0.123148,0.638830,536.000000,450.000000,86.000000,16.000000,32.000000,0.000000:
// measure 0
0000
0000
0000
0000
,  // measure 1
0000
0000
0000
0000
,  // measure 2
0000
0000
0000
0000
,  // measure 3
0000
0000
0000
0000
,  // measure 4
0000
0000
0000
0000
,  // measure 5
0000
0000
0000
0000
,  // measure 6
0000
0000
0000
0000
,  // measure 7
0000
0000
0000
0000
,  // measure 8
1001
0000
0000
0000
0110
0000
0000
0010
0000
1000
0000
0001
1000
0000
0000
0000
,  // measure 9
1010
0000
0000
0000
0101
0000
0000
0001
0000
0000
0010
0000
1000
0000
0010
0000
,  // measure 10
0001
0000
0000
0000
1001
0000
0000
0100
0000
1000
0000
0000
0101
0000
0000
0000
,  // measure 11
1001
0000
0000
0000
0110
0000
0000
0001
0000
0000
0100
0000
0010
0000
1000
0000
,  // measure 12
1100
1100
0011
0011
,  // measure 13
0110
0110
1001
1001
,  // measure 14
0001
1000
0001
1000
0100
0010
0100
0010
0001
0100
0001
0100
0010
1000
0010
1000
,  // measure 15
0001
0101
1000
1100
0010
0110
0001
0101
,  // measure 16
0100
0000
1000
0000
0100
0000
0001
0100
0000
1000
0100
0000
0001
0000
0010
1000
,  // measure 17
0000
0010
0001
0000
0010
0000
1000
0010
0000
0001
0000
1000
0000
0100
1000
0100
,  // measure 18
0010
0000
0001
0000
0001
0000
0100
0001
0000
1000
0001
0000
0010
0000
0100
1000
,  // measure 19
0000
0100
0010
0000
0001
0000
1000
0001
0000
0100
0000
0010
0000
1000
0010
1000
,  // measure 20
0001
0000
0100
0000
0110
0000
0010
1000
0000
0001
1000
0000
0001
0000
0010
0001
,  // measure 21
0000
1000
0001
0000
1000
0000
0010
1000
0000
0010
0000
0100
0000
0001
0010
0001
,  // measure 22
1000
0000
0001
0000
0100
0000
0010
1000
0000
0100
1000
0000
0001
0000
0100
0001
,  // measure 23
0000
0010
0001
0000
1000
0000
0100
0001
0000
0100
0000
0010
0000
0001
1000
0001
,  // measure 24
1000
0000
0100
0000
0110
0000
0010
0001
0000
0010
0001
0000
1001
0000
1000
0001
,  // measure 25
0000
1000
0001
0000
0101
0000
0100
0010
0000
1000
0000
0001
0000
1000
0010
0100
,  // measure 26
0010
0000
1000
0000
1001
0000
0010
0001
0000
0010
0001
0000
0101
0000
0100
0010
,  // measure 27
0000
0100
0010
0000
1010
0000
1000
0100
0000
1100
0000
1010
0000
0001
0100
0001
,  // measure 28
0100
0000
0010
0000
0100
0000
0001
0010
0000
0010
1000
0000
0001
0000
1000
0100
,  // measure 29
0000
0100
0001
0000
1000
0000
0010
0100
0000
0110
0000
1001
0000
0001
0010
0100
,  // measure 30
1000
0000
0001
0000
1001
0000
0001
0100
0000
0100
1000
0000
0001
0000
1000
0010
,  // measure 31
0000
0010
0001
0000
1000
0000
0010
1000
0000
1100
0000
0011
0000
0001
0100
0001
,  // measure 32
2000
0000
3200
0000
,  // measure 33
0302
0000
2003
0000
,  // measure 34
3020
0000
0032
0000
,  // measure 35
2003
0000
3200
0000
,  // measure 36
0320
0000
0032
0000
,  // measure 37
0023
0000
2030
0000
,  // measure 38
3020
0000
0032
0000
,  // measure 39
0203
0000
0320
0000
,  // measure 40
1030
0000
0011
0000
0101
0100
0110
0000
,  // measure 41
1001
0000
1100
0000
0110
0000
0011
0001
,  // measure 42
1001
0000
1001
0000
0101
0100
0110
0000
,  // measure 43
1010
0000
1100
0000
0110
0010
0011
0001
,  // measure 44
1001
1100
0011
1100
,  // measure 45
1001
0000
0110
0000
1001
0001
0101
0100
,  // measure 46
0010
1000
0010
1000
0100
0010
0100
0010
0001
0100
0001
0100
0010
1000
0010
1000
,  // measure 47
0001
0110
1000
0110
0001
0110
1000
0001
,  // measure 48
1001
0000
1000
0000
0100
0000
0010
0001
0000
0001
0100
0000
0110
0000
0010
1000
,  // measure 49
0000
1000
0001
0000
0101
0000
0100
0010
0000
0110
0000
MMMM
0000
0100
0001
1000
,  // measure 50
0100
0000
0010
0000
0001
0000
1000
0100
1000
0100
1000
0000
0001
0000
0100
0010
,  // measure 51
0100
0010
0100
0000
0001
0000
0010
0001
0000
0011
0000
MMMM
0000
0010
1000
0100
,  // measure 52
1000
0000
0001
0000
0100
0000
0010
1000
0010
1000
0100
0000
0110
0000
0010
0001
,  // measure 53
0010
0001
0100
0000
0110
0000
0010
1000
0000
1001
0000
MMMM
0000
0100
0010
1000
,  // measure 54
0001
0000
0011
0000
1001
0000
1000
0100
1000
0100
1000
0000
1001
0000
0001
0100
,  // measure 55
0001
0100
0001
0000
1001
0000
1000
0001
0000
0011
0000
MMMM
0000
0100
1000
0000
,  // measure 56
1001
0000
0001
0000
0101
0000
0100
0010
1000
0010
1000
0000
1001
0000
0001
0100
,  // measure 57
0010
0100
0010
0000
1010
0000
1000
0001
0000
0011
0000
MMMM
0000
0001
0100
0010
,  // measure 58
1000
0000
0001
0000
1001
0000
0001
0100
0000
0100
1000
0000
0001
0000
1000
0100
,  // measure 59
0000
0100
0001
0000
1001
0000
1000
0010
0000
0110
0000
MMMM
0000
0100
0001
1000
,  // measure 60
0100
0000
1000
0000
0010
0000
1000
0100
1000
0100
0001
0000
0100
0000
1000
0010
,  // measure 61
1000
0010
0001
0000
0010
0000
1000
0010
0000
0110
0000
MMMM
0000
1000
0100
0010
,  // measure 62
0001
0000
0100
0000
0101
0000
0001
0010
0001
0010
1000
0000
0011
0000
1000
0100
,  // measure 63
1000
0100
0001
0000
0110
0000
0100
0010
0000
0011
0000
MMMM
0000
0001
0010
0100
,  // measure 64
1000
0000
0000
0000
;
