#TITLE:Celebrate Nite (Planet Lution Remix);
#SUBTITLE:;
#ARTIST:NMR;
#TITLETRANSLIT:;
#SUBTITLETRANSLIT:;
#ARTISTTRANSLIT:;
#GENRE:;
#CREDIT:;
#BANNER:Celebrate Nite (Planet Lution Remix).png;
#BACKGROUND:Celebrate Nite (Planet Lution Remix)-bg.png;
#LYRICSPATH:;
#CDTITLE:;
#MUSIC:Celebrate Nite (planet lution remix).ogg;
#OFFSET:-0.332000;
#SAMPLESTART:28.067524;
#SAMPLELENGTH:12.000000;
#SELECTABLE:YES;
#BPMS:0.000000=172.906998
;
#STOPS:
;
#BGCHANGES:;
#KEYSOUNDS:;
#ATTACKS:;

//---------------dance-single - ----------------
#NOTES:
     dance-single:
     :
     Beginner:
     2:
     0.122162,0.179340,0.000000,0.000000,0.000000,90.000000,90.000000,0.000000,0.000000,0.000000,0.000000,0.122162,0.179340,0.000000,0.000000,0.000000,90.000000,90.000000,0.000000,0.000000,0.000000,0.000000:
0000
0000
0000
0000
,
0000
0000
0000
0000
,
0000
0000
0000
0000
,
0000
0000
0000
0000
,
0000
0000
0000
0000
,
0000
0000
0000
0000
,
1000
0000
0000
0000
,
0001
0000
0000
0000
,
0100
0000
0000
0000
,
0100
0000
0000
0000
,
0010
0000
0000
0000
,
1000
0000
0000
0000
,
0001
0000
0000
0000
,
1000
0000
0000
0000
,
0100
0000
0000
0000
,
1000
0000
0000
0000
,
0010
0000
0010
0000
,
0100
0000
0100
0000
,
0001
0000
0000
0000
,
1000
0000
1000
0000
,
0001
0000
0000
0000
,
0001
0000
0001
0000
,
0100
0000
0000
0000
,
0100
0000
0100
0000
,
0010
0000
0000
0000
,
0010
0000
0010
0000
,
1000
0000
0000
0000
,
1000
0000
1000
0000
,
0001
0000
0000
0000
,
0001
0000
0001
0000
,
0100
0000
0000
0000
,
0100
0000
0100
0000
,
0010
0000
0000
0000
,
1000
0000
1000
0000
,
0001
0000
0000
0000
,
0100
0000
0100
0000
,
0010
0000
0000
0000
,
1000
0000
1000
0000
,
0010
0000
0000
0000
,
0010
0000
0010
0000
,
0100
0000
0000
0000
,
0001
0000
0001
0000
,
1000
0000
0000
0000
,
1000
0000
1000
0000
,
0001
0000
0000
0000
,
0001
0000
0001
0000
,
0010
0000
0000
0000
,
0100
0000
0100
0000
,
1000
0000
0000
0000
,
0001
0000
0001
0000
,
0010
0000
0000
0000
,
0010
0000
0010
0000
,
0100
0000
0000
0000
,
1000
0000
0000
0000
,
0001
0000
0000
0000
,
1000
0000
0000
0000
,
0100
0000
0000
0000
,
0010
0000
0000
0000
,
0001
0000
0000
0000
,
1000
0000
0000
0000
,
0001
0000
0000
0000
,
0100
0000
0000
0000
,
0010
0000
0000
0000
,
1000
0000
0000
0000
,
0001
0000
0000
0000
,
1000
0000
0000
0000
,
0100
0000
0000
0000
,
1000
0000
0000
0000
,
0010
0000
0000
0000
,
0010
0000
0000
0000
,
0100
0000
0000
0000
,
0100
0000
0000
0000
,
0001
0000
0000
0000
,
0001
0000
0000
0000
,
1000
0000
0000
0000
,
0010
0000
0100
0000
;

//---------------dance-single - ----------------
#NOTES:
     dance-single:
     :
     Easy:
     4:
     0.195459,0.251076,0.000000,0.123519,0.000000,144.000000,144.000000,0.000000,13.000000,0.000000,0.000000,0.195459,0.251076,0.000000,0.123519,0.000000,144.000000,144.000000,0.000000,13.000000,0.000000,0.000000:
0000
0000
0000
0000
,
0000
0000
0000
0000
,
0000
0000
0000
0000
,
0000
0000
0000
0000
,
0000
0000
0000
0000
,
0000
0000
0000
0000
,
1000
0100
1000
0000
,
0010
0100
0010
0000
,
0100
0001
0100
0000
,
0001
0000
0001
0000
,
1000
0000
1000
0000
,
0010
0000
0010
0000
,
0100
0000
0100
0000
,
0001
0000
0001
0000
,
1000
0000
0001
0000
,
1000
0000
0000
0000
,
0010
0000
0100
0000
,
0010
0000
0100
0000
,
0010
0000
0100
0000
,
0001
1000
0001
0000
,
1000
1000
0010
0000
,
0100
0000
0100
0000
,
0001
0001
1000
0000
,
1000
0000
1000
0000
,
0010
0000
0010
0000
,
0100
0000
0100
0000
,
0001
0000
1000
0000
,
0001
0001
0100
0000
,
0010
0000
0000
0000
,
2000
0000
0000
0000
,
3020
0000
0000
0000
,
0230
0000
0000
0000
,
0302
0000
0000
0000
,
2003
0000
0000
0000
,
3020
0000
0000
0000
,
0230
0000
0000
0000
,
0301
0000
0001
0000
,
1000
0000
1000
0000
,
0100
0000
0100
0000
,
0010
0000
0010
0000
,
0001
0000
0001
0000
,
1000
0100
1000
0000
,
0010
0000
0010
0000
,
0100
0010
0100
0000
,
0001
1000
0001
0000
,
1000
0000
1000
0000
,
0100
1000
0100
0000
,
0010
0000
0010
0000
,
0001
0000
0001
0000
,
1000
0000
1000
0000
,
0010
0000
0010
0000
,
0100
0000
0001
0000
,
0100
0000
0000
0000
,
0020
0000
0000
0000
,
2030
0000
0000
0000
,
3002
0000
0000
0000
,
0203
0000
0000
0000
,
0320
0000
0000
0000
,
2030
0000
0000
0000
,
3001
0100
0001
0100
,
0010
0000
0010
0000
,
1000
0001
1000
0000
,
0001
1000
0001
0000
,
0100
0010
0100
0000
,
0010
1000
0010
0000
,
1000
0100
1000
0000
,
0001
0000
0001
0000
,
1000
0000
1000
0000
,
0010
0000
0010
0000
,
0100
0000
0100
0000
,
0001
0000
0001
0000
,
1000
0000
1000
0000
,
0010
0100
0010
0000
,
0100
0000
0001
0000
,
1000
0000
0001
0000
,
1000
0001
1000
0000
;

//---------------dance-single - ----------------
#NOTES:
     dance-single:
     :
     Medium:
     8:
     0.343410,0.394548,0.000000,0.104516,0.000000,253.000000,253.000000,0.000000,11.000000,0.000000,0.000000,0.343410,0.394548,0.000000,0.104516,0.000000,253.000000,253.000000,0.000000,11.000000,0.000000,0.000000:
0000
0000
0000
0000
,
0000
0000
0000
0000
,
0000
0000
0000
0000
,
0000
0000
0000
0000
,
0000
0000
0000
0000
,
0000
0000
0000
0000
,
1000
0100
1000
0010
,
0100
0001
0010
0001
,
1000
0100
1000
0000
0010
0000
0100
0000
,
0001
0010
0001
1000
,
0100
0010
0001
1000
,
0001
0010
0100
1000
,
0002
0000
1003
0010
,
2000
0000
3100
0010
,
0002
0000
1003
0100
,
1000
0010
1000
0000
,
0100
0010
0001
0000
,
0010
0100
1000
0000
,
0001
1000
0001
1000
,
0010
0100
0010
0100
,
0001
1000
0001
0000
1000
0000
0100
0000
,
1000
0010
0100
0000
,
0001
0010
1000
0000
,
0010
0001
0100
0000
,
1000
0100
0001
0010
,
0100
1000
0100
0000
,
0010
0001
0100
0010
,
1000
0010
1000
0000
0010
1000
0010
0000
,
2000
0000
0001
0000
,
3002
0000
0100
0000
,
0203
0000
0010
0000
,
0320
0000
0000
0000
,
1030
0001
1000
0001
,
0100
0010
0100
0010
,
1000
0001
1000
0000
0001
1000
0001
0000
,
0100
0000
0000
0000
,
0010
1000
0010
1000
,
0100
0010
0001
1000
,
0001
0100
0010
0100
,
0001
1000
0010
0000
,
1000
0100
1000
0000
,
0010
0100
0010
0000
,
0100
0001
0100
0001
,
0010
0001
0010
0000
,
0100
1000
0100
1000
,
0001
1000
0001
0000
1000
0000
0000
0000
,
0010
0100
0010
0000
0100
0000
0000
0000
,
0010
1000
0001
0000
,
1000
0100
1000
0000
,
0010
0001
0010
0000
,
1000
0100
1000
0000
0100
0000
0010
0000
,
0001
1000
0001
1000
,
0200
0000
1000
0000
,
2300
0000
0001
0000
,
3002
0000
0010
0000
,
0023
0000
0100
0000
,
0130
0100
1000
1000
,
0001
0001
1000
1000
,
0010
0100
0010
0000
0100
0010
0100
0000
,
0010
1000
0001
1000
,
0001
1000
0001
0000
0100
0000
0001
0000
,
0010
0001
1000
0100
,
1000
0010
0100
0010
,
1000
0001
0010
0001
,
0100
0010
1000
0010
,
0100
0001
1000
0001
,
0100
0010
1000
0010
,
0100
0001
0100
0000
0000
0000
0000
0000
,
0001
1000
0001
0000
1000
0000
0010
0000
,
0100
0100
0010
0010
,
1000
0000
0001
0000
1000
0001
1000
0000
,
0001
0001
0100
0100
,
0010
1000
0010
1000
,
0010
0100
0010
0000
,
1000
0001
1000
0000
0001
0000
0100
0000
,
0001
0010
0100
0000
;

//---------------dance-single - ----------------
#NOTES:
     dance-single:
     :
     Hard:
     13:
     0.734327,0.753228,0.047507,0.142522,0.247038,541.000000,536.000000,5.000000,15.000000,0.000000,0.000000,0.734327,0.753228,0.047507,0.142522,0.247038,541.000000,536.000000,5.000000,15.000000,0.000000,0.000000:
// measure 0
0000
0000
0000
0000
,  // measure 1
0000
0000
0000
0000
,  // measure 2
0000
0000
0000
0000
,  // measure 3
0000
0000
0000
0000
,  // measure 4
0001
0100
0001
0100
1000
0100
1000
0100
,  // measure 5
0001
0010
0001
0010
1000
0010
1000
0010
,  // measure 6
0100
0010
0100
0010
0001
0010
0001
0010
,  // measure 7
0001
0010
0100
1000
0001
1000
0100
0010
,  // measure 8
0001
0100
0010
0100
0001
0100
0010
0100
,  // measure 9
0001
1000
0100
1000
0001
1000
0100
1000
,  // measure 10
0001
0010
0001
0010
0100
1000
0100
1000
,  // measure 11
0010
0000
0100
0000
0010
0000
0100
0000
0001
0100
0001
0000
0100
0001
0100
0000
,  // measure 12
0001
0000
0010
0000
0100
0000
1000
0000
0100
1000
0000
0010
1000
0000
0000
0000
,  // measure 13
0001
0010
0100
0100
0010
0001
1000
1000
,  // measure 14
0010
0100
0000
0010
0100
0000
0001
0000
1000
0000
0000
0000
0001
0000
1000
0000
,  // measure 15
0010
1000
0000
0010
0100
0000
0000
0000
0001
0000
0010
0000
0100
0000
0000
0000
,  // measure 16
0010
0000
0001
0000
1000
0000
0001
0000
0100
0001
0000
0100
0001
0000
1000
0000
,  // measure 17
0010
0100
0001
0000
0001
0100
0010
1000
,  // measure 18
0010
0100
0010
1000
0010
1000
0100
0010
,  // measure 19
0001
1000
0001
0000
1000
0000
0000
0000
0010
0000
0100
0010
0100
0000
0001
0000
,  // measure 20
1000
0000
0100
0000
1000
0000
0010
0000
0100
0001
0000
0100
0001
0000
1000
0000
,  // measure 21
0010
1000
0010
0100
0001
0100
0001
0000
,  // measure 22
1000
0000
0001
0000
0010
0000
0001
0000
1000
0100
0000
1000
0010
0000
0100
0000
,  // measure 23
0001
0000
0010
0000
0100
0000
1000
0000
0001
0100
0001
0000
0101
0000
0000
0000
,  // measure 24
1001
0000
0000
0000
1010
0000
0000
0000
0110
0000
0000
0000
0010
0000
1000
0001
,  // measure 25
1000
0010
0100
0001
1000
0010
1000
0001
,  // measure 26
0010
0001
0100
0010
1000
0000
0100
0010
,  // measure 27
0001
0000
0100
0000
0001
0000
0010
0000
0001
0100
0001
0000
1000
0001
1000
0000
,  // measure 28
0020
0000
0000
0100
0100
0000
0000
0001
,  // measure 29
0001
0000
0000
1000
1000
0000
0000
0001
,  // measure 30
0032
0000
0000
0100
0100
0000
0000
0010
,  // measure 31
0023
0000
0000
0100
0100
0000
0000
1000
,  // measure 32
2030
0000
0000
0000
0001
0000
0000
0001
,  // measure 33
3002
0000
0000
1000
2003
0000
0000
0010
,  // measure 34
3020
0000
0000
1000
2030
0000
0000
0001
,  // measure 35
3100
0000
0100
0000
0010
0000
0010
0000
1000
0001
1000
0000
0001
1000
0001
0000
,  // measure 36
0100
1000
0100
0001
1000
0010
1000
0000
,  // measure 37
0001
0010
1000
0001
0100
1000
0001
0010
,  // measure 38
1000
0001
0100
1000
0100
0010
0001
1000
,  // measure 39
0001
0000
0100
0000
0010
0000
0000
0000
1000
0100
0000
1000
0001
0000
1000
0001
,  // measure 40
1000
0100
0001
0000
1000
0100
0001
0000
,  // measure 41
1000
0010
0001
0000
1000
0100
0001
0000
,  // measure 42
0001
0010
1000
0000
0001
0100
1000
0000
,  // measure 43
1000
0010
1000
0000
0001
0000
0100
0000
0001
0000
0100
0010
0100
0000
0001
0000
,  // measure 44
1000
0000
0100
0000
0010
0000
0100
0000
1000
0001
0000
1000
0001
0000
0100
0000
,  // measure 45
0010
0100
0001
0100
0010
1000
0100
1000
,  // measure 46
0001
0000
0010
0000
0100
0000
0010
0000
0001
0100
0000
0001
1000
0000
0010
0000
,  // measure 47
0100
0010
0001
0010
0100
0001
1000
0010
,  // measure 48
0100
0000
0010
0000
1000
0000
0010
0000
0100
0010
0000
1000
0010
0000
1000
0000
,  // measure 49
0001
0000
0010
0000
0100
0000
0010
0000
0001
0000
1000
0100
1000
0000
0010
0000
,  // measure 50
1000
0100
0001
0100
1000
0000
0001
0010
,  // measure 51
0100
0000
0010
0000
0001
0000
0010
0000
0100
0000
1000
0000
0001
1000
0001
0000
,  // measure 52
0200
0000
0000
0010
0010
0000
0000
1000
,  // measure 53
0010
0000
0000
0010
0001
0000
0000
0001
,  // measure 54
0302
0000
0000
1000
0100
0000
0000
1000
,  // measure 55
2003
0000
0000
0001
0100
0000
0000
0001
,  // measure 56
3100
1000
0200
0000
0301
1000
0020
0000
,  // measure 57
1030
0001
0200
0000
0301
1000
0200
0000
,  // measure 58
1300
0001
1000
0001
0010
0100
0010
0100
,  // measure 59
1000
0000
0001
0000
1000
0000
0001
0000
0100
0000
0010
0000
0100
0010
0100
0000
,  // measure 60
0001
0100
1000
0001
0010
1000
0001
0000
,  // measure 61
1000
0100
0001
1000
0010
0001
1000
0100
,  // measure 62
0001
1000
0010
0100
0001
0010
0001
1000
,  // measure 63
0010
0000
0100
0000
0010
0000
0000
0000
0100
0000
0001
0000
1000
0001
1000
0000
,  // measure 64
0001
1000
0001
0100
0010
0100
0001
0010
,  // measure 65
0001
0000
1000
0000
0010
0000
1000
0100
1000
0000
0010
0000
0010
0000
0100
0000
,  // measure 66
0001
0010
0001
0010
0100
1000
0100
1000
,  // measure 67
0010
0000
0100
0010
0100
0000
0000
0000
0001
0000
1000
0001
1000
0000
0100
0000
,  // measure 68
0010
0000
0001
0000
0010
0000
0100
0000
1000
0010
0000
0010
1000
0000
0001
0000
,  // measure 69
0100
0000
0010
0000
0100
0000
0001
0010
0000
0010
0001
0000
1000
0001
1000
0000
,  // measure 70
0100
0000
1000
0000
0001
0100
0000
0001
1000
0000
0010
0000
0100
0000
0010
0000
,  // measure 71
1000
0000
0100
0000
0010
0000
0001
0000
1000
0001
1000
0000
0010
0000
0000
0000
,  // measure 72
0100
0000
0010
0000
1000
0000
0100
0000
0010
0001
0000
0001
0100
0000
1000
0000
,  // measure 73
0100
0000
0001
0000
0010
0000
0100
0000
0001
0000
0010
0100
1000
0100
0010
0000
,  // measure 74
0001
1000
0100
0010
0001
0000
1000
0100
,  // measure 75
1000
1000
0010
0100
0110
0000
0000
0000
;
