#TITLE:Catch Our Fire (STARDOM Remix);
#SUBTITLE:;
#ARTIST:Yuki Nakashima;
#TITLETRANSLIT:;
#SUBTITLETRANSLIT:;
#ARTISTTRANSLIT:;
#GENRE:;
#CREDIT:;
#BANNER:;
#BACKGROUND:;
#LYRICSPATH:;
#CDTITLE:;
#MUSIC:Catch Our Fire (STARDOM Remix).mp3;
#OFFSET:-0.614000;
#SAMPLESTART:43.512161;
#SAMPLELENGTH:12.000000;
#SELECTABLE:YES;
#BPMS:0.000000=140.000000
;
#STOPS:
;
#BGCHANGES:;
#KEYSOUNDS:;
#ATTACKS:;

//---------------dance-single - ----------------
#NOTES:
     dance-single:
     :
     Beginner:
     1:
     0.104316,0.136390,0.000000,0.000000,0.000000,87.000000,87.000000,0.000000,0.000000,0.000000,0.000000,0.104316,0.136390,0.000000,0.000000,0.000000,87.000000,87.000000,0.000000,0.000000,0.000000,0.000000:
// measure 0
0000
0000
0000
0000
,  // measure 1
0000
0000
0000
0000
,  // measure 2
0000
0000
0000
0000
,  // measure 3
0000
0000
0000
0000
,  // measure 4
0100
0000
0000
0000
,  // measure 5
0010
0000
0000
0000
,  // measure 6
1000
0000
0000
0000
,  // measure 7
0001
0000
0000
0000
,  // measure 8
1000
0000
0000
0000
,  // measure 9
0100
0000
0000
0000
,  // measure 10
0100
0000
0000
0000
,  // measure 11
0010
0000
0000
0000
,  // measure 12
0010
0000
0000
0000
,  // measure 13
0001
0000
0001
0000
,  // measure 14
0001
0000
0000
0000
,  // measure 15
1000
0000
1000
0000
,  // measure 16
1000
0000
0000
0000
,  // measure 17
0010
0000
0010
0000
,  // measure 18
0010
0000
0000
0000
,  // measure 19
0100
0000
0100
0000
,  // measure 20
0100
0000
0000
0000
,  // measure 21
0001
0000
0001
0000
,  // measure 22
0001
0000
0000
0000
,  // measure 23
1000
0000
1000
0000
,  // measure 24
1000
0000
0000
0000
,  // measure 25
0100
0000
0000
0000
,  // measure 26
0100
0000
0000
0000
,  // measure 27
0010
0000
0010
0000
,  // measure 28
0010
0000
0000
0000
,  // measure 29
0001
0000
0001
0000
,  // measure 30
0001
0000
0000
0000
,  // measure 31
1000
0000
1000
0000
,  // measure 32
1000
0000
0000
0000
,  // measure 33
0100
0000
0100
0000
,  // measure 34
0100
0000
0000
0000
,  // measure 35
0010
0000
0010
0000
,  // measure 36
0010
0000
0000
0000
,  // measure 37
0001
0000
0001
0000
,  // measure 38
0001
0000
0000
0000
,  // measure 39
1000
0000
1000
0000
,  // measure 40
1000
0000
0000
0000
,  // measure 41
0100
0000
0000
0000
,  // measure 42
0100
0000
0000
0000
,  // measure 43
0010
0000
0000
0000
,  // measure 44
0001
0000
0000
0000
,  // measure 45
1000
0000
0000
0000
,  // measure 46
0001
0000
0000
0000
,  // measure 47
0100
0000
0000
0000
,  // measure 48
0010
0000
0000
0000
,  // measure 49
1000
0000
0000
0000
,  // measure 50
0001
0000
0000
0000
,  // measure 51
0100
0000
0000
0000
,  // measure 52
0001
0000
0000
0000
,  // measure 53
1000
0000
1000
0000
,  // measure 54
1000
0000
1000
0000
,  // measure 55
0010
0000
0010
0000
,  // measure 56
0010
0000
0010
0000
,  // measure 57
0100
0000
0100
0000
,  // measure 58
0100
0000
0001
0000
,  // measure 59
0001
0000
0001
0000
,  // measure 60
0100
0000
0100
0000
,  // measure 61
0010
0000
0010
0000
,  // measure 62
1000
0000
1000
0000
,  // measure 63
0001
0000
0001
0000
,  // measure 64
0100
0000
0100
0000
,  // measure 65
0010
0000
0000
0000
;

//---------------dance-single - ----------------
#NOTES:
     dance-single:
     :
     Easy:
     5:
     0.276976,0.463725,0.209830,0.218223,0.000000,231.000000,206.000000,25.000000,26.000000,0.000000,0.000000,0.276976,0.463725,0.209830,0.218223,0.000000,231.000000,206.000000,25.000000,26.000000,0.000000,0.000000:
// measure 0
0000
0000
0000
0000
,  // measure 1
0000
0000
0000
0000
,  // measure 2
0000
0000
0000
0000
,  // measure 3
0000
0000
0000
0000
,  // measure 4
1000
1000
0001
0001
,  // measure 5
0100
0100
0010
0010
,  // measure 6
1000
0000
0001
0000
,  // measure 7
1000
0010
1000
0000
,  // measure 8
0001
0100
0001
0000
,  // measure 9
0100
0010
0100
0000
,  // measure 10
0010
1000
0010
0000
,  // measure 11
1000
0001
1000
0000
,  // measure 12
0001
0100
0001
0000
,  // measure 13
1000
1000
0010
0010
,  // measure 14
0100
0100
0001
0001
,  // measure 15
1000
0000
0001
0000
,  // measure 16
1000
0000
0010
0000
,  // measure 17
0110
0000
0001
0000
,  // measure 18
1001
0000
1010
0000
,  // measure 19
0110
0000
0101
0000
,  // measure 20
1001
0000
1000
0010
,  // measure 21
0100
0100
0001
0001
,  // measure 22
0000
1000
1000
0010
,  // measure 23
0100
0001
1000
0010
,  // measure 24
0100
0001
1000
0001
,  // measure 25
0200
0010
0310
1000
,  // measure 26
0002
0103
0020
1030
,  // measure 27
0002
0103
0020
1030
,  // measure 28
0200
0010
0001
0310
,  // measure 29
2000
0100
0001
3100
,  // measure 30
0002
0010
1000
0013
,  // measure 31
0001
1000
0001
1000
,  // measure 32
0010
0100
0010
0100
,  // measure 33
1001
0010
0001
0010
,  // measure 34
0100
1000
1001
0001
,  // measure 35
0100
0010
1000
0010
,  // measure 36
0100
0010
1000
0100
,  // measure 37
0010
0001
0100
0000
,  // measure 38
0010
0000
1000
0001
,  // measure 39
1001
0000
0110
0000
,  // measure 40
1001
0000
0001
0001
,  // measure 41
0200
0010
0310
0000
,  // measure 42
2000
0001
3001
0000
,  // measure 43
0200
0001
0301
0000
,  // measure 44
0020
1000
2030
0000
,  // measure 45
0001
0001
0001
3000
,  // measure 46
0200
0000
0010
0010
,  // measure 47
0320
0000
1000
1000
,  // measure 48
2030
0000
0001
0001
,  // measure 49
3002
0000
0000
0000
,  // measure 50
0203
0000
0000
0000
,  // measure 51
0310
1000
0010
0001
,  // measure 52
0010
1000
1010
0010
,  // measure 53
0011
1010
0011
0101
,  // measure 54
1010
1010
0101
0101
,  // measure 55
1000
0001
1001
0110
,  // measure 56
0001
0010
0011
0110
,  // measure 57
1010
0100
0010
0001
,  // measure 58
2000
3010
0100
0001
,  // measure 59
0200
0301
0010
0001
,  // measure 60
2000
3100
0001
0100
,  // measure 61
2000
3010
0001
0020
,  // measure 62
1030
0100
0001
0200
,  // measure 63
1300
0001
0010
0002
,  // measure 64
0103
0010
0100
0020
,  // measure 65
1030
0000
0000
0000
;

//---------------dance-single - ----------------
#NOTES:
     dance-single:
     :
     Medium:
     8:
     0.365704,0.436447,0.302155,0.310549,0.000000,305.000000,269.000000,36.000000,37.000000,0.000000,0.000000,0.365704,0.436447,0.302155,0.310549,0.000000,305.000000,269.000000,36.000000,37.000000,0.000000,0.000000:
// measure 0
0000
0000
0000
0000
,  // measure 1
0000
0000
0000
0000
,  // measure 2
0000
0000
0000
0000
,  // measure 3
0000
0000
0000
0000
,  // measure 4
0001
0000
1000
0000
,  // measure 5
0020
0000
0230
0000
,  // measure 6
0302
0000
2003
0000
,  // measure 7
3100
0010
0001
1000
,  // measure 8
0001
1000
0001
0000
1000
0010
1000
0000
,  // measure 9
0110
0100
0100
0010
,  // measure 10
1000
0100
0001
0010
,  // measure 11
1000
0100
0001
0010
,  // measure 12
1000
0001
0100
0010
,  // measure 13
2000
3200
0320
0032
,  // measure 14
0203
0320
2030
3002
,  // measure 15
0203
0320
2030
3002
,  // measure 16
0203
0300
0110
1001
,  // measure 17
0001
0001
0100
0100
,  // measure 18
0010
1000
0010
0000
1000
0000
1001
0000
,  // measure 19
0001
0000
0001
0000
0100
0001
0100
0000
,  // measure 20
0010
0100
1001
0010
,  // measure 21
0100
0000
0100
0000
0010
0010
0010
0000
,  // measure 22
1000
0000
1000
0000
0001
0001
0001
0000
,  // measure 23
1000
0000
1000
0000
0100
0100
0100
0000
,  // measure 24
0010
0000
0010
0000
0001
0001
0001
0000
,  // measure 25
1000
0001
1000
0100
,  // measure 26
1000
0010
0100
0000
0010
0000
0001
0000
,  // measure 27
0010
0000
0001
0000
0010
0000
1000
0010
,  // measure 28
0001
0010
1000
0101
,  // measure 29
1000
0011
1000
0110
,  // measure 30
0001
0011
0100
1100
,  // measure 31
1000
0110
0001
0110
,  // measure 32
1000
0001
1000
0000
0001
1000
0001
0000
,  // measure 33
0110
0100
0101
0001
,  // measure 34
1001
1000
1100
0110
,  // measure 35
0011
0001
0101
0100
,  // measure 36
0110
0010
1000
0001
,  // measure 37
0100
0001
1010
0100
,  // measure 38
0101
0010
0110
1000
,  // measure 39
1001
0000
0001
0000
0101
0000
0100
0010
,  // measure 40
1000
0001
1000
0010
,  // measure 41
0200
0302
2003
3020
,  // measure 42
0230
0302
2003
0001
,  // measure 43
3002
0100
0203
0010
,  // measure 44
0310
0000
1000
0000
0002
0000
0200
0003
,  // measure 45
0320
1030
0001
1000
,  // measure 46
0010
0000
0100
0000
0001
1000
0001
0000
,  // measure 47
2000
3010
0100
0001
,  // measure 48
1001
0010
0110
0100
,  // measure 49
1001
1000
0100
0010
,  // measure 50
0001
0100
0010
1001
,  // measure 51
2000
3200
0320
0032
,  // measure 52
0203
0320
2030
3001
,  // measure 53
0101
0101
1010
0110
,  // measure 54
1001
0000
1001
0000
1000
0100
0100
0000
,  // measure 55
0010
0000
0001
0000
0100
0100
0001
0000
,  // measure 56
1000
0000
1000
0000
0001
0001
1000
0000
,  // measure 57
0010
0100
0010
0100
0000
0000
1000
0001
,  // measure 58
1000
0001
1000
0001
0100
0000
0010
0000
,  // measure 59
1000
0001
1000
0001
0000
0100
0001
0100
,  // measure 60
0001
0010
1000
0010
,  // measure 61
0001
0100
1000
0000
0100
0001
0001
0000
,  // measure 62
0010
0000
1000
0000
0010
0001
0001
0000
,  // measure 63
0100
0010
1000
0000
0010
0100
0001
0000
,  // measure 64
1000
0001
1000
0000
0001
0100
0010
0000
,  // measure 65
0110
0000
0000
0000
;

//---------------dance-single - ----------------
#NOTES:
     dance-single:
     :
     Hard:
     15:
     0.745796,0.907096,0.822534,0.268583,0.583328,622.000000,524.000000,98.000000,32.000000,0.000000,0.000000,0.745796,0.907096,0.822534,0.268583,0.583328,622.000000,524.000000,98.000000,32.000000,0.000000,0.000000:
// measure 0
0000
0000
0000
0000
,  // measure 1
0000
0000
0000
0000
,  // measure 2
0000
0000
0000
0000
,  // measure 3
0000
0000
0000
0000
,  // measure 4
0000
0000
0000
0000
,  // measure 5
0010
0100
0001
0100
0010
1000
0001
1000
0100
0010
0100
0010
0001
1000
0001
1000
,  // measure 6
0010
0100
0001
1000
0000
1000
0010
0000
0100
0001
0100
0001
1000
0001
1000
0001
,  // measure 7
0100
0010
1000
0001
0100
0010
1000
0001
0100
0010
1000
0001
0100
0010
1000
0001
,  // measure 8
1000
0100
0010
0001
0100
0010
1000
0100
0010
0001
0100
0010
2000
0000
0000
0000
,  // measure 9
3001
0000
0000
0011
0000
0000
1010
0000
0000
0000
1000
0000
0010
0000
0001
0000
,  // measure 10
0100
0010
0000
0100
0010
0000
1000
0001
0000
1000
0001
0000
0100
0000
0001
0000
,  // measure 11
0010
0100
1000
1002
0000
1003
0010
0001
,  // measure 12
0010
0000
0000
1010
0000
0000
1001
0000
0000
0000
0001
0100
0001
1000
0010
1000
,  // measure 13
0001
0100
0001
0100
0001
0100
0001
0000
1000
0010
1000
0010
1000
0010
1000
0000
,  // measure 14
0001
1000
0000
1000
0010
0000
0010
0100
0000
0100
0001
0000
1000
0001
0100
0001
,  // measure 15
0010
0100
0000
0000
0100
1000
0000
0000
1000
0010
0100
0001
0010
0100
0010
0001
,  // measure 16
1000
0100
0010
0100
1000
0000
0010
1000
0001
0000
1000
0000
1001
0000
0000
0000
,  // measure 17
0001
0000
0100
0001
0010
0000
0001
0000
0100
0000
0010
1000
0100
0000
1000
0000
,  // measure 18
1010
0000
0000
0110
0000
0000
0202
0000
0303
0000
1001
0000
0022
0000
0033
0000
,  // measure 19
1001
0000
0000
1100
0000
0000
0220
0000
0330
0000
0010
0001
1000
0000
0001
0000
,  // measure 20
0101
0000
0000
0110
0000
0000
2020
0000
3030
0000
1001
0000
0101
0000
0000
0000
,  // measure 21
0011
0000
0000
0101
0000
0000
0110
0000
1010
0000
1000
0000
0001
1000
0001
0000
,  // measure 22
0101
0000
0000
0110
0000
0000
1010
0000
1000
0001
0000
0010
0001
0000
0010
0000
,  // measure 23
0011
0000
0000
0110
0000
0000
1100
0000
1001
0000
0001
0000
0100
0001
0100
0000
,  // measure 24
0110
0000
0000
1010
0000
0000
1001
0000
0011
0000
0001
0000
1001
0000
0000
0000
,  // measure 25
1000
0000
0001
1000
0001
0000
0100
0000
0010
0000
1000
0001
0010
0000
0001
0000
,  // measure 26
1000
0000
0100
1000
0010
0000
0100
0000
0001
0000
1000
0000
1001
0000
0000
0000
,  // measure 27
0001
0000
0100
0010
1000
0000
1001
0000
0000
0000
1000
0001
0100
0000
0001
0000
,  // measure 28
0011
0000
0000
0110
0000
0000
1100
0000
1001
0000
0000
0000
0101
0000
0000
0000
,  // measure 29
0110
0000
0000
1010
0000
0000
1001
0000
0101
0000
0100
0000
0010
1000
0010
0000
,  // measure 30
1010
0000
0000
1001
0000
0000
0101
0000
0001
0010
0000
0010
0001
0000
0100
0000
,  // measure 31
0101
0000
0000
0110
0000
0000
1010
0000
1001
0000
0001
0000
0101
0000
0000
0000
,  // measure 32
0110
0000
0000
0110
0000
0000
1001
0000
1001
0000
0000
0000
0110
0000
0000
0000
,  // measure 33
0010
0000
2000
0000
0000
0000
3001
0000
0100
0000
0010
1000
0001
0000
1000
0000
,  // measure 34
0001
0000
2000
0000
0000
0000
3001
0000
1000
0000
0001
0100
0010
0000
0100
0000
,  // measure 35
1000
0000
0200
0000
0000
0000
0301
0000
0010
0000
0001
1000
0100
0000
1000
0000
,  // measure 36
0001
0200
0000
0301
0010
0100
1000
0001
,  // measure 37
1000
0000
2001
0000
0000
0000
3010
0000
1000
0000
0001
0100
0001
0000
0010
0000
,  // measure 38
0001
0000
0200
0000
0000
0000
0301
0000
1000
0000
0100
1000
0001
0000
0100
0000
,  // measure 39
0001
0000
0020
0000
0000
0000
0130
0000
1000
0000
0100
1000
0001
0000
1000
0000
,  // measure 40
2002
0000
3003
1000
0001
0100
0010
1000
,  // measure 41
1200
0000
0000
0000
1300
0000
0001
0000
0011
0000
0010
0001
0100
0000
0010
0000
,  // measure 42
1000
0000
0001
1000
0100
0000
1000
0000
0010
0000
0100
0001
0010
0000
0001
0000
,  // measure 43
1000
0000
2010
0000
0000
0000
3010
0000
0100
0000
0001
1000
0001
0000
0100
0000
,  // measure 44
0010
0000
1000
0001
1000
0000
0001
0000
1000
0000
0100
0000
0010
0000
0001
0000
,  // measure 45
0100
0000
0010
0000
0100
0010
1000
0000
0001
0000
1000
0001
0100
0000
0001
0000
,  // measure 46
0010
0000
0100
0000
1000
0100
1000
0000
0001
0010
0001
0000
1000
0000
0010
0000
,  // measure 47
1010
0000
1001
0000
0000
0101
0000
0000
0110
0000
0000
1010
0000
0000
1100
0000
,  // measure 48
1001
0000
0010
0000
0100
0000
1000
0000
0001
0100
0001
0100
0001
0100
0010
1000
,  // measure 49
0002
0203
0320
2030
0000
3002
0000
0203
,  // measure 50
0000
0302
2003
3020
0000
1030
0010
1000
,  // measure 51
1001
0000
1000
0100
1000
0000
0010
0000
0100
0000
0001
0010
0001
0000
0100
0000
,  // measure 52
0110
0000
0000
1001
0000
0000
0110
0000
0000
0000
0100
0000
0001
0000
0010
0000
,  // measure 53
0110
0000
0000
1100
0000
0000
1001
0000
0101
0000
0100
0000
0010
1000
0001
0000
,  // measure 54
1001
0000
0000
1100
0000
0000
0110
0000
0010
0001
0000
0001
0100
0000
0010
0000
,  // measure 55
1010
0000
0000
1001
0000
0000
0101
0000
0100
0000
0010
0000
1000
0100
0001
0000
,  // measure 56
0101
0000
0000
1100
0000
0000
0110
0000
1010
0000
1001
0000
1001
0000
0001
1000
,  // measure 57
0010
0000
0100
0000
0001
0000
0010
0000
0100
0000
1000
0001
0010
0000
0001
0000
,  // measure 58
1000
0000
0100
0001
0100
0000
1000
0000
0010
0000
0100
0000
0001
0100
0001
0000
,  // measure 59
1001
0000
1000
0010
1000
0000
0001
0000
0100
0000
0010
1000
0001
0000
1000
0000
,  // measure 60
0010
0100
0000
0100
0001
0000
0001
1000
0000
1000
0010
0000
0110
0000
0000
0000
,  // measure 61
1000
0001
0000
0001
0100
0000
0010
0000
1000
0000
0001
0000
1000
0010
0001
0000
,  // measure 62
0010
0100
0000
0100
0010
0000
1000
0000
0100
1000
0000
0001
0100
0000
0001
0000
,  // measure 63
1001
0000
1000
0000
0001
0000
1000
0001
0100
0000
0010
0000
0100
0001
0010
0100
,  // measure 64
1000
0000
0000
1001
0000
0000
0001
0000
0101
0000
0000
0000
0110
0000
0000
0000
,  // measure 65
2002
0000
3003
0000
;
