#VERSION:0.83;
#TITLE:Butterfly;
#SUBTITLE:;
#ARTIST:kors k feat. starbitz;
#TITLETRANSLIT:;
#SUBTITLETRANSLIT:;
#ARTISTTRANSLIT:;
#GENRE:;
#ORIGIN:;
#CREDIT:;
#BANNER:;
#BACKGROUND:;
#PREVIEWVID:;
#JACKET:Butterfly-jacket.png;
#CDIMAGE:;
#DISCIMAGE:;
#LYRICSPATH:;
#CDTITLE:;
#MUSIC:Butterfly.ogg;
#OFFSET:-2.271000;
#SAMPLESTART:75.155449;
#SAMPLELENGTH:15.000000;
#SELECTABLE:YES;
#BPMS:0.000=135.000;
#STOPS:;
#DELAYS:;
#WARPS:;
#TIMESIGNATURES:0.000=4=4;
#TICKCOUNTS:0.000=4;
#COMBOS:0.000=1;
#SPEEDS:0.000=1.000=0.000=0;
#SCROLLS:0.000=1.000;
#FAKES:;
#LABELS:0.000=Song Start;
#BGCHANGES:;
#KEYSOUNDS:;
#ATTACKS:
;

//---------------dance-single - ----------------
#NOTEDATA:;
#CHARTNAME:Beginner;
#STEPSTYPE:dance-single;
#DESCRIPTION:;
#CHARTSTYLE:;
#DIFFICULTY:Beginner;
#METER:2;
#RADARVALUES:0.130733,0.129115,0.000000,0.000000,0.000000,101.000000,101.000000,0.000000,0.000000,0.000000,0.000000,0.000000,0.000000,0.000000,0.130733,0.129115,0.000000,0.000000,0.000000,101.000000,101.000000,0.000000,0.000000,0.000000,0.000000,0.000000,0.000000,0.000000;
#CREDIT:InternalScreams;
#NOTES:
0000
0000
0000
0000
,
0000
0000
0000
0000
,
0000
0000
0000
0000
,
0000
0000
0000
0000
,
0000
0000
0000
0000
,
1000
0000
1000
0000
,
1000
0000
0001
0000
,
0001
0000
0001
0000
,
0100
0000
0100
0000
,
0010
0000
0010
0000
,
0010
0000
1000
0000
,
1000
0000
0001
0000
,
1000
0000
0000
0000
,
0010
0000
0100
0000
,
0010
0000
0100
0000
,
0010
0000
0000
0000
,
1000
0000
0001
0000
,
1000
0000
1000
0000
,
0001
0000
0001
0000
,
0100
0000
0100
0000
,
0010
0000
0010
0000
,
1000
0000
1000
0000
,
0001
0000
0001
0000
,
0100
0000
0100
0000
,
0010
0000
0000
0000
,
0010
0000
0010
0000
,
1000
0000
1000
0000
,
0010
0000
0010
0000
,
0100
0000
0100
0000
,
0001
0000
1000
0000
,
0001
0000
1000
0000
,
0001
0000
0001
0000
,
0001
0000
0000
0000
,
1000
0000
1000
0000
,
0010
0000
0010
0000
,
0100
0000
0100
0000
,
0010
0000
0010
0000
,
1000
0000
1000
0000
,
0001
0000
0001
0000
,
0100
0000
0100
0000
,
0010
0000
0010
0000
,
1000
0000
1000
0000
,
0001
0000
0001
0000
,
0100
0000
0100
0000
,
0010
0000
0010
0000
,
1000
0000
1000
0000
,
1000
0000
1000
0000
,
0001
0000
0001
0000
,
0001
0000
0001
0000
,
0100
0000
0100
0000
,
0100
0000
0100
0000
,
1000
0000
1000
0000
,
0100
0000
0100
0000
,
0001
0000
0001
0000
,
0100
0000
0100
0000
,
1000
0000
1000
0000
,
0010
0000
0010
0000
,
0001
0000
0000
0000
;

//---------------dance-single - ----------------
#NOTEDATA:;
#CHARTNAME:;
#STEPSTYPE:dance-single;
#DESCRIPTION:;
#CHARTSTYLE:;
#DIFFICULTY:Easy;
#METER:6;
#RADARVALUES:0.258877,0.309875,0.099667,0.235578,0.000000,200.000000,189.000000,11.000000,26.000000,0.000000,0.000000,0.000000,0.000000,0.000000,0.258877,0.309875,0.099667,0.235578,0.000000,200.000000,189.000000,11.000000,26.000000,0.000000,0.000000,0.000000,0.000000,0.000000;
#CREDIT:;
#NOTES:
0000
0000
0000
0000
,
0000
0000
0000
0000
,
0000
0000
0000
0000
,
0000
0000
0000
0000
,
0000
0000
0000
0000
,
1000
1000
0100
0000
,
0001
0001
0100
0000
,
1000
1000
0010
0000
,
0001
0001
0010
0000
,
1000
1000
0100
1001
,
0001
0001
0100
1001
,
1000
1000
0010
0001
,
0001
0010
1000
1001
,
0001
0100
1000
0000
,
1000
0100
0001
0000
,
1000
0010
0001
0000
,
0001
0010
1000
0000
,
1000
0100
0010
0000
,
0010
0001
0010
0000
,
0100
1000
0100
0000
,
0001
1000
0001
0000
,
2000
0001
3001
0000
,
0002
0100
0103
0000
,
0200
0010
0310
0000
,
0020
1000
1030
0000
,
2000
0001
0001
0001
,
3002
0100
0100
0100
,
0203
0010
0010
0010
,
0320
1000
1000
1000
,
2030
0100
0100
0100
,
3020
0001
0001
0001
,
0032
0100
0100
0103
,
0110
1001
0110
0000
,
1000
0100
0001
0100
,
1000
0010
0001
0010
,
1000
1000
0001
0100
,
1000
0100
0001
1001
,
0001
0010
1000
0000
,
0001
0100
1000
1001
,
0001
0010
1000
0000
,
0001
0100
1000
0000
,
0002
0100
0103
0100
,
0020
1000
1030
1001
,
0002
0100
0103
0020
,
1000
1030
1001
0200
,
0010
0310
2000
0001
,
3002
0100
0103
0020
,
1000
1030
0001
0100
,
0001
1000
0100
0010
,
0200
0001
0001
0001
,
0302
1000
1000
1000
,
1003
0001
0100
0001
,
0020
0001
0031
0100
,
0020
1000
1030
0100
,
0020
0001
0031
1000
,
0200
1000
1300
0020
,
0100
0130
0001
1000
,
1001
0000
0000
0000
;

//---------------dance-single - ----------------
#NOTEDATA:;
#CHARTNAME:;
#STEPSTYPE:dance-single;
#DESCRIPTION:;
#CHARTSTYLE:;
#DIFFICULTY:Medium;
#METER:10;
#RADARVALUES:0.367605,0.438990,0.271820,0.000000,0.009061,284.000000,254.000000,30.000000,0.000000,0.000000,0.000000,0.000000,0.000000,0.000000,0.367605,0.438990,0.271820,0.000000,0.009061,284.000000,254.000000,30.000000,0.000000,0.000000,0.000000,0.000000,0.000000,0.000000;
#CREDIT:;
#NOTES:
0000
0000
0000
0000
,
0000
0000
0000
0000
,
0000
0000
0000
0000
,
0000
0000
0000
0000
,
0000
0000
0000
0000
,
1000
0000
1000
0000
1000
0000
0001
0100
,
0001
1000
0110
0010
,
0100
0000
0001
0100
0001
0000
1000
0000
,
0001
0000
1000
0001
1000
0000
0001
0000
,
0100
0100
0010
1010
,
1000
0001
1000
1001
,
0001
0100
0001
0100
,
0010
1000
0010
0000
1000
0000
1010
0000
,
1000
0000
1000
0100
0001
0000
0100
0000
,
1000
0000
0001
0010
1000
0000
0010
0000
,
0001
0100
1000
0100
,
0001
1000
0001
1000
0001
0000
1001
0000
,
0110
0000
1001
0000
0110
0000
1000
0100
,
0010
0000
0001
0010
0100
0000
1000
0000
,
0001
0000
1000
0001
1000
0000
0100
1000
,
0100
0000
0010
0001
0010
0000
0001
0000
,
1001
1000
1000
1000
,
0110
0010
0010
0010
,
0101
0001
0001
0001
,
1000
0100
1000
0000
0010
0100
0010
0000
,
0100
0001
0100
0000
0001
1000
0001
0000
,
1000
0000
0100
0000
0010
0100
0010
0000
,
0100
0010
0001
1000
,
0001
1000
0001
1000
0001
0000
0100
0000
,
0001
0010
0001
0100
,
0010
1000
0100
1000
,
0010
0000
0100
0000
0001
1000
0001
0000
,
1001
0000
0000
1000
0010
0000
1000
0000
0001
0000
0100
0000
0001
0000
0000
0000
,
1001
0000
1000
0100
0001
0000
0001
0100
,
1000
0001
1001
0110
,
0001
0000
0001
0100
1000
0000
1000
0100
,
0001
1000
0001
1000
,
0010
0000
0010
0000
0010
0000
0010
0100
,
0001
0001
0001
1100
,
0010
0000
0000
0000
0010
0000
0100
0000
0001
0000
0000
0001
1000
0000
0100
0000
,
1000
1100
0110
0011
,
0001
0000
0001
0100
1000
0000
1000
0100
,
0001
0000
1000
0001
1000
0000
1010
0000
,
0010
0000
0010
0100
0001
0000
0001
0100
,
0010
1000
0001
1001
,
1100
0000
0011
0000
1100
0000
0001
1000
,
0001
1100
0011
1100
,
0001
0000
0001
0001
0100
0000
1000
1000
,
0100
0001
0100
0010
,
1000
0100
0001
0010
,
1000
0010
0001
0100
,
1000
0010
0001
0100
,
1000
0001
1001
1000
,
0001
0000
0001
0100
1000
0000
0100
1000
,
0010
0000
0001
0000
1001
0000
1000
0100
,
0001
0000
0100
0001
0010
0000
1000
0001
,
1000
0001
0100
0010
,
0110
0000
0000
0000
;

//---------------dance-single - ----------------
#NOTEDATA:;
#CHARTNAME:;
#STEPSTYPE:dance-single;
#DESCRIPTION:;
#CHARTSTYLE:;
#DIFFICULTY:Hard;
#METER:12;
#RADARVALUES:0.493160,0.499243,0.244638,0.235578,0.154032,381.000000,354.000000,27.000000,26.000000,0.000000,0.000000,0.000000,0.000000,0.000000,0.493160,0.499243,0.244638,0.235578,0.154032,381.000000,354.000000,27.000000,26.000000,0.000000,0.000000,0.000000,0.000000,0.000000;
#CREDIT:;
#NOTES:
// measure 0
0000
0000
0000
0000
,  // measure 1
0000
0000
0000
0000
,  // measure 2
0000
0000
0000
0000
,  // measure 3
0000
0000
0000
0000
,  // measure 4
0000
0000
0000
0000
,  // measure 5
0001
0000
0000
0000
0001
0000
0100
0000
1000
0000
0000
0100
0001
0000
0100
0000
,  // measure 6
1000
0100
0001
0100
2000
0000
3100
0100
,  // measure 7
0001
0000
0000
0000
1000
0000
0100
0000
0001
0000
0000
0100
1000
0000
0100
0000
,  // measure 8
0001
0100
1000
0100
0001
0000
0101
0000
,  // measure 9
1100
0000
0000
0100
1000
0000
0001
0000
1000
0000
0000
0000
1001
0000
0000
0000
,  // measure 10
0101
0000
0000
0100
0001
0000
0010
0000
0100
0000
1000
0000
1001
0000
0000
0000
,  // measure 11
0101
0000
0001
0100
1000
0000
1000
0100
,  // measure 12
0001
0001
0010
0100
1000
0010
1000
0000
,  // measure 13
0001
0000
0000
0010
0100
0000
0010
0000
0001
0000
1000
0000
0100
0000
0000
0010
,  // measure 14
0100
0000
1000
0000
0100
0000
0010
0000
0001
0100
0001
0000
1000
0000
0010
0000
,  // measure 15
1000
0100
0000
0000
0001
0010
0000
0000
1000
0100
0000
0000
0001
0010
0000
0000
,  // measure 16
1000
0000
0100
0000
0010
0000
0001
0000
0100
0010
0100
0000
0010
0000
0100
0000
,  // measure 17
0002
0100
2003
0100
,  // measure 18
3002
0100
2003
0010
,  // measure 19
3002
0010
2003
0010
,  // measure 20
3002
0010
2003
0010
,  // measure 21
3002
0100
2003
0010
,  // measure 22
3002
0100
2003
0010
,  // measure 23
3002
0100
2003
0010
,  // measure 24
3002
0010
0103
1000
,  // measure 25
1001
0000
1000
0100
0001
0000
0101
0100
,  // measure 26
1100
0000
1000
0010
0001
0000
0011
0010
,  // measure 27
1010
0000
1000
0100
0010
0000
0011
0001
,  // measure 28
1001
1000
0100
0010
0001
0000
0001
1000
,  // measure 29
0001
0100
1000
0100
0001
0100
1000
0100
,  // measure 30
0001
0010
1000
0010
0001
0010
1000
0010
,  // measure 31
0001
0001
1000
1000
0010
0010
0100
0100
,  // measure 32
0010
0000
0000
0010
1000
0000
0100
0000
0001
0000
0010
0000
1000
0000
0000
0000
,  // measure 33
1001
0000
0000
0000
0001
0000
0100
0000
1000
0000
0000
1000
0100
0000
0001
0000
,  // measure 34
0100
0000
0100
0000
0010
0000
1000
0000
0001
0010
0001
0000
0200
0000
0000
0000
,  // measure 35
0310
0000
0000
0000
1000
0000
0100
0000
0001
0000
0000
0001
0100
0000
1000
0000
,  // measure 36
0100
0001
0100
1000
0100
0010
0020
0030
,  // measure 37
1001
0000
0000
0000
0100
0000
0001
0000
1000
0000
0000
1000
0001
0000
0010
0000
,  // measure 38
0100
0000
1000
0000
0100
0000
0010
0000
0001
1000
0001
0000
1000
0000
1000
0000
,  // measure 39
0020
0000
0000
0000
0130
0000
0100
0000
0002
0000
0003
1000
0001
0000
1000
0000
,  // measure 40
0001
0000
0010
0000
0100
0000
0010
0000
0001
1000
0001
0000
1100
0000
0000
0000
,  // measure 41
1001
0000
0000
0000
1000
0000
0100
0000
0001
0000
0000
0001
0100
0000
1000
0000
,  // measure 42
0010
0000
0100
0000
0001
0000
0100
0000
0010
1000
0010
0000
0100
0000
0100
0000
,  // measure 43
0001
0000
0000
0000
0001
0000
1000
0000
0001
0000
0000
0010
0001
0000
0010
0000
,  // measure 44
0100
0000
1000
0000
0100
0000
0010
0000
0001
0010
0100
0000
0020
0000
0030
0000
,  // measure 45
0001
0000
0000
0000
0001
0000
0010
0000
1000
0000
0000
1000
0010
0000
0001
0000
,  // measure 46
1000
0000
0100
0000
0010
0000
0001
0000
0100
0001
1000
0000
0001
0000
0100
0000
,  // measure 47
0020
0000
0000
0000
1030
0000
1000
0000
0100
0000
0000
0100
0001
0000
0100
0000
,  // measure 48
1000
0000
0100
0000
0001
0000
0100
0000
1000
0100
0010
0100
1000
0000
0000
0000
,  // measure 49
1001
0000
0000
0000
0001
0000
0100
0000
1000
0000
0000
1000
0010
0000
0001
0000
,  // measure 50
0100
1000
0010
0001
0100
0000
1001
0000
,  // measure 51
0011
0000
0000
0000
0011
0000
0010
0000
1010
0000
0000
1000
0010
0000
0001
0000
,  // measure 52
0100
1000
0100
0001
0100
1000
0200
0000
,  // measure 53
0301
0000
0000
0000
0101
0000
0100
0000
1100
0000
0000
1000
0100
0000
0001
0000
,  // measure 54
0100
1000
0100
0001
0200
0000
0310
0010
,  // measure 55
1000
0000
0000
0010
0001
0000
0010
0000
1000
0000
0000
0010
0001
0000
0010
0000
,  // measure 56
0100
0100
0010
0010
1001
0000
0110
0000
,  // measure 57
2002
0000
0000
0000
,  // measure 58
3003
0000
0000
0000
;

//---------------dance-single - ----------------
#NOTEDATA:;
#CHARTNAME:;
#STEPSTYPE:dance-single;
#DESCRIPTION:;
#CHARTSTYLE:;
#DIFFICULTY:Challenge;
#METER:14;
#RADARVALUES:0.579884,0.735727,0.271820,0.054364,0.353366,448.000000,418.000000,30.000000,6.000000,108.000000,0.000000,0.000000,0.000000,0.000000,0.579884,0.735727,0.271820,0.054364,0.353366,448.000000,418.000000,30.000000,6.000000,108.000000,0.000000,0.000000,0.000000,0.000000;
#CREDIT:;
#NOTES:
// measure 0
0000
0000
0000
0000
,  // measure 1
0000
0000
0000
0000
,  // measure 2
0000
0000
0000
0000
,  // measure 3
0000
0000
0000
0000
,  // measure 4
0000
0000
0000
0000
,  // measure 5
1000
0000
0000
0000
1000
0000
0010
0000
0001
0000
0000
0010
1000
0000
0010
0000
,  // measure 6
0001
0010
1000
0010
0002
0000
0013
0010
,  // measure 7
1000
0000
0000
0000
0001
0000
0010
0000
1000
0000
0000
0010
0001
0000
0010
0000
,  // measure 8
1000
0000
0010
0000
0001
0000
0010
0000
0100
1000
0100
0000
1100
0000
0000
0000
,  // measure 9
1100
0000
0000
0100
1000
0000
0100
0000
0010
0001
0010
0000
0011
0000
0000
0000
,  // measure 10
0101
0000
0000
0001
0010
0000
0001
0000
1000
0100
1000
0000
1001
0000
0000
0000
,  // measure 11
0101
0000
0000
0001
1000
0000
0100
0000
0010
0100
1000
0000
0001
0000
0001
0000
,  // measure 12
1000
0000
0100
0000
0010
0000
0001
0000
1000
0010
1000
0000
1001
0000
0000
0000
,  // measure 13
0001
0000
0000
0010
0100
0000
0010
0000
0001
1000
0001
0000
0010
0000
0000
0010
,  // measure 14
0001
0000
0010
0000
0100
0000
0010
0000
0001
0100
0001
0000
1000
0000
0010
0000
,  // measure 15
0100
0001
0000
0000
0010
1000
0000
0000
0010
0001
0000
0000
1000
0100
0000
0000
,  // measure 16
1000
0000
0100
0000
0010
0000
0001
0000
0100
0010
0100
0010
0100
0010
0100
0010
,  // measure 17
2000
0000
3001
0100
MMMM
0100
0010
1000
,  // measure 18
MMMM
1000
0001
0010
MMMM
0010
0001
0100
,  // measure 19
MMMM
1000
0100
0010
MMMM
0010
0100
1000
,  // measure 20
MMMM
0100
0010
1000
MMMM
1000
0010
0100
,  // measure 21
MMMM
0100
0100
0001
MMMM
0010
0010
1000
,  // measure 22
MMMM
1000
1000
0001
MMMM
0010
0010
0100
,  // measure 23
MMMM
1000
1000
0001
MMMM
0001
0001
0010
,  // measure 24
MMMM
0010
0010
0100
MMMM
0100
0100
1000
,  // measure 25
1001
0000
0001
0010
0001
0000
0010
0100
0010
0000
0100
1000
0100
0000
1000
0001
,  // measure 26
1000
0000
0100
1000
0100
0000
0010
0100
0010
0000
0001
0010
0001
0000
1000
0000
,  // measure 27
1001
0000
1000
0100
1000
0000
0100
0010
0100
0000
0010
0100
0010
0000
0001
1000
,  // measure 28
0001
0000
0001
0000
0100
0000
0100
0000
0001
0000
0010
0001
0010
0000
0001
0000
,  // measure 29
1000
0000
0100
0000
0001
0000
0100
0000
1000
0000
0100
0000
0001
0000
0100
1000
,  // measure 30
0010
0000
0001
0000
0010
0000
1000
0000
0010
0000
0001
0000
0010
0000
1000
0001
,  // measure 31
0100
0010
0100
0010
0100
0010
0100
0010
0100
0010
0100
0010
0100
0010
0100
0010
,  // measure 32
0100
0000
0000
0100
0001
0000
1000
0100
0001
0000
0101
0000
MMMM
0000
0000
0000
,  // measure 33
1001
0000
0000
0000
0001
0000
0100
0000
1000
0000
0000
1000
0100
0000
0001
0000
,  // measure 34
0100
0000
0100
0000
0010
1000
0010
0000
1000
0001
1000
0000
MMMM
0000
0010
0000
,  // measure 35
0110
0000
0000
0000
1000
0000
0100
0000
0001
0000
0000
0001
0100
0000
1000
0000
,  // measure 36
0100
0001
0100
0000
1000
0100
1000
0000
0001
0000
0101
0000
MMMM
0000
0000
0000
,  // measure 37
1001
0000
0000
0000
0001
0000
0100
0000
1000
0000
0000
1000
0100
0000
0001
0000
,  // measure 38
1000
0000
0100
0000
0010
0100
1000
0100
0010
0000
0100
0000
MMMM
0000
0001
0000
,  // measure 39
2001
0000
0000
0000
3010
0000
0100
0000
1002
0000
0003
0100
0001
0000
1000
0000
,  // measure 40
0001
0000
0010
0000
0100
0010
0001
0000
1000
0001
1000
0000
MMMM
0000
0000
0000
,  // measure 41
1001
0000
0000
0000
0001
0000
0100
0000
1000
0000
0000
0100
0001
0000
1000
0000
,  // measure 42
0001
0000
0010
0000
0100
0000
1000
0000
0100
0010
0001
0000
MMMM
0000
0010
0000
,  // measure 43
1010
0000
0000
0000
1000
0000
0010
0000
0001
0000
0000
0010
1000
0000
0010
0000
,  // measure 44
0001
0000
0010
0000
1000
0000
0001
0000
0100
0001
1000
0000
MMMM
0000
0000
0000
,  // measure 45
1001
0000
0000
0000
1000
0000
0100
0000
0001
0000
0000
1000
0010
0000
0001
0000
,  // measure 46
1000
0000
0100
0000
0010
0000
0001
0000
0100
0001
1000
0000
0001
0000
MMMM
0000
,  // measure 47
1000
0000
0000
0000
0100
0000
0001
0000
0100
0000
0000
0100
0001
0000
0100
0000
,  // measure 48
1000
0000
0100
0000
0001
0000
0100
0000
1000
0100
0010
0100
0001
0000
0000
0000
,  // measure 49
1001
0000
0000
0000
0001
0000
0100
0000
1000
0000
0000
1000
0010
0000
0001
0000
,  // measure 50
0001
0000
0100
0000
1000
0000
1000
0000
0100
0010
0001
0000
1000
0000
MMMM
0000
,  // measure 51
0001
0000
0000
0000
0101
0000
0100
0000
1100
0000
0000
1000
0010
0000
1000
0000
,  // measure 52
0001
0000
0100
0000
1000
0000
0100
0000
0001
0010
0100
0000
MMMM
0000
0000
0000
,  // measure 53
0001
0000
0000
0000
0101
0000
0100
0000
1100
0000
0000
1000
0100
0000
0001
0000
,  // measure 54
0100
0000
1000
0000
0100
0001
0100
0000
0010
0000
0110
0000
MMMM
0000
0110
0000
,  // measure 55
1001
0000
0000
0010
0001
0000
0010
0000
1000
0000
0000
0010
0001
0000
0010
0000
,  // measure 56
0100
0010
0100
0010
0100
0000
0010
0001
1000
0000
1001
0000
0110
0000
MMMM
0000
,  // measure 57
2002
0000
0000
0000
,  // measure 58
3003
0000
0000
0000
;
