#VERSION:0.83;
#TITLE:Brain Power;
#SUBTITLE:;
#ARTIST:ノマ;
#TITLETRANSLIT:;
#SUBTITLETRANSLIT:;
#ARTISTTRANSLIT:;
#GENRE:;
#ORIGIN:;
#CREDIT:;
#BANNER:;
#BACKGROUND:Brain Power-bg.png;
#PREVIEWVID:;
#JACKET:Brain Power-jacket.png;
#CDIMAGE:;
#DISCIMAGE:;
#LYRICSPATH:;
#CDTITLE:;
#MUSIC:Brain Power.ogg;
#OFFSET:-0.653000;
#SAMPLESTART:71.181946;
#SAMPLELENGTH:14.999988;
#SELECTABLE:YES;
#BPMS:0.000=170.000,
164.000=170.073,
168.000=170.210,
172.000=170.347,
176.000=170.490,
180.000=170.630,
184.000=170.850,
188.000=171.151,
192.000=171.581,
196.000=172.151,
200.000=172.741,
204.000=173.000;
#STOPS:;
#DELAYS:;
#WARPS:;
#TIMESIGNATURES:0.000=4=4;
#TICKCOUNTS:0.000=4;
#COMBOS:0.000=1;
#SPEEDS:0.000=1.000=0.000=0;
#SCROLLS:0.000=1.000;
#FAKES:;
#LABELS:0.000=Song Start;
#BGCHANGES:;
#KEYSOUNDS:;
#ATTACKS:
;

//---------------dance-single - ----------------
#NOTEDATA:;
#CHARTNAME:;
#STEPSTYPE:dance-single;
#DESCRIPTION:;
#CHARTSTYLE:;
#DIFFICULTY:Beginner;
#METER:2;
#RADARVALUES:0.106886,0.165044,0.000000,0.000000,0.000000,85.000000,85.000000,0.000000,0.000000,0.000000,0.000000,0.000000,0.000000,0.000000,0.106886,0.165044,0.000000,0.000000,0.000000,85.000000,85.000000,0.000000,0.000000,0.000000,0.000000,0.000000,0.000000,0.000000;
#CREDIT:;
#NOTES:
0000
0000
0000
0000
,
0000
0000
0000
0000
,
0000
0000
0000
0000
,
0000
0000
0000
0000
,
0000
0000
0000
0000
,
0010
0000
0000
0000
,
0010
0000
0000
0000
,
1000
0000
0000
0000
,
1000
0000
0001
0000
,
1000
0000
0000
0000
,
0010
0000
0000
0000
,
0010
0000
0000
0000
,
0100
0000
0000
0000
,
0100
0000
0000
0000
,
0001
0000
0000
0000
,
1000
0000
0001
0000
,
1000
0000
0000
0000
,
0010
0000
0000
0000
,
0010
0000
0000
0000
,
0100
0000
0100
0000
,
0001
0000
0000
0000
,
0001
0000
1000
0000
,
0001
0000
0000
0000
,
1000
0000
0000
0000
,
0100
0000
0000
0000
,
0100
0000
0000
0000
,
0100
0000
0000
0000
,
0010
0000
0010
0000
,
0010
0000
0000
0000
,
0001
0000
0000
0000
,
0001
0000
0000
0000
,
1000
0000
1000
0000
,
0001
0000
0001
0000
,
0100
0000
0000
0000
,
0010
0000
0000
0000
,
1000
0000
0000
0000
,
0010
0000
0000
0000
,
1000
0000
0000
0000
,
0001
0000
0000
0000
,
1000
0000
0000
0000
,
0001
0000
1000
0000
,
0001
0000
0000
0000
,
0010
0000
0000
0000
,
0100
0000
0000
0000
,
1000
0000
0000
0000
,
0100
0000
0000
0000
,
1000
0000
0000
0000
,
0010
0000
0000
0000
,
0100
0000
0000
0000
,
0001
0000
0001
0000
,
0001
0000
0000
0000
,
1000
0000
1000
0000
,
1000
0000
0000
0000
,
0010
0000
0000
0000
,
0010
0000
0000
0000
,
0100
0000
0000
0000
,
0100
0000
0000
0000
,
0001
0000
0000
0000
,
0001
0000
0000
0000
,
1000
0000
0000
0000
,
1000
0000
0000
0000
,
0010
0000
0000
0000
,
0010
0000
0000
0000
,
0100
0000
0000
0000
,
0100
0000
0000
0000
,
0001
0000
0000
0000
,
0001
0000
1000
0000
,
0001
0000
0000
0000
,
1000
0000
1000
0000
,
1000
0000
0000
0000
,
0010
0000
0010
0000
,
0010
0000
0000
0000
,
0100
0000
0000
0000
,
0100
0000
0000
0000
,
0001
0000
0001
0000
,
0001
0000
0000
0000
;

//---------------dance-single - ----------------
#NOTEDATA:;
#CHARTNAME:;
#STEPSTYPE:dance-single;
#DESCRIPTION:;
#CHARTSTYLE:;
#DIFFICULTY:Easy;
#METER:4;
#RADARVALUES:0.225089,0.267592,0.000000,0.237663,0.000000,179.000000,179.000000,0.000000,27.000000,0.000000,0.000000,0.000000,0.000000,0.000000,0.225089,0.267592,0.000000,0.237663,0.000000,179.000000,179.000000,0.000000,27.000000,0.000000,0.000000,0.000000,0.000000,0.000000;
#CREDIT:;
#NOTES:
0000
0000
0000
0000
,
0000
0000
0000
0000
,
0000
0000
0000
0000
,
0000
0000
0000
0000
,
0000
0000
0000
0000
,
1000
0000
1000
0000
,
0001
0000
0001
0000
,
0100
0000
0100
0000
,
0010
0000
0010
1000
,
0010
0000
0100
0000
,
0001
0000
1000
0000
,
0001
0000
0100
0000
,
0010
0000
1000
0000
,
0010
0000
0100
0000
,
0001
0000
0010
0000
,
1000
0000
0010
0000
,
0001
0001
0100
0100
,
0010
0000
1000
0000
,
0010
0000
0100
0000
,
0002
0000
1003
0000
,
1000
0000
0010
0000
,
0200
0300
0001
0000
,
1000
0000
0002
0000
,
2003
0000
3010
0000
,
0100
0000
0001
0001
,
0001
0000
1000
0000
,
0010
0000
0010
0000
,
0100
0001
0100
0000
,
0001
0000
1000
0001
,
2000
0000
3010
0100
,
0001
0000
0000
0010
,
0100
1000
0000
0000
,
0100
0010
0001
0001
,
1000
0000
0002
0000
,
2003
0000
3020
0000
,
0230
0000
0301
1000
,
0002
0000
2003
0000
,
3010
0000
0100
0100
,
0001
0000
1000
2000
,
0000
3010
0000
0100
,
0001
0010
0001
1000
,
0100
1000
0100
0000
,
0010
0001
0010
0000
,
0001
1000
0001
0000
,
1000
0100
1000
0000
,
0010
0100
0010
0000
,
0100
0000
0001
0100
,
0002
0000
1003
0010
,
1000
0000
0100
0010
,
0002
0000
1003
0100
,
2000
0000
0000
0000
,
3010
0010
0010
0010
,
0010
0000
0100
0000
,
0001
0001
0001
0001
,
0001
0000
1000
0000
,
0100
0100
0100
0100
,
0100
0000
0010
0000
,
0001
0001
0001
0001
,
0002
0000
1003
0000
,
2000
0000
3100
0000
,
0200
0000
0310
0000
,
0020
0000
0031
0000
,
0002
0000
1003
0000
,
2000
0000
3100
0000
,
0020
0000
0031
0000
,
2000
0000
3001
0000
,
1000
0100
1000
0000
,
0010
0100
0010
0000
,
0100
0001
0100
0000
,
0001
1000
0001
0000
,
1000
0010
1000
0010
,
2000
0000
3001
0000
,
0200
0000
0301
0000
,
0020
0000
0130
0000
,
1000
0001
1000
0001
,
2000
0000
0000
0000
,
3000
0000
0000
0000
;

//---------------dance-single - ----------------
#NOTEDATA:;
#CHARTNAME:;
#STEPSTYPE:dance-single;
#DESCRIPTION:;
#CHARTSTYLE:;
#DIFFICULTY:Medium;
#METER:9;
#RADARVALUES:0.377244,0.501734,0.079221,0.158442,0.000000,300.000000,291.000000,9.000000,18.000000,0.000000,0.000000,0.000000,0.000000,0.000000,0.377244,0.501734,0.079221,0.158442,0.000000,300.000000,291.000000,9.000000,18.000000,0.000000,0.000000,0.000000,0.000000,0.000000;
#CREDIT:;
#NOTES:
0000
0000
0000
0000
,
0000
0000
0000
0000
,
0000
0000
0000
0000
,
0000
0000
0000
0000
,
0000
0000
0000
0000
,
1000
1000
0010
0010
,
0100
0100
0001
0001
,
0010
0010
0001
0001
,
1000
1000
0010
0100
,
0001
0010
0001
1000
,
0100
1000
0010
0100
,
0001
0010
0001
0010
,
0100
1000
0100
1000
,
0001
1000
0001
1000
,
0001
0010
0001
0000
0100
0010
0100
0000
,
0010
1000
0100
1000
,
0001
0000
0000
1000
0000
0000
0001
0000
,
1000
0100
0010
1000
,
0010
0001
0100
0010
,
1000
0001
1000
0001
,
0100
0000
0010
0000
1000
0000
0010
0100
,
0010
0100
0000
0001
,
1000
0001
1000
0010
,
0100
0010
0100
0000
0001
0000
0010
0000
,
0001
1000
1100
1100
,
0010
0100
0000
0001
,
1000
1001
0000
0001
,
0100
0010
1000
0010
,
0100
0000
0001
0010
,
2000
0000
3010
0001
,
0100
1000
0100
0001
,
0020
0230
0000
1300
,
0001
1000
0010
0110
,
0100
0000
0001
0010
0001
0000
1000
0000
,
0100
1000
0010
0100
,
0002
1003
0010
0100
,
0001
0010
0001
1000
,
0200
2300
3020
0230
,
0300
0001
1000
0001
,
1000
0100
0010
0100
,
1000
0000
0001
1000
0001
0000
1000
0000
,
0010
1010
1000
0100
,
0010
0001
1000
0001
,
1000
0100
0010
1000
,
0010
0001
0100
1000
,
0100
0001
0010
1000
,
0010
0001
0100
0010
,
1000
0010
1000
0000
0001
1000
0001
0000
,
1000
0100
1000
0010
,
0100
0010
0100
0000
0010
1000
0010
0000
,
1001
1001
1001
1001
,
0001
0000
0100
0000
0001
0100
0001
0000
,
0100
0010
1000
0100
,
1000
0100
1000
0000
0001
0000
1000
0000
,
0001
1000
0010
0100
,
0010
1000
0001
1000
,
0010
0100
0001
0100
,
0010
1000
0001
1000
,
0010
0100
0001
0100
,
0010
1000
0010
0100
,
0001
0000
0010
0000
0100
1000
0100
0000
,
1000
0001
0010
0001
,
0100
0010
0100
0000
0001
0000
1000
0000
,
0002
0000
1003
0100
,
2000
0000
3010
0100
,
0001
0100
0002
0000
1003
0000
0010
0000
,
1000
0010
1000
0000
0001
0000
0100
0000
,
0020
1030
0100
1000
,
0200
0310
0001
1000
,
0002
1003
0100
1000
,
0020
0000
0130
0000
0001
0000
1000
0001
,
1000
0010
1000
0100
,
0010
0001
0010
0000
0001
0000
1000
0000
,
0002
1003
0200
0310
,
0001
0000
1000
0000
0100
1000
0100
1000
,
0200
0000
0000
0000
,
0300
0000
0000
0000
;

//---------------dance-single - ----------------
#NOTEDATA:;
#CHARTNAME:;
#STEPSTYPE:dance-single;
#DESCRIPTION:;
#CHARTSTYLE:;
#DIFFICULTY:Hard;
#METER:13;
#RADARVALUES:0.686583,0.747980,0.123233,0.123233,0.259669,546.000000,532.000000,14.000000,14.000000,0.000000,0.000000,0.000000,0.000000,0.000000,0.686583,0.747980,0.123233,0.123233,0.259669,546.000000,532.000000,14.000000,14.000000,0.000000,0.000000,0.000000,0.000000,0.000000;
#CREDIT:;
#NOTES:
// measure 0
0000
0000
0000
0000
,  // measure 1
0000
0000
0000
0000
,  // measure 2
0000
0000
0000
0000
,  // measure 3
0000
0000
0000
0000
,  // measure 4
0000
0000
0000
0000
,  // measure 5
0001
0100
0010
0000
1000
0010
0100
0000
,  // measure 6
0001
1000
0010
0000
1000
0001
0100
0000
,  // measure 7
0010
0100
0001
0000
0100
0010
1000
0000
,  // measure 8
0001
0000
0000
0010
0000
0000
0100
0000
0000
1000
0000
0000
0010
0000
0100
0000
0010
0000
0100
0000
0000
0001
0000
0000
,  // measure 9
0100
1000
0100
0000
0100
0001
0100
0000
,  // measure 10
0100
0010
1000
0000
0010
0001
0010
0000
,  // measure 11
0010
1000
0010
0000
1000
0001
0010
0000
,  // measure 12
0010
0001
0100
0000
0100
0010
1000
0000
,  // measure 13
0010
0100
0010
0001
0010
0100
0010
1000
,  // measure 14
0001
0010
0100
1000
0001
0010
0100
1000
,  // measure 15
0010
0010
0100
0100
0001
0010
0100
1000
,  // measure 16
0001
0000
0000
0101
0000
0000
0100
0000
0000
0110
0000
0000
0010
0000
0010
0000
,  // measure 17
1000
0100
0001
0000
0001
0100
1000
0000
,  // measure 18
0010
0100
0001
0000
0010
0001
0100
0000
,  // measure 19
0010
1000
0001
1000
0010
1000
0001
1000
,  // measure 20
0010
0000
0100
0000
0010
0000
0100
0001
,  // measure 21
0010
0000
0011
0000
0001
1000
0001
0000
,  // measure 22
1000
0010
1000
0000
0001
1000
0001
1000
,  // measure 23
0200
0000
0320
0000
0031
1000
0010
1000
,  // measure 24
0200
0000
0000
0310
0100
0010
0001
0000
0000
1001
0000
0000
,  // measure 25
0001
0100
0010
0000
0010
0001
0010
0000
,  // measure 26
0010
1000
0100
1000
0010
0000
0100
0000
,  // measure 27
0001
0010
0001
0000
1000
0001
1000
0000
,  // measure 28
0100
0000
0010
0000
0001
1000
0001
1000
,  // measure 29
0010
0000
1000
0000
0001
0010
0001
0000
,  // measure 30
1000
0010
1000
0000
0010
0000
0100
0010
,  // measure 31
1000
0100
0010
0001
0100
0010
1000
0000
,  // measure 32
0001
0000
0000
0010
0000
0000
0100
0000
0000
1000
0000
0000
0010
0000
0000
0000
0010
0000
0100
0000
0001
0000
0010
0000
,  // measure 33
0200
0000
0000
0000
0000
0000
0301
0000
0000
0000
0000
0000
0100
0000
1000
0000
0001
0000
1000
0000
0000
0010
0000
0000
,  // measure 34
0100
0000
0110
0000
1010
0000
1000
0100
1000
0010
0100
0010
,  // measure 35
0002
0000
0000
0000
0013
0010
1000
0000
,  // measure 36
1100
0000
0000
0000
0100
0000
0010
0000
0001
1000
0001
0000
0100
0000
0010
0000
,  // measure 37
0200
0000
0000
0302
0000
0000
0013
0000
0010
0000
0010
0000
,  // measure 38
0210
0000
0000
0000
0000
0000
1300
0000
0000
0001
0000
0000
0100
0000
0001
0000
0010
0000
0002
0000
0000
0000
0000
0000
,  // measure 39
2003
0000
0000
0000
0000
0000
3001
0000
0000
0001
0000
0000
0200
0000
0000
0000
0000
0000
0301
0000
1000
0000
0001
0000
,  // measure 40
0200
0000
0000
0000
0000
0000
0310
0000
1000
0000
0010
0000
0100
0000
0001
0000
0010
0000
0001
0000
0000
1000
0000
0000
,  // measure 41
0010
0100
0001
0100
0010
0100
0001
0100
,  // measure 42
0010
1000
0001
1000
0010
1000
0001
1000
,  // measure 43
0100
0010
0100
1000
0100
0010
0100
1000
,  // measure 44
0001
0010
0100
0010
0001
0010
0100
0010
,  // measure 45
0001
1000
0100
1000
0001
1000
0100
1000
,  // measure 46
0001
1000
0010
1000
0001
1000
0010
1000
,  // measure 47
0001
0010
0100
1000
0001
1000
0100
0010
,  // measure 48
0001
0100
0010
0000
0100
0010
1000
0100
,  // measure 49
0010
0000
0001
0000
0100
0000
0100
0000
0010
1000
0010
0000
1000
0001
1000
0000
,  // measure 50
1010
0000
0000
0101
0000
0000
1001
0000
0000
1010
0000
0000
0010
0000
1000
0000
,  // measure 51
1100
0100
0010
0001
0010
0001
0010
0001
,  // measure 52
0100
0001
0100
0000
0001
0000
0100
0000
0001
0000
0010
0000
0100
0000
1000
0000
,  // measure 53
0010
0100
0010
0000
1000
0000
0100
0000
1000
0000
0100
0000
1000
0000
0100
0000
,  // measure 54
1000
0001
1000
0000
0001
0000
1000
0000
0001
0000
1000
0000
0001
0000
1000
0000
,  // measure 55
0010
0100
0010
0000
0100
0000
0010
0000
0100
0000
0010
0100
0000
0100
0010
0000
,  // measure 56
1000
0100
1000
0000
0001
0000
0010
0000
0100
0000
1000
0000
0100
0000
0010
0000
,  // measure 57
0001
0100
0001
0000
0100
0000
0010
0000
0100
0000
0010
0000
0100
0000
0010
0000
,  // measure 58
0100
0010
0100
0000
1000
0000
0100
0000
1000
0000
0100
0000
0001
0000
0010
0000
,  // measure 59
0100
0010
0100
0000
1000
0000
0001
0000
0100
0000
0001
0000
1000
0000
0001
0000
,  // measure 60
0100
0001
0100
0000
0010
0000
1000
0000
0001
0000
1000
0000
0010
0000
1000
0000
,  // measure 61
0001
1000
0010
0100
0001
0100
0010
0100
,  // measure 62
0001
0100
0001
0000
1000
0000
0100
0000
1000
0000
0100
0000
0001
0000
0100
0000
,  // measure 63
0001
0000
0100
0000
0010
0000
0100
0000
0001
0000
0100
0010
0000
0010
0100
0000
,  // measure 64
1000
0100
1000
0000
0010
0000
1000
0000
0001
0000
1000
0000
0010
0000
1000
0000
,  // measure 65
0001
0000
1000
0000
0100
0010
0100
0000
0010
0100
0000
0010
0100
0000
0010
0000
,  // measure 66
0100
0010
0001
1000
0100
1000
0010
0100
,  // measure 67
0010
1000
0010
0000
0001
0000
0010
0000
1000
0000
0010
0000
0001
0000
0010
0000
,  // measure 68
1000
0001
1000
0000
0001
0000
0100
0000
1000
0000
0100
0000
0001
0000
0100
0000
,  // measure 69
1000
0100
0001
1000
0010
0001
1000
0100
,  // measure 70
0001
0010
0001
0000
0010
0000
0001
0000
1000
0000
0100
0000
0010
0000
0001
0000
,  // measure 71
0100
0000
0010
0000
0100
0000
0010
0000
0100
0000
0010
0100
0000
0100
0001
0000
,  // measure 72
1000
0100
1000
0000
0100
0000
1000
0000
0100
0000
1000
0000
0010
0000
0100
0000
,  // measure 73
0010
0100
0010
0000
1000
0000
0100
0000
1000
0000
0100
0000
0010
0000
0001
0000
,  // measure 74
0010
0001
0010
0000
0100
0000
0010
0000
0100
1000
0100
0000
1000
0000
0001
0000
,  // measure 75
2002
0000
0000
0000
,  // measure 76
0000
0000
0000
0000
,  // measure 77
0000
3003
0000
0000
;

//---------------dance-single - ----------------
#NOTEDATA:;
#CHARTNAME:;
#STEPSTYPE:dance-single;
#DESCRIPTION:;
#CHARTSTYLE:;
#DIFFICULTY:Challenge;
#METER:16;
#RADARVALUES:0.846283,1.760470,0.202454,0.096826,0.303681,673.000000,650.000000,23.000000,11.000000,0.000000,0.000000,0.000000,0.000000,0.000000,0.846283,1.760470,0.202454,0.096826,0.303681,673.000000,650.000000,23.000000,11.000000,0.000000,0.000000,0.000000,0.000000,0.000000;
#CREDIT:;
#OFFSET:-0.653000;
#BPMS:0.000000=170.000000
,132.000000=85.000000
,148.000000=170.072998
,152.000000=170.210007
,156.000000=170.347000
,160.000000=170.490005
,164.000000=170.630005
,168.000000=170.850006
,172.000000=171.151001
,176.000000=171.580994
,180.000000=172.151001
,184.000000=172.740997
,188.000000=346.000000
;
#STOPS:;
#DELAYS:;
#WARPS:;
#TIMESIGNATURES:0.000000=4=4
;
#TICKCOUNTS:0.000000=4
;
#COMBOS:0.000000=1
;
#SPEEDS:0.000000=1.000000=0.000000=0
;
#SCROLLS:0.000000=1.000000
;
#FAKES:;
#LABELS:0.000000=Song Start
;
#NOTES:
// measure 0
0000
0000
0000
0000
,  // measure 1
0000
0000
0000
0000
,  // measure 2
0000
0000
0000
0000
,  // measure 3
0000
0000
0000
0000
,  // measure 4
0000
0000
0000
0000
,  // measure 5
1000
0100
0001
0000
0001
0100
1000
0000
,  // measure 6
0001
0010
1000
0000
1000
0010
0001
0000
,  // measure 7
0100
0010
1000
0000
1000
0010
0100
0000
,  // measure 8
0001
0000
0000
0010
0000
0000
0100
0000
0000
1000
0000
0000
0010
0000
0100
0000
0010
0000
0001
0000
0000
0011
0000
0000
,  // measure 9
0100
0010
1000
0000
0001
1000
0100
0000
,  // measure 10
1000
0001
0100
0000
0010
1000
0001
0000
,  // measure 11
1000
0001
0010
0000
0001
0100
0001
0000
,  // measure 12
1000
0100
1000
0000
0001
0010
0001
0000
,  // measure 13
1000
0001
1000
0001
1000
0001
1000
0001
0100
0010
0100
0010
0100
0010
0100
0010
,  // measure 14
1000
0100
1000
0100
1000
0100
1000
0100
0010
0001
0010
0001
0010
0001
0010
0001
,  // measure 15
0100
0010
0100
0010
1000
0001
1000
0001
0010
0100
0010
0100
1000
0010
1000
0010
,  // measure 16
0100
0000
0000
0110
0000
0000
1010
0000
0000
1001
0000
0000
1000
0000
0001
0000
,  // measure 17
0100
0010
0100
0000
0001
0000
1000
0000
0100
0000
1000
0000
0010
0000
0000
0000
,  // measure 18
0100
0001
1000
0001
0100
0001
1000
0000
,  // measure 19
0010
1000
0010
0000
0100
0000
0010
0000
1000
0000
0100
0000
0020
0000
0000
0000
,  // measure 20
0130
0010
0001
0000
1000
0001
0100
0010
,  // measure 21
0110
0100
0001
0010
0001
1000
0100
0000
,  // measure 22
1000
0010
1000
0001
0100
0001
0010
0100
,  // measure 23
1000
0010
0200
0000
0310
1000
0001
0000
,  // measure 24
1001
0000
0000
1000
0100
0010
0001
0000
0000
0101
0000
0000
,  // measure 25
0001
0010
1000
0000
1000
0010
0001
0000
,  // measure 26
0001
0100
1000
0000
1000
0100
0001
0000
,  // measure 27
1000
0010
0100
0010
1000
0010
0100
0000
,  // measure 28
0001
1000
0001
0000
1000
0100
0010
0100
,  // measure 29
0001
0100
0010
0100
0000
0100
0001
0100
,  // measure 30
0000
0100
1000
0100
0000
0100
0010
0001
,  // measure 31
1000
0001
1000
0010
0000
1000
0010
1000
,  // measure 32
0000
0000
0000
0001
0000
0000
0100
0000
0000
0001
0000
0000
0010
0000
0000
0000
0010
0000
0001
0000
0010
0000
0100
0000
,  // measure 33
2000
0000
0000
0000
0000
0000
3002
0000
0000
0000
0000
0000
1003
0000
0100
0000
0001
0000
0100
0000
0000
1000
0000
0000
1010
0000
0000
0000
1001
0000
0000
0000
0101
0000
0000
0000
0100
0000
0010
0000
1000
0000
0100
0000
0010
0000
0001
0000
,  // measure 34
0200
0000
0000
0000
0000
0000
0000
0000
0310
0000
0010
0000
1001
0000
0000
0000
2100
0000
0000
0000
3001
0000
0100
0000
0001
0010
0001
0010
0001
0010
0001
0000
,  // measure 35
1000
0000
0000
0100
0000
0000
0010
0000
0000
0001
0000
0000
0101
0000
0000
0000
0110
0000
0000
0000
1010
0000
0000
0000
2100
0000
0000
0000
0000
0000
0000
0000
0000
0000
0000
0000
3001
0000
0010
0000
0001
0000
0200
0000
0000
0000
0000
0000
,  // measure 36
0310
0000
0000
0000
0000
0000
0010
0000
0000
1000
0000
0000
0020
0000
0000
0000
0000
0000
0000
0000
0000
0000
0000
0000
0130
0000
0001
0000
0010
0000
0001
0000
1000
0000
0100
0000
1000
0000
0010
0000
0100
0000
0020
0000
0000
0000
0000
0000
,  // measure 37
1030
0001
0010
0001
1000
0001
0010
0000
,  // measure 38
0001
0100
0001
0010
0001
0100
0001
0000
,  // measure 39
0010
1000
0010
0001
0010
1000
0010
0000
,  // measure 40
0001
0100
1000
0100
0001
0100
1000
0100
,  // measure 41
0001
1000
0001
0010
0001
0100
0001
0000
,  // measure 42
1000
0010
1000
0100
1000
0001
1000
0010
,  // measure 43
0100
0001
0010
0100
1000
0010
0100
0001
,  // measure 44
0010
0100
1000
0010
0100
0001
1000
0100
,  // measure 45
0010
0000
0001
0000
1000
0000
0100
0000
0010
0001
1000
0000
0010
1000
0010
0100
,  // measure 46
0001
0000
0000
0101
0000
0000
0110
0000
0000
1010
0000
0000
1100
0000
1001
0000
,  // measure 47
0001
0010
0001
0010
0001
0010
0001
0010
,  // measure 48
0001
0010
0001
0010
0001
0010
0001
0000
,  // measure 49
1000
0001
1000
0000
0010
0000
0100
0000
,  // measure 50
0010
0001
0010
1000
,  // measure 51
0100
0010
0100
0010
0100
0010
0100
0010
,  // measure 52
0100
0010
0100
0010
0100
0010
0100
0000
,  // measure 53
1000
0001
1000
0000
1010
0000
0010
0000
,  // measure 54
0110
0100
0001
0010
,  // measure 55
0001
0100
0001
0100
0001
0100
0001
0100
,  // measure 56
0001
0000
0010
0001
0000
0010
0001
1000
,  // measure 57
0001
1000
0100
0000
1000
0000
0010
0000
,  // measure 58
1000
0100
0010
0001
,  // measure 59
1000
0001
1000
0001
1000
0001
1000
0001
,  // measure 60
1000
0001
1000
0001
1000
0000
0010
0000
,  // measure 61
1000
0100
1000
0000
0001
0000
1000
0000
,  // measure 62
0001
0010
0001
0100
0001
0000
1000
0000
,  // measure 63
0010
1000
0010
1000
0010
1000
0010
1000
,  // measure 64
0010
1000
0010
1000
0010
1000
0001
0000
,  // measure 65
0100
0001
0100
0000
0010
0000
1000
0000
,  // measure 66
0100
0010
0001
1000
,  // measure 67
0100
1000
0100
1000
0100
1000
0100
1000
,  // measure 68
0100
1000
0100
1000
0100
1000
0100
0000
,  // measure 69
0010
0001
0010
0000
0001
0000
0100
0000
,  // measure 70
0010
1000
0010
0000
1000
0000
0100
0000
,  // measure 71
0010
0001
0010
0001
0010
0001
0010
0001
,  // measure 72
0010
0000
0001
0010
0000
0001
0010
0000
,  // measure 73
0001
1000
0001
0000
1000
0000
0010
0000
,  // measure 74
0100
0001
0100
0000
0001
0000
0010
0000
,  // measure 75
0100
1000
0100
1000
0100
0010
0000
0010
,  // measure 76
0001
0100
0001
0100
0001
0100
0001
0000
,  // measure 77
1000
0001
1000
0001
0100
0000
0010
0000
,  // measure 78
1000
0100
1000
0100
0010
0001
0010
0001
,  // measure 79
0100
0010
0100
0010
0100
0010
0100
0010
,  // measure 80
0100
0010
0100
0010
0100
0010
0100
0000
,  // measure 81
0001
0010
0001
0010
0001
0000
1000
0000
,  // measure 82
0100
1000
0010
0100
,  // measure 83
0001
1000
0001
1000
0001
1000
0001
1000
,  // measure 84
0001
1000
0001
1000
0001
1000
0001
0000
,  // measure 85
1000
0100
1000
0100
0010
0000
0100
0000
,  // measure 86
1000
0100
0010
0100
,  // measure 87
1000
0010
1000
0010
1000
0010
1000
0010
,  // measure 88
1000
0000
0010
1000
0000
0010
1000
0000
,  // measure 89
0001
0100
0001
0100
0001
0000
1000
0000
,  // measure 90
0010
1000
0100
0010
,  // measure 91
0100
0010
0100
1000
0100
0010
0100
1000
,  // measure 92
0100
0010
0100
1000
0100
0010
0100
0000
,  // measure 93
0010
0001
0010
0100
0010
0001
0010
0100
,  // measure 94
0010
0001
0010
0100
0010
0001
0010
0100
,  // measure 95
0020
0000
0000
0000
,  // measure 96
0000
0000
0000
0000
,  // measure 97
0000
0000
0000
0000
,  // measure 98
0000
0000
0000
0000
,  // measure 99
0000
0000
0000
0000
,  // measure 100
0030
0000
0000
0000
;
