#TITLE:Black Bullet;
#SUBTITLE:;
#ARTIST:fripside;
#TITLETRANSLIT:;
#SUBTITLETRANSLIT:;
#ARTISTTRANSLIT:;
#GENRE:;
#CREDIT:;
#BANNER:Black Bullet.png;
#BACKGROUND:Black Bullet-bg.png;
#LYRICSPATH:;
#CDTITLE:;
#MUSIC:Black Bullet.ogg;
#OFFSET:-0.697000;
#SAMPLESTART:49.687469;
#SAMPLELENGTH:14.999998;
#SELECTABLE:YES;
#BPMS:0.000000=155.000000
;
#STOPS:
;
#BGCHANGES:;
#KEYSOUNDS:;
#ATTACKS:;

//---------------dance-single - ----------------
#NOTES:
     dance-single:
     :
     Beginner:
     2:
     0.128493,0.148080,0.000000,0.000000,0.000000,82.000000,82.000000,0.000000,0.000000,0.000000,0.000000,0.128493,0.148080,0.000000,0.000000,0.000000,82.000000,82.000000,0.000000,0.000000,0.000000,0.000000:
0000
0000
0000
0000
,
0000
0000
0000
0000
,
0000
0000
0000
0000
,
0000
0000
0000
0000
,
1000
0000
0000
0000
,
0001
0000
1000
0000
,
0010
0000
1000
0000
,
0010
0000
0000
0000
,
0100
0000
0000
0000
,
0001
0000
0000
0000
,
1000
0000
0000
0000
,
0100
0000
0000
0000
,
1000
0000
0000
0000
,
0010
0000
0000
0000
,
0100
0000
0000
0000
,
0001
0000
0000
0000
,
1000
0000
1000
0000
,
0010
0000
0010
0000
,
0100
0000
0100
0000
,
0001
0000
0001
0000
,
1000
0000
1000
0000
,
0100
0000
0100
0000
,
0010
0000
0010
0000
,
0001
0000
0001
0000
,
1000
0000
1000
0000
,
0100
0000
0100
0000
,
1000
0000
1000
0000
,
0010
0000
0010
0000
,
0100
0000
0100
0000
,
0001
0000
0001
0000
,
1000
0000
1000
0000
,
0100
0000
0000
0000
,
0010
0000
0010
0000
,
0001
0000
0001
0000
,
0100
0000
0100
0000
,
0010
0000
0010
0000
,
1000
0000
1000
0000
,
0001
0000
0001
0000
,
0100
0000
0100
0000
,
0010
0000
0010
0000
,
1000
0000
0001
0000
,
1000
0000
0000
0000
,
0100
0000
0010
0000
,
0100
0000
0000
0000
,
0010
0000
0001
0000
,
0010
0000
0000
0000
,
0100
0000
1000
0000
,
0100
0000
0000
0000
,
0000
0000
1000
0000
,
0001
0000
0000
0000
,
1000
0000
0010
0000
,
1000
0000
0000
0000
,
0001
0000
1000
0000
,
0001
0000
0000
0000
,
1000
0000
0000
0000
;

//---------------dance-single - ----------------
#NOTES:
     dance-single:
     :
     Easy:
     4:
     0.203708,0.301644,0.032907,0.021938,0.000000,130.000000,127.000000,3.000000,2.000000,0.000000,0.000000,0.203708,0.301644,0.032907,0.021938,0.000000,130.000000,127.000000,3.000000,2.000000,0.000000,0.000000:
0000
0000
0000
0000
,
0000
0000
0000
0000
,
0000
0000
0000
0000
,
0000
0000
0000
0000
,
1000
1000
0010
0000
,
0100
0100
0001
0000
,
0001
0000
1000
0000
,
0001
0000
0000
0000
,
0100
0000
0100
0000
,
0010
0000
0010
0000
,
1000
0000
1000
0000
,
0001
0000
0001
0000
,
0100
0000
0100
0000
,
0010
0000
0010
0000
,
1000
0001
1000
0000
,
0001
1000
0001
0000
,
0100
0100
0010
0000
,
0010
0010
1000
0000
,
1000
1000
0001
0000
,
0001
0001
0100
0000
,
0100
0000
0010
0000
,
0100
0000
0001
0000
,
1000
0000
0001
0000
,
1000
0000
0010
0000
,
1000
0000
0001
0000
,
1000
0000
0100
0000
,
1000
0000
0010
0000
,
0100
0000
0100
0000
,
0010
0000
1000
0000
,
1000
0000
0010
0000
,
0100
0000
0001
0000
,
0100
0000
0010
0000
,
1000
1000
1000
0000
,
0001
0001
0001
0000
,
0100
0100
0100
0000
,
0010
0010
0010
0000
,
1000
1000
1000
0000
,
0001
0001
0001
0000
,
0100
0100
0100
0000
,
0010
0010
0010
0000
,
1000
0000
0001
0000
,
1000
0001
1000
0000
,
0001
0100
0001
0000
,
0100
0010
0110
0000
,
0010
1000
1010
0000
,
1000
0001
1001
0000
,
0001
0100
0001
0000
,
1000
0001
1000
0000
,
0010
0100
0001
0010
,
0200
0000
1300
1000
,
0100
0000
0010
0000
,
0001
0000
1000
0000
,
0001
0000
1000
0000
,
0010
0000
1000
0000
,
0100
0020
0000
0000
,
0030
0000
0000
0000
;

//---------------dance-single - ----------------
#NOTES:
     dance-single:
     :
     Medium:
     7:
     0.305562,0.392137,0.109689,0.109689,0.000000,195.000000,185.000000,10.000000,10.000000,0.000000,0.000000,0.305562,0.392137,0.109689,0.109689,0.000000,195.000000,185.000000,10.000000,10.000000,0.000000,0.000000:
0000
0000
0000
0000
,
0000
0000
0000
0000
,
0000
0000
0000
0000
,
0000
0000
0000
0000
,
1000
0001
1000
0000
,
0010
0000
0000
1000
0000
0000
0000
0000
,
0010
0000
0000
0100
0000
0000
0000
0000
,
0001
0000
0000
1000
0000
0000
0000
0000
,
0100
1000
0100
0000
,
0010
0001
0010
0000
,
0100
1000
0001
1000
,
0010
0100
0002
0003
,
1000
0100
2000
3000
,
0010
0100
0001
0000
,
0100
0010
1000
0010
,
0100
0001
1000
0001
,
0100
0010
1000
0100
,
1000
0001
0011
0010
,
0100
1000
1001
0001
,
0100
0010
0100
0001
,
1000
0100
1000
0010
,
1000
0010
0110
0100
,
0001
0010
0001
1000
,
1100
0100
0010
0001
,
1000
0000
0001
1000
0001
0000
1000
0000
,
0010
0100
0010
1000
,
0100
0000
0010
0000
0001
0010
0001
0000
,
1000
0001
1000
0000
,
0100
1000
0010
1000
,
0100
0010
0001
0000
,
1000
0001
1000
0001
,
0200
0000
0310
0000
,
1000
0000
0001
1000
0001
0000
1000
0000
,
0100
0010
0011
0001
,
0100
1000
0100
0001
,
0010
0001
0010
0000
0100
0000
1000
0000
,
0100
0000
0010
0000
0001
0000
1000
0001
,
1000
0000
0001
1000
0001
0000
1000
0000
,
0100
1000
0010
0100
,
0010
1000
0001
0100
,
0101
0001
0011
0010
,
0110
0100
1100
1000
,
0001
0100
0010
0100
,
0002
2003
3002
0103
,
0010
1000
0010
0100
,
0002
2003
3002
0103
,
0010
1000
0010
0100
,
0001
1000
1010
0010
,
0100
0001
1000
0001
,
0100
0010
0100
0010
,
0100
0000
0001
0000
,
1000
0000
0010
0000
,
1000
0000
0100
0000
,
1000
0000
0010
0000
,
0100
0001
0200
0000
0000
0000
0000
0000
,
0300
0000
0000
0000
;

//---------------dance-single - ----------------
#NOTES:
     dance-single:
     :
     Hard:
     9:
     0.462260,0.422302,0.109689,0.296160,0.208409,295.000000,285.000000,10.000000,27.000000,0.000000,0.000000,0.462260,0.422302,0.109689,0.296160,0.208409,295.000000,285.000000,10.000000,27.000000,0.000000,0.000000:
// measure 0
0000
0000
0000
0000
,  // measure 1
0000
0000
0000
0000
,  // measure 2
0000
0000
0000
0000
,  // measure 3
0000
0000
0000
0000
,  // measure 4
1001
0000
0000
1010
0000
0010
0000
0100
,  // measure 5
0000
0001
0000
0010
0000
0100
2000
0000
,  // measure 6
3002
0000
0003
0100
0000
0010
0000
1000
,  // measure 7
0000
0100
0000
0001
0000
0100
2000
0000
,  // measure 8
3010
0000
0000
0100
0000
0000
0001
0000
0200
0000
0000
0010
0300
0000
1000
0000
,  // measure 9
0001
0000
0000
0010
0000
0000
0001
0000
0200
0000
0000
0010
0300
0000
1000
0000
,  // measure 10
0100
0000
0000
0100
0000
0000
0010
0000
0001
0000
0000
0001
0000
0000
1000
0000
,  // measure 11
0010
0000
0000
1000
0000
0000
0100
0000
0010
0000
0001
0000
1000
0000
0001
0000
,  // measure 12
0100
0000
0000
0100
0000
0000
0010
0000
1000
0000
0000
1000
0000
0000
0001
0000
,  // measure 13
0010
0000
0000
0010
0000
0000
0001
0000
0100
0000
0000
0100
0000
0000
0010
0000
,  // measure 14
1000
0000
0000
1000
0000
0000
0001
0000
0100
0000
0000
0100
0000
0000
0010
0000
,  // measure 15
1000
0001
1000
0000
0001
0100
0001
0000
,  // measure 16
1000
0000
0000
1000
0000
0000
0010
0000
0100
0000
0001
0000
0100
0000
0000
0000
,  // measure 17
0010
0000
0000
0010
0000
0000
1000
0000
0100
0000
0001
0000
0100
0000
0000
0000
,  // measure 18
1000
0000
0000
1000
0000
0000
0001
0000
0010
0000
1000
0000
0010
0000
0000
0000
,  // measure 19
0001
0000
0000
0100
0000
0000
0010
0000
0100
0000
0001
0000
0100
0000
0000
0000
,  // measure 20
0010
0000
0000
1000
0000
0000
0100
0000
1000
0000
0010
0000
1000
0000
0001
0000
,  // measure 21
0010
0000
0000
0001
0000
0000
0100
0000
1000
0000
0000
0000
0101
0000
0000
0000
,  // measure 22
0001
0000
0000
1000
0000
0000
0001
0000
0100
0000
0000
0010
0000
0000
0100
0000
,  // measure 23
0001
0000
0000
1000
0000
0000
0001
0000
1000
0000
0010
0000
1000
0000
0000
0000
,  // measure 24
0100
0000
0000
0100
0000
0000
1000
0000
0001
0000
0000
1000
0000
0000
0001
0000
,  // measure 25
0100
0000
0000
0100
0000
0000
0010
0000
1000
0000
0001
0000
1000
0000
0000
0000
,  // measure 26
0010
0000
0000
0000
0110
0000
0000
0000
0100
0000
0000
0001
0000
0000
1000
0000
,  // measure 27
0001
0000
0000
0010
0000
0000
0100
0000
1000
0000
0000
0000
1010
0000
0000
0000
,  // measure 28
0010
0000
0100
0000
0010
0000
0100
0000
0001
0000
0000
1000
0000
0000
0010
0000
,  // measure 29
1000
0000
0000
0001
0000
0000
0100
0000
0001
0000
0000
0010
0000
0000
0100
0000
,  // measure 30
1000
0000
0000
0010
0000
0000
1000
0000
0001
0000
0100
0000
0001
0000
0010
0000
,  // measure 31
0001
0000
0000
0100
0000
0000
0020
0000
0000
0000
0030
0000
1000
0000
0001
0000
,  // measure 32
2000
0000
3001
0100
0002
0000
0103
0010
,  // measure 33
0100
0001
0100
0010
0200
0000
0310
1000
,  // measure 34
0200
0000
1300
0010
0200
0000
0301
1000
,  // measure 35
0001
0100
0001
0010
0002
0000
0103
0010
,  // measure 36
0100
0000
0100
0010
0200
0000
0310
1000
,  // measure 37
0010
1000
0001
0100
0002
0000
0003
1000
,  // measure 38
0010
0000
0000
1000
0000
0000
0100
0000
0010
0000
0000
0000
0011
0000
0000
0000
,  // measure 39
0001
0000
0000
0100
0000
0000
0010
0000
1000
0000
0000
0000
0100
0000
1000
0000
,  // measure 40
0020
0000
0130
0001
0020
0000
0130
1000
,  // measure 41
0001
0010
0001
0100
0010
0000
0100
0001
,  // measure 42
2000
0000
3001
0100
0020
0000
1030
0100
,  // measure 43
1000
0001
0010
0001
0200
0000
0301
1000
,  // measure 44
0002
0000
1003
0010
2000
0000
3100
1000
,  // measure 45
0100
0010
0001
0010
0002
0000
0003
0100
,  // measure 46
0001
0000
0000
1000
0000
0000
0010
0000
1000
0000
0000
0000
1100
0000
0000
0000
,  // measure 47
0100
0000
0000
0010
0000
0000
0001
0000
2000
0000
0000
0000
3000
0000
0010
0000
,  // measure 48
1000
0000
0000
0001
0000
0000
0100
0000
0001
0000
0000
0010
0000
0000
0001
0000
,  // measure 49
2000
0000
3010
0100
,  // measure 50
0001
0000
0000
0101
0000
1001
0000
1000
,  // measure 51
0000
0010
0000
0100
0000
0001
0010
0000
,  // measure 52
0021
0000
0000
0031
0000
1000
0000
0001
,  // measure 53
0000
0010
0000
0100
0000
0001
0200
0000
,  // measure 54
0310
0001
2000
0000
0000
0000
0000
0000
,  // measure 55
3000
0000
0000
0000
;
