#TITLE:Beast Mode;
#SUBTITLE:;
#ARTIST:TAG;
#TITLETRANSLIT:;
#SUBTITLETRANSLIT:;
#ARTISTTRANSLIT:;
#GENRE:;
#CREDIT:;
#BANNER:Beast Mode.png;
#BACKGROUND:Beast Mode-bg.png;
#LYRICSPATH:;
#CDTITLE:;
#MUSIC:Beast Mode.ogg;
#OFFSET:-2.681000;
#SAMPLESTART:64.131317;
#SAMPLELENGTH:14.999997;
#SELECTABLE:YES;
#BPMS:0.000000=194.960007
,196.000000=97.480003
,198.000000=389.920013
;
#STOPS:
;
#BGCHANGES:;
#KEYSOUNDS:;
#ATTACKS:;

//---------------dance-single - ----------------
#NOTES:
     dance-single:
     :
     Beginner:
     4:
     0.132966,0.287110,0.000000,0.022518,0.000000,124.000000,124.000000,0.000000,3.000000,0.000000,0.000000,0.132966,0.287110,0.000000,0.022518,0.000000,124.000000,124.000000,0.000000,3.000000,0.000000,0.000000:
0000
0000
0000
0000
,
0000
0000
0000
0000
,
0000
0000
0000
0000
,
0000
0000
0000
0000
,
1000
0000
0000
0000
,
0010
0000
0000
0000
,
1000
0000
0000
0000
,
0001
0000
0000
0000
,
0000
0000
0000
0000
,
0000
0000
0000
0000
,
0100
0000
0000
0000
,
0100
0000
0000
0000
,
0010
0000
0000
0000
,
0010
0000
0000
0000
,
1000
0000
0000
0000
,
1000
0000
0000
0000
,
0001
0000
0000
0000
,
0001
0000
0000
0000
,
0100
0000
0000
0000
,
0100
0000
0000
0000
,
0010
0000
0000
0000
,
0010
0000
0000
0000
,
1000
0000
0000
0000
,
1000
0000
0000
0000
,
0001
0000
0000
0000
,
0001
0000
0000
0000
,
0100
0000
0000
0000
,
0100
0000
0000
0000
,
0010
0000
0000
0000
,
0010
0000
0000
0000
,
1000
0000
1000
0000
,
0001
0000
0001
0000
,
0100
0000
0100
0000
,
0010
0000
0010
0000
,
1000
0000
0000
0000
,
1000
0000
0000
0000
,
0001
0000
0000
0000
,
0001
0000
0000
0000
,
0010
0000
0000
0000
,
0010
0000
0000
0000
,
0100
0000
0000
0000
,
0100
0000
0000
0000
,
1000
0000
0000
0000
,
0001
0000
0000
0000
,
1000
0000
0000
0000
,
0010
0000
0000
0000
,
1000
0000
0000
0000
,
0100
0000
0000
0000
,
0010
0000
0000
0000
,
0001
0000
1000
0000
,
0000
0000
0000
0000
,
0000
0000
0001
0000
,
0000
0000
0000
0000
,
0000
0000
0100
0000
,
0000
0000
0000
0000
,
0000
0000
0010
0000
,
0000
0000
0000
0000
,
0000
0000
1000
0000
,
0000
0000
0000
0000
,
0000
0000
0010
0000
,
0000
0000
0000
0000
,
0000
0000
0100
0000
,
0000
0000
0000
0000
,
0000
0000
0001
0000
,
0000
0000
0000
0000
,
0000
0000
1000
0000
,
0000
0000
0000
0000
,
0000
0000
0001
0000
,
0000
0000
0000
0000
,
0000
0000
0010
0000
,
0000
0000
0000
0000
,
0000
0000
0001
0000
,
0000
0000
0000
0000
,
0000
0000
0100
0000
,
0000
0000
0000
0000
,
0000
0000
0010
0000
,
0000
0000
0000
0000
,
0000
0000
1000
0000
,
0000
0000
0010
0000
,
0000
0000
1000
0000
,
0000
0000
0000
0000
,
0000
0000
0001
0000
,
0000
0000
0000
0000
,
1000
0000
0000
0000
,
0000
0000
0001
0000
,
0000
0000
0100
0000
,
0000
0000
0000
0000
,
0000
0000
0010
0000
,
0000
0000
0000
0000
,
1000
0000
0000
0000
,
0000
0000
0001
0000
,
0000
0000
1000
0000
,
0000
0000
0010
0000
,
0000
0000
1000
0000
,
0000
0000
0000
0000
,
0010
0000
0000
0000
,
0000
0000
0100
0000
,
0000
0000
0001
0000
,
0000
0000
0000
0000
,
0000
0000
1000
0000
,
0000
0000
0000
0000
,
0000
0000
0010
0000
,
0000
0000
0000
0000
,
0000
0000
1000
0000
,
0000
0000
0000
0000
,
0000
0000
0001
0000
,
0000
0000
0000
0000
,
0000
0000
1000
0000
,
0000
0000
0000
0000
,
0000
0000
0010
0000
,
0000
0000
0000
0000
,
0000
0000
1000
0000
,
0000
0000
0000
0000
,
0000
0000
0001
0000
,
0000
0000
0000
0000
,
0000
0000
1000
0000
,
0000
0000
0000
0000
,
0000
0000
0010
0000
,
0000
0000
1000
0000
,
0000
0000
0010
0000
,
0000
0000
0100
0000
,
0000
0000
0010
0000
,
0000
0000
1000
0000
,
0000
0000
0010
0000
,
0000
0000
0100
0000
,
0000
0000
0001
0000
,
0000
0000
0010
0000
,
0000
0000
0001
0000
,
0000
0000
1000
0000
,
0000
0000
0100
0000
,
0000
0000
0100
0000
,
0000
0000
1000
0000
,
1000
0000
1000
0000
,
0000
0000
0001
0000
,
0001
0000
0001
0000
,
0000
0000
0100
0000
,
0100
0000
0100
0000
,
0000
0000
0010
0000
,
0000
0000
0010
0000
,
0000
0000
1000
0000
,
0000
0000
0001
0000
,
0000
0000
0100
0000
,
0000
0000
0010
0000
,
0000
0000
1000
0000
,
0000
0000
0001
0000
,
0000
0000
2000
0000
,
0000
0000
0000
0000
,
0000
0000
0002
0000
,
0000
0000
0000
0000
,
0000
3003
0001
0000
,
0000
0010
0000
0000
,
0100
0000
0200
0000
,
0000
0000
0000
0000
,
0300
0000
0000
0000
;

//---------------dance-single - ----------------
#NOTES:
     dance-single:
     :
     Easy:
     12:
     0.417128,0.803909,0.045037,0.097580,0.000000,389.000000,383.000000,6.000000,13.000000,0.000000,0.000000,0.417128,0.803909,0.045037,0.097580,0.000000,389.000000,383.000000,6.000000,13.000000,0.000000,0.000000:
0000
0000
0000
0000
,
0000
0000
0000
0000
,
0000
0000
0000
0000
,
0000
0000
0000
0000
,
1000
0100
1000
0010
,
0200
0000
0301
1000
,
0002
0000
0013
0100
,
2000
0000
0000
0000
,
0000
0000
0000
0000
,
0000
0000
0000
0000
,
3001
0001
0010
0010
,
0001
0001
0100
0100
,
0010
0010
1000
1000
,
0100
0100
1000
1000
,
0001
0010
0001
0100
,
0010
1000
0010
0100
,
0001
0010
0001
0100
,
0010
1000
0010
0100
,
0002
0000
1003
0100
,
1000
0010
0100
0001
,
2000
0000
3010
0100
,
0001
0100
0010
1000
,
0001
0001
1000
1000
,
0100
0100
0010
0010
,
0001
1000
0001
1000
,
0200
0000
0310
0001
,
0020
0000
0130
1000
,
0200
0000
0310
0001
,
0020
0000
0130
1000
,
0001
1000
0010
0100
,
0001
0001
0000
0100
0100
0000
0010
0010
,
0000
1000
1000
0000
0000
0000
1010
0000
,
0010
0100
0000
0100
0001
0000
0001
0010
,
0000
0010
0100
0000
1100
0000
1010
0000
,
0010
0100
0010
0000
0010
0100
0010
0000
,
0100
0001
0010
0100
,
1000
0001
1000
0000
1000
0001
1000
0000
,
0001
0100
0010
0100
,
0001
0010
0100
1000
,
0001
0100
0001
0000
0100
0010
0100
0000
,
0001
1000
0001
0010
,
1100
1100
1100
0010
,
0100
0000
0001
0000
0010
0001
0010
0000
,
0100
0010
0001
1000
,
0001
1000
0001
0000
1000
0000
0100
0000
,
1000
0010
0100
0010
,
1000
0000
0001
0000
0100
0001
0100
0000
,
0100
0010
1000
0010
,
0100
0001
0010
0100
,
2000
0000
3001
0000
,
1000
0000
0001
0000
,
1000
0010
0000
0000
,
0100
0000
0010
0000
,
1000
0000
0100
0000
,
1000
0000
0010
0000
,
0100
0000
0001
0000
,
0010
0000
0001
0010
,
0001
0000
1000
0000
,
0100
0000
1000
0000
,
0010
0000
0100
0000
,
0001
0000
0010
0000
,
0001
0000
1000
0000
,
0100
0000
1000
0000
,
0010
0000
0100
0010
,
0100
0000
0010
0100
,
0010
0000
1000
0000
,
0001
0000
1000
0000
,
0001
0000
0100
0000
,
0010
0000
0100
0000
,
0010
0000
1000
0000
,
0100
0000
1000
0000
,
0001
0000
0100
0000
,
0001
0000
0100
0000
,
0010
0000
1000
0000
,
0100
0000
0001
0000
,
0100
0000
1000
0000
,
0010
0000
0001
0000
,
0010
0000
1000
0000
,
0100
0000
0001
0000
,
0100
0000
1000
0000
,
0001
0000
0010
0000
,
0001
0000
1000
0000
,
0001
0000
1000
0000
,
0100
0000
0000
0010
,
0000
0000
0001
0000
,
0010
0000
0100
0000
,
0000
1000
0000
0000
,
0001
0000
0000
0010
,
0000
0000
0100
0000
,
0010
0000
0001
0000
,
0000
1000
0000
0000
,
0001
0000
0000
1000
,
0000
0000
0010
0000
,
0100
0000
0010
0000
,
0000
1000
0000
0000
,
0001
0000
0000
0100
,
0000
0000
0010
0000
,
0100
0000
1000
0000
,
0010
0000
0010
0000
,
0010
0000
1000
0000
,
1000
0000
1000
0000
,
0001
0000
0001
0000
,
0001
0000
0100
0000
,
0100
0000
0100
0000
,
0010
0000
0010
0000
,
0010
0000
1000
0000
,
1000
0000
1000
0000
,
0001
0000
0001
0000
,
0001
0000
0100
0000
,
0100
0000
0100
0000
,
0010
0000
0010
0000
,
0010
0000
1000
0000
,
1000
0000
1000
0000
,
0001
0000
0001
0000
,
0100
0000
0010
0000
,
0010
0000
1000
0000
,
1000
0000
0100
0000
,
0100
0000
1000
0100
,
1000
0000
0001
0100
,
0001
0000
0100
0000
,
0010
0000
1000
0000
,
0100
0000
0010
0000
,
0001
0000
1000
0000
,
0001
0000
1000
0000
,
0010
0000
0100
0000
,
0010
0000
1000
0000
,
0100
0000
0010
0000
,
0001
0000
0010
0000
,
0001
0000
1000
0000
,
0001
0000
0100
0000
,
0001
0000
1000
0000
,
0001
0000
1000
0000
,
0010
0000
0100
0010
,
0100
0000
0010
0000
,
1000
0000
0100
1000
,
0100
0000
1000
0001
,
1000
0000
0001
0100
,
0001
0000
0100
0000
,
0010
0000
1000
0000
,
0010
0000
0100
0000
,
0001
0000
0010
0000
,
0100
0000
1000
0001
,
1000
0000
0001
1000
,
0001
0000
0100
0010
,
0100
0000
0010
1000
,
0010
0000
2000
0000
,
0000
0000
0001
3000
,
0001
0000
0002
0000
,
0000
0000
0000
0000
,
0000
0000
0103
0100
,
0000
0010
0000
1000
,
0001
1000
0002
0000
,
0000
0000
0000
0000
,
0003
0000
0000
0000
;

//---------------dance-single - ----------------
#NOTES:
     dance-single:
     :
     Hard:
     17:
     0.892160,1.263286,0.630517,0.277728,0.120098,832.000000,748.000000,84.000000,37.000000,0.000000,0.000000,0.892160,1.263286,0.630517,0.277728,0.120098,832.000000,748.000000,84.000000,37.000000,0.000000,0.000000:
// measure 0
0000
0000
0000
0000
,  // measure 1
0000
0000
0000
0000
,  // measure 2
0000
0000
0000
0000
,  // measure 3
0000
0000
0000
0000
,  // measure 4
1002
0000
2003
3200
,  // measure 5
0320
0000
0030
0001
2001
0000
3000
0000
,  // measure 6
1020
0000
0000
0000
0000
0000
0000
0000
0230
0000
0000
0000
0300
0000
0001
1000
,  // measure 7
0002
0000
0000
0000
,  // measure 8
2000
0000
0000
0000
,  // measure 9
0000
0000
0000
0000
0000
0000
0000
3003
,  // measure 10
0010
0100
0010
1000
0010
0200
0000
0310
,  // measure 11
0001
0010
1000
0100
0010
0100
1000
0000
,  // measure 12
1001
0000
0001
1000
0010
0001
0010
1000
,  // measure 13
0100
0001
0100
1000
0001
0200
0000
0300
,  // measure 14
0010
1000
0001
1000
0010
1000
0001
1000
,  // measure 15
0010
1000
0100
1000
0010
1000
0002
0000
,  // measure 16
0103
0010
1000
0010
0100
0010
1000
0010
,  // measure 17
0100
0010
1000
0010
0100
0010
2000
0000
,  // measure 18
3002
0000
0100
0000
0100
0000
0103
0010
,  // measure 19
0000
0000
0220
0000
0000
0000
0330
0000
0001
1000
0001
1000
0001
0010
0001
0010
,  // measure 20
0200
0000
0000
0000
0000
0000
0310
0001
,  // measure 21
0000
0001
1000
0000
1100
0000
0011
0000
,  // measure 22
0202
0000
0303
0220
0000
0330
1001
0000
,  // measure 23
2002
0000
3003
2020
0000
3030
0101
0000
,  // measure 24
0001
0010
0100
1000
0001
0010
0100
1000
,  // measure 25
2020
0000
3030
2002
0000
3003
0101
0000
,  // measure 26
0100
0010
1000
0010
0100
0010
1000
0001
,  // measure 27
0100
0000
0001
0000
0020
0000
0000
0000
0130
1000
0100
1000
0001
0010
0001
0010
,  // measure 28
0002
0000
0000
0000
0000
0000
0103
0110
,  // measure 29
0000
0010
1000
0000
1100
0000
0110
0000
,  // measure 30
0010
0011
0000
0001
0101
0000
0100
1100
,  // measure 31
0000
1001
1010
0000
0000
0000
1001
0000
,  // measure 32
0100
0110
0000
0010
1010
0000
0001
1001
,  // measure 33
0000
0110
1001
0000
0001
0000
1001
0000
,  // measure 34
1000
0000
0100
0000
0010
0000
0001
0000
0100
0001
0000
1000
0001
0000
1000
0000
,  // measure 35
0010
0000
0100
0000
0001
0000
0010
0001
0000
0100
0001
0000
1000
0000
0010
0000
,  // measure 36
1000
0000
0100
0000
0010
0000
0001
0000
0100
0010
0100
0010
1000
0001
1000
0001
,  // measure 37
0100
0010
0100
0001
1000
0010
1000
0001
,  // measure 38
0100
0000
0001
0000
1000
0000
0000
0000
0010
0100
0000
0001
0100
0000
0010
0000
,  // measure 39
1000
0100
0010
0001
0100
0010
1000
0000
,  // measure 40
0001
0000
0100
0000
0010
0000
0000
0000
0100
0001
0000
1000
0001
0000
1000
0000
,  // measure 41
0010
0000
0000
0110
0000
0000
0100
0000
0001
0000
1000
0000
0001
0000
0000
0000
,  // measure 42
0010
0000
1000
0000
0010
0000
0000
0000
0001
0100
0000
0001
1000
0000
0010
1000
,  // measure 43
0010
0000
0100
0000
0001
0000
0000
0001
1000
0000
0010
0000
1000
0000
0100
0000
,  // measure 44
0010
0000
0001
0000
0100
0000
0000
0000
0010
1000
0000
0100
1000
0000
0001
0000
,  // measure 45
0100
0010
1000
0010
0100
0001
0010
0100
,  // measure 46
0010
0000
0001
0000
1000
0000
0000
0000
0010
1000
0010
0000
0100
0000
0001
0000
,  // measure 47
0010
0001
0100
1000
0100
0001
0010
0100
,  // measure 48
0010
1000
0010
0001
0100
0010
1000
0001
,  // measure 49
1000
1000
0010
0010
0100
0100
0001
0000
1000
0000
0000
0000
0010
0000
0000
0000
,  // measure 50
1000
0000
0001
0000
0100
0010
0100
0000
,  // measure 51
0001
0010
0100
1000
,  // measure 52
0010
0000
1000
0001
1000
0000
0001
0000
,  // measure 53
0100
0000
0010
0000
0100
0001
0100
0001
,  // measure 54
1000
0000
0010
0000
1000
0001
0000
1000
,  // measure 55
0100
0000
0010
0000
0001
0100
0001
0000
,  // measure 56
1000
0000
0010
0100
0000
0001
0100
0000
,  // measure 57
0010
1000
0001
0100
,  // measure 58
0101
0000
0000
0000
0001
1000
0001
0000
,  // measure 59
1000
0000
0010
1000
0010
0000
0100
0000
,  // measure 60
0001
0000
0010
0000
0100
0000
1000
0001
,  // measure 61
0100
0001
0011
0010
,  // measure 62
0100
0000
0000
0000
1000
0001
0000
0100
,  // measure 63
0001
0000
0010
0000
0011
0000
0000
0101
,  // measure 64
0000
0110
1001
1000
,  // measure 65
0100
0010
0100
0000
0010
0000
0001
0000
,  // measure 66
0100
0000
1000
0000
0100
0001
0000
0010
,  // measure 67
0100
1000
0010
1000
,  // measure 68
0001
0000
0010
0000
0001
0000
0100
0010
,  // measure 69
1000
0010
0100
0001
,  // measure 70
0101
0000
0000
0001
1000
0000
0010
1000
,  // measure 71
0100
0000
0010
0001
0100
0000
0010
1000
,  // measure 72
0001
0000
1000
0001
0100
0000
0010
0000
,  // measure 73
1000
0000
0001
0010
,  // measure 74
0001
0100
0001
0000
1000
0100
0000
1000
,  // measure 75
0010
0100
0001
1000
,  // measure 76
0010
0000
0010
0000
0100
0001
0100
0001
,  // measure 77
1000
0010
1000
0001
,  // measure 78
0101
0000
0000
0000
0100
0010
0100
0010
,  // measure 79
1000
0000
0100
0000
1100
0000
0000
1001
,  // measure 80
0000
0101
0100
0110
,  // measure 81
0010
0000
1000
0000
1001
0000
0001
0100
,  // measure 82
0001
0000
1000
0000
0010
0000
0100
0001
,  // measure 83
0100
0010
1000
0001
,  // measure 84
1000
0010
0100
0001
,  // measure 85
0010
0100
1001
0000
,  // measure 86
0000
0110
0000
0000
,  // measure 87
1010
0000
0000
1001
,  // measure 88
0000
0000
0000
0000
0100
0001
1000
0010
,  // measure 89
1000
0000
0010
1000
,  // measure 90
0100
0010
0100
0000
0010
0000
0001
0000
,  // measure 91
1000
0001
1000
0000
0100
0000
0010
0000
,  // measure 92
0001
1000
0100
1000
,  // measure 93
0010
0100
0010
0000
0001
0000
0010
0000
,  // measure 94
1000
0100
0010
0100
,  // measure 95
1000
0001
0010
0001
,  // measure 96
0100
0000
0010
0000
1000
0001
1000
0001
,  // measure 97
2000
0000
3001
0100
,  // measure 98
1000
0100
0001
0010
,  // measure 99
1000
0010
0001
0100
,  // measure 100
1000
0100
0001
1000
,  // measure 101
0010
1000
0010
1000
0010
0000
0100
0000
,  // measure 102
0001
0010
0001
0000
1000
0000
0010
0000
,  // measure 103
0100
0010
0100
0000
0001
0000
1000
0010
,  // measure 104
1000
0000
0010
0000
0100
0001
0100
0001
,  // measure 105
1000
0000
0001
0000
0010
0100
0010
0000
,  // measure 106
0100
0000
1000
0001
0200
0000
0000
0000
,  // measure 107
0010
0000
1000
0000
,  // measure 108
0010
0000
1300
0010
,  // measure 109
0001
0010
1000
0100
,  // measure 110
0010
0001
0010
0001
0100
0000
0010
0000
,  // measure 111
1000
0100
1000
0000
0001
0000
0010
0001
,  // measure 112
0100
0001
1001
0000
,  // measure 113
1010
0000
0000
0000
0100
0010
0100
0000
,  // measure 114
0001
0000
0010
0000
0100
1000
0001
0000
,  // measure 115
1000
0000
0010
0000
0100
0001
0010
0000
,  // measure 116
0001
0000
1000
0010
0100
0000
0010
0000
,  // measure 117
1000
0001
1000
0000
0001
0010
0000
0010
,  // measure 118
0100
0000
0100
1000
0000
1000
0010
0000
,  // measure 119
0100
0001
1000
0000
0001
0100
0000
0100
,  // measure 120
0010
1000
0010
0000
1000
0100
0000
0100
,  // measure 121
0010
0000
0001
0000
1000
0010
1000
0100
,  // measure 122
1000
0010
1000
0000
1001
0000
0000
0101
,  // measure 123
0000
0000
0110
0000
0100
0000
0001
1000
,  // measure 124
0001
1000
0100
0010
0001
0100
0001
0010
,  // measure 125
0001
0000
1000
0000
0100
1000
0100
0010
,  // measure 126
0100
0000
0010
0000
0001
0100
0010
0100
,  // measure 127
0001
1000
1010
0010
,  // measure 128
0110
0100
0101
0001
,  // measure 129
0011
0000
0010
0000
0110
0000
0000
1100
,  // measure 130
0000
0000
1001
0000
0001
0100
0001
0100
,  // measure 131
0001
0000
0010
0000
0110
0000
0000
1100
,  // measure 132
0000
1010
0110
0000
,  // measure 133
0001
0010
0001
0100
0010
1000
0000
1000
,  // measure 134
0100
0000
0010
0000
0001
0100
0000
0100
,  // measure 135
0010
0000
0100
0000
0010
1000
0000
1000
,  // measure 136
0001
0000
0010
0000
0001
0100
0001
0000
,  // measure 137
1000
0001
1000
0000
1010
0000
0000
0110
,  // measure 138
0000
0000
0101
0000
1001
0000
0000
1010
,  // measure 139
0000
0000
0110
0000
0101
0000
0000
0011
,  // measure 140
0000
0110
1100
0000
,  // measure 141
1000
0001
1000
0000
0001
0100
0001
0100
,  // measure 142
0010
0000
0100
0000
0010
1000
0010
1000
,  // measure 143
0100
0000
0010
0000
0001
1000
0001
1000
,  // measure 144
0100
1000
0010
0100
,  // measure 145
0101
0001
0022
0000
,  // measure 146
0000
0000
0033
0000
1001
0000
0000
1100
,  // measure 147
0000
0000
1010
0000
0001
0010
0100
0010
,  // measure 148
0001
0010
0100
1000
0100
0010
0001
0010
,  // measure 149
0100
1000
0001
0000
1001
0000
1001
0000
,  // measure 150
0000
1010
0000
0010
,  // measure 151
0100
0001
2002
0000
,  // measure 152
0000
0000
0000
0000
,  // measure 153
3003
0000
0000
0000
;

//---------------dance-single - ----------------
#NOTES:
     dance-single:
     :
     Challenge:
     18:
     1.055151,2.009773,0.780640,0.495406,0.300246,984.000000,880.000000,104.000000,66.000000,0.000000,0.000000,1.055151,2.009773,0.780640,0.495406,0.300246,984.000000,880.000000,104.000000,66.000000,0.000000,0.000000:
// measure 0
0000
0000
0000
0000
,  // measure 1
0000
0000
0000
0000
,  // measure 2
0000
0000
0000
0000
,  // measure 3
0000
0000
0000
0000
,  // measure 4
2002
0000
0000
3003
0101
0000
0110
0000
,  // measure 5
1200
0000
0000
0000
0300
0000
0010
1000
0020
0000
0000
0000
0130
0000
0000
0000
,  // measure 6
0102
0000
0000
0000
0003
0000
0000
0000
1001
0000
0000
0000
0000
0000
1000
0100
,  // measure 7
2000
0000
0000
0000
,  // measure 8
0002
0000
0000
0000
,  // measure 9
0000
0000
0000
0000
0000
0000
0000
3003
,  // measure 10
0110
0000
0100
0000
0001
0000
1000
0001
0000
0000
0001
0100
0000
0000
0100
0010
,  // measure 11
0000
0000
0010
1000
0000
0000
1000
0000
0001
0000
0010
0001
0100
0000
0000
0000
,  // measure 12
0110
0000
0010
0000
1000
0000
0100
1000
0100
0000
0010
0001
0010
0000
0001
0100
,  // measure 13
0000
0000
0100
0010
0000
0000
1010
0000
0000
0000
2200
0000
0000
0000
3300
0000
,  // measure 14
0001
0100
0001
0000
1000
0000
0010
1000
0010
0000
1000
0001
1000
0000
0100
0010
,  // measure 15
0100
0000
0010
0001
0010
0000
0001
1000
0001
0000
0100
0010
0200
0000
0000
0000
,  // measure 16
0301
1000
0010
0000
1000
0000
0001
0100
0010
0000
0100
0001
0010
0000
0100
1000
,  // measure 17
0010
0000
1000
0010
0100
0000
0001
1000
0010
0000
1000
0001
0100
0000
0000
0000
,  // measure 18
0102
0000
1000
0000
0100
0000
1003
0020
,  // measure 19
0000
0000
0230
0000
0000
0000
0300
0000
0001
1000
0001
1000
0010
1000
0010
1000
,  // measure 20
0200
0000
0010
0000
0010
0000
0310
0022
,  // measure 21
0033
1000
2002
3003
0202
0303
0220
0330
,  // measure 22
2010
0000
0000
3020
0000
0000
0130
0000
,  // measure 23
2002
0000
3003
2020
0000
3030
0220
0330
,  // measure 24
0001
1000
0100
1000
0010
0100
0001
0010
,  // measure 25
0022
0000
0033
2002
0000
0000
0000
3003
,  // measure 26
1000
0010
0001
0010
1000
0001
0100
0002
,  // measure 27
0000
0000
0023
0000
0000
0000
0031
0000
1000
0100
0010
0001
1000
0100
0010
0001
,  // measure 28
0200
0000
0000
0000
0000
0000
0310
0110
,  // measure 29
0000
1001
1001
0000
0101
0000
0110
0000
,  // measure 30
1010
2020
3030
1100
2200
3300
0011
0202
,  // measure 31
0303
0000
1010
0000
0220
0000
0000
0000
0330
0000
0000
0000
0001
1000
0001
0000
,  // measure 32
1010
0022
0033
0101
2200
3300
0110
2002
,  // measure 33
3003
0101
2020
3030
1001
0000
1001
0000
,  // measure 34
0100
0000
0001
0000
0100
0000
1000
0000
0100
0001
0100
0000
1000
0000
0100
0001
,  // measure 35
0100
0000
0010
0000
1000
0000
0001
0010
0001
0000
0100
0000
0110
0000
0010
0000
,  // measure 36
1000
0000
1001
0000
0001
0000
0100
0000
0010
1000
0010
0100
0010
0001
0010
0000
,  // measure 37
1100
0000
0100
0000
0110
0000
0001
1000
0100
0000
1000
0000
0010
0100
0001
0000
,  // measure 38
0011
0000
0010
0000
0110
0000
0000
0000
0100
1000
0100
0010
0001
0000
1000
0001
,  // measure 39
0100
0000
0101
0000
0011
0000
0010
0000
0110
0000
0100
1000
0100
0000
0010
0000
,  // measure 40
0001
1000
0001
1000
0020
0000
0000
0000
0130
0001
0000
1000
0001
0000
0100
0000
,  // measure 41
0110
0000
0000
1010
0000
0000
1001
0000
0001
0000
0100
1000
0100
0000
0001
0000
,  // measure 42
0010
0000
0001
0000
0101
0000
0000
0100
0010
1000
0010
1000
0100
0000
0010
0001
,  // measure 43
0100
0000
0001
0000
0010
0000
0000
0010
0100
0000
0001
0000
0101
0000
1000
0000
,  // measure 44
0010
0000
0100
0000
0101
0000
0000
0000
0001
0010
0000
0001
0100
0000
0010
1000
,  // measure 45
0100
1000
1010
0010
0110
0100
0101
0001
,  // measure 46
0010
0000
0001
0000
1001
0000
0000
0000
1000
0010
0000
0100
0010
0000
1000
0000
,  // measure 47
0001
0000
0010
0000
0100
0000
1000
0000
0001
0100
0001
0100
0010
0100
0010
1000
,  // measure 48
0010
0100
0001
0010
0100
1000
0010
0100
0001
0010
0100
1000
0010
0100
0001
0010
,  // measure 49
0100
0000
0100
0000
1000
0001
1000
0000
0010
0100
0001
0100
0002
0000
0000
0000
1003
0000
0000
0000
0010
0000
0000
0000
0100
0000
0000
0000
0010
0000
0000
0000
,  // measure 50
1000
0000
0001
1000
0010
1000
0001
1000
,  // measure 51
0010
0100
0010
0000
1000
0000
0100
0000
,  // measure 52
0010
0000
0001
0100
0001
0000
1000
0010
,  // measure 53
0100
0010
1000
0000
1001
0000
0001
0000
,  // measure 54
0101
0000
0000
0100
0010
1000
0010
0100
,  // measure 55
0001
0000
0010
1000
0010
0000
0001
0000
,  // measure 56
0100
0000
1000
0100
0001
0000
0010
0100
,  // measure 57
1000
0000
1010
0000
0010
0100
0001
0100
,  // measure 58
0010
0000
1000
0000
0100
0010
0001
0010
,  // measure 59
0100
0010
0001
0010
0100
0000
1000
0000
,  // measure 60
0001
0000
1000
0000
0010
0000
0100
0001
,  // measure 61
0010
0000
0001
0000
1000
0010
0100
0000
,  // measure 62
0010
0000
0000
1000
0001
0000
0011
0000
,  // measure 63
0010
0000
0100
0000
1000
0001
0000
0100
,  // measure 64
0001
0010
0110
1100
,  // measure 65
1001
0000
0101
0000
0100
0000
0010
1000
,  // measure 66
0001
0000
1000
0000
0010
0100
0001
0010
,  // measure 67
0100
1000
0010
0000
0100
0000
0001
0000
,  // measure 68
0011
0000
0010
0000
1000
0000
0010
0001
,  // measure 69
0100
0001
0010
0000
0100
0000
1000
0000
,  // measure 70
0010
1000
0000
1000
0001
0100
0001
0010
,  // measure 71
0001
0000
0100
0010
1000
0000
0100
0000
,  // measure 72
0010
0000
0001
0100
0010
0000
1000
0000
,  // measure 73
0010
0100
0001
1000
,  // measure 74
0001
0100
0001
0000
0010
0001
0000
1000
,  // measure 75
0001
1000
0100
0010
,  // measure 76
0100
0000
1000
0000
0001
0100
0000
0010
,  // measure 77
0100
0000
0001
0000
1000
0100
0010
0000
,  // measure 78
0011
0000
0000
0000
0001
1000
0000
1000
,  // measure 79
0001
0000
0101
0000
0100
0010
0000
0010
,  // measure 80
1000
0000
0001
0000
0100
0001
0010
0100
,  // measure 81
1000
0000
1001
0000
,  // measure 82
0000
0000
0010
1000
0010
0000
1000
0000
,  // measure 83
0100
0010
0001
0110
,  // measure 84
0100
1000
1001
0001
,  // measure 85
0011
0000
0010
0000
0100
1000
0100
0000
,  // measure 86
1000
0000
0001
1000
0001
0000
0100
0000
,  // measure 87
0010
0100
0010
0000
1000
0000
0010
0001
,  // measure 88
0010
0000
0100
0000
0001
1000
0001
1000
,  // measure 89
0100
0010
0100
0000
0010
0001
0010
0000
,  // measure 90
0001
1000
0100
0000
1000
0000
0010
0000
,  // measure 91
0100
0001
0010
0100
,  // measure 92
1000
0001
0100
0001
,  // measure 93
0010
0001
0010
0000
0100
1000
0100
0000
,  // measure 94
1000
0000
0001
1000
0001
0000
0100
0000
,  // measure 95
0010
1000
0010
0000
1000
0000
0001
1000
,  // measure 96
0001
0000
0100
0000
0010
0100
0010
0100
,  // measure 97
0002
0000
0000
0000
1003
0010
0100
0000
,  // measure 98
0010
0000
1000
0001
0100
0000
0001
0000
,  // measure 99
0010
0001
0100
0000
0010
0000
1000
0000
,  // measure 100
0100
1000
0010
0000
1000
0000
0001
0000
,  // measure 101
1000
0001
0010
0000
0001
0100
0010
0000
,  // measure 102
1000
0000
0001
0100
0010
0000
1000
0000
,  // measure 103
0010
1000
0100
0000
0010
0000
0001
0100
,  // measure 104
1000
0000
0100
0000
0001
0010
0100
0010
,  // measure 105
0001
0000
0100
0000
0010
1000
0001
0000
,  // measure 106
1000
0001
0200
0000
0000
0000
0000
0000
,  // measure 107
0000
0301
0010
0100
,  // measure 108
1000
0001
0010
0001
,  // measure 109
1000
0001
0010
0000
0001
0100
0010
1000
,  // measure 110
0001
0100
0010
1000
0001
0100
0010
1000
,  // measure 111
0001
0100
0010
1000
0001
0010
0100
1000
,  // measure 112
0100
0010
0001
1000
0001
0010
0100
1000
,  // measure 113
0100
0010
0001
1000
0001
0000
0220
0000
,  // measure 114
0330
0000
0100
0000
0001
1000
0010
0000
,  // measure 115
1000
0010
0100
0000
0001
0100
0010
0000
,  // measure 116
1000
0100
0010
0001
0100
0010
1000
0100
,  // measure 117
0010
0001
0100
0000
0010
1000
0000
1000
,  // measure 118
0001
0000
0100
0001
0010
0100
1000
0000
,  // measure 119
0010
0000
0100
0000
0001
1000
0000
0010
,  // measure 120
1000
0000
0100
0000
0010
0001
0100
0001
,  // measure 121
0010
0100
1000
0010
1000
0001
1000
0100
,  // measure 122
0010
0001
0100
0000
0010
1000
0100
1000
,  // measure 123
0001
0000
0010
0000
0001
0100
0010
0100
,  // measure 124
1000
0100
0010
0100
0001
0010
0100
1000
,  // measure 125
0001
0010
0100
0000
0010
0001
1000
0100
,  // measure 126
2000
0000
3010
0000
0100
0001
0200
0000
,  // measure 127
0310
0000
1000
0001
0100
0001
0010
0001
,  // measure 128
1000
0000
0100
0000
1000
0001
1000
0001
,  // measure 129
0100
0010
0100
0000
0110
0000
0000
0011
,  // measure 130
0000
0000
1001
0000
1000
0100
0010
0001
,  // measure 131
0100
0010
1000
0001
0100
0000
0000
0110
,  // measure 132
0000
1010
1001
0000
,  // measure 133
0001
1000
0100
1000
0010
0100
0001
0010
,  // measure 134
0001
0100
0010
0000
1000
0001
0100
0001
,  // measure 135
0010
0000
0001
0000
1000
0010
0100
0010
,  // measure 136
0001
0000
0010
0000
1000
0100
0010
0000
,  // measure 137
0001
0010
0100
0000
1100
0000
0000
1001
,  // measure 138
0000
0000
0101
0000
0110
0000
0000
1010
,  // measure 139
0000
0000
1001
0000
0011
0000
0000
0110
,  // measure 140
0000
1100
2002
3003
,  // measure 141
0001
0000
0010
0000
0001
0100
0001
0100
,  // measure 142
0010
0000
1000
0000
0100
0010
0001
0010
,  // measure 143
0100
1000
0100
0000
0010
0001
1000
0100
,  // measure 144
1000
0000
0001
0000
0010
0001
0100
0010
,  // measure 145
0100
0001
1000
0100
2000
0000
0000
0000
,  // measure 146
0000
0000
3000
0000
0011
0000
0000
0101
,  // measure 147
0000
0000
0110
0000
0001
0010
0100
1000
,  // measure 148
0010
0100
0001
0010
0100
1000
0010
0100
,  // measure 149
0001
0100
1000
0100
0001
0000
1001
0000
,  // measure 150
0000
1010
0000
0110
,  // measure 151
0101
1001
2020
0000
,  // measure 152
0000
0000
0000
0000
,  // measure 153
3030
0000
0000
0000
;

//---------------dance-single - ----------------
#NOTES:
     dance-single:
     :
     Medium:
     15:
     0.818171,1.205864,0.540443,0.262715,0.116345,763.000000,691.000000,72.000000,35.000000,0.000000,0.000000,0.818171,1.205864,0.540443,0.262715,0.116345,763.000000,691.000000,72.000000,35.000000,0.000000,0.000000:
0000
0000
0000
0000
,
0000
0000
0000
0000
,
0000
0000
0000
0000
,
0000
0000
0000
0000
,
1002
0000
2003
3200
,
0320
0000
0000
0031
0200
0000
0000
0000
,
0320
0000
0000
0000
0000
0000
0000
0000
2030
0000
0000
0000
0000
0000
3001
0010
,
0002
0000
0000
0000
,
2000
0000
0000
0000
,
0000
0000
0000
0000
0000
0000
0000
3003
,
0010
0100
0001
0100
0010
0200
0000
0301
,
0010
1000
0010
0100
0010
0001
0100
0000
,
0100
0001
1000
0001
0100
0010
1000
0010
,
0100
0001
0010
0100
1000
0002
0000
0003
,
0100
0010
1000
0010
0100
0001
0010
0001
,
1000
0100
1000
0010
0100
0001
0020
0000
,
0031
0100
1000
0100
0001
0010
1000
0010
,
0001
1000
0100
1000
0010
0100
0002
0000
,
2003
0000
0000
0000
0000
0000
3010
0100
,
0000
0000
0101
0000
0000
0000
0000
0000
0001
0010
0001
0000
1000
0000
0100
0000
,
2000
0000
0000
0000
0000
0000
3001
0100
,
0000
0100
0010
0000
1001
0000
0110
0000
,
0202
0000
0303
2002
0000
3003
1010
0000
,
0220
0000
0330
0202
0000
0303
1001
0000
,
1000
0100
1000
0000
0001
0100
0001
0000
,
0202
0000
0303
2002
0000
0000
0000
3003
,
1000
0100
1000
0010
1000
0000
0001
1000
,
0000
0000
0001
0000
0100
0000
0000
0000
0010
1000
0010
0000
1000
0000
0001
0000
,
0020
0000
0000
0000
0000
0000
0031
0100
,
0000
0100
0001
0000
1001
0000
1010
0000
,
0010
0010
0000
0100
0100
0000
0001
1001
,
0000
1000
1100
0000
0000
0000
0000
0000
,
0100
0110
0000
0001
1001
0000
1000
1100
,
0000
0100
0110
0000
0011
0000
1001
0000
,
0100
0000
0010
0000
0001
0000
0010
0000
0100
1000
0000
0100
1000
0000
0001
0000
,
0100
0000
0010
0000
0100
0000
0001
1000
0000
0001
1000
0000
0010
0000
1000
0000
,
0001
0000
0100
0000
0001
0000
0100
0000
0010
1000
0010
0000
1000
0000
0100
0000
,
0010
0001
0100
0001
0010
0001
1000
0100
,
1000
0010
0000
0100
0010
0000
0000
0000
1000
0001
0000
0010
0001
0000
0100
0000
,
0001
0000
0010
0000
0100
0000
1000
0000
0001
0000
0010
0001
0010
0000
1000
0000
,
0010
0000
0001
0000
0100
0000
0000
0000
0010
1000
0000
0001
1000
0000
0100
0000
,
0010
0000
0000
0011
0000
0000
0001
0000
1000
0000
0010
0000
1000
0000
0100
0000
,
0010
0000
0010
0000
1000
0000
0000
0000
0010
0001
0000
0010
0001
0000
0100
0000
,
0010
0000
1000
0000
0001
0000
0000
0001
1000
0000
0010
0000
1000
0000
0100
0000
,
0010
0000
0001
0000
0100
0000
0000
0000
0010
1000
0000
0001
1000
0000
0010
0000
,
0100
0001
0010
0001
1000
0010
1000
0001
,
0100
0000
0010
0000
0100
0000
0000
0000
0001
1000
0000
0001
1000
0000
0010
0000
,
1000
0100
0010
0001
0100
0001
0010
0000
,
0001
1000
0000
0010
1000
0000
0000
0000
0001
1000
0000
0100
1000
0000
0010
0000
,
0100
0010
0100
0010
1000
0001
1000
0001
0100
0000
0000
0000
0010
0000
0000
0000
,
0001
0000
1000
0000
0100
0000
1000
0010
,
1000
0000
0001
0000
0100
0001
0100
0000
,
0001
0010
0100
1000
,
0010
1000
0100
0010
,
1000
0000
0010
0000
0001
0000
0010
0100
,
0010
0001
0100
0010
,
0100
0000
0001
0000
1000
0100
1000
0000
,
0001
0100
0010
1000
,
0001
0000
0000
0000
0001
0010
0000
0001
,
0100
0010
1000
0100
,
1000
0000
0001
0000
0010
0000
0001
0100
,
0001
1000
0010
0100
,
0001
0000
0000
0000
0010
0001
0000
0010
,
0001
0000
0100
0000
0010
1000
0000
0010
,
1000
0100
0010
0001
,
0100
0010
1000
0001
,
1000
0000
0000
0000
0010
1000
0000
0001
,
1000
0001
0010
0001
,
0100
0000
0010
0000
1000
0000
0100
1000
,
0100
0010
0001
0100
,
0001
1000
0000
0010
1000
0000
0100
0000
,
0010
0000
0001
1000
0001
0000
1000
0000
,
0010
0000
0100
0001
0100
0000
0001
0000
,
1000
0000
0010
0000
1000
0100
1000
0000
,
0001
0010
0001
0100
,
0010
1000
0100
1000
,
0001
0000
0010
0000
0100
1000
0100
0000
,
1000
0000
0001
0000
0010
0001
0010
0000
,
0100
0000
1000
0000
0010
1000
0000
0001
,
1000
0010
0100
0001
,
0010
0001
1001
0000
,
0101
0000
1001
1000
,
0100
0010
0001
0100
,
0010
1000
0010
0110
,
0100
0001
1001
1000
,
1010
0000
0110
0000
,
0000
0011
0000
0000
,
1100
0000
0000
0011
,
0000
0101
0100
0010
,
1000
0100
0010
0001
,
0100
0001
0010
1000
,
0010
0001
0100
1000
,
0100
0001
0010
0100
,
1000
0100
0011
0001
,
1000
1001
0001
0100
,
0110
0010
1000
1100
,
0100
0010
0001
1001
,
1020
0000
0130
0001
,
0010
0000
0100
0000
1000
0001
1000
0000
,
0010
0100
0001
1000
,
0010
1000
0100
1000
,
0001
0010
0001
0000
0100
0000
0010
0000
,
0100
0001
0010
0001
,
1000
0000
0010
0000
1000
0000
0010
0100
,
0010
0000
1000
0000
0001
0100
0001
0000
,
0010
0000
0100
0000
1000
0001
1000
0000
,
0010
0000
0100
0001
0100
0000
0001
0000
,
1000
0100
0010
0001
,
0010
0100
1000
0001
,
0100
0000
0001
0000
1000
0001
1000
0000
,
0010
0000
0100
0001
0100
0000
0010
0000
,
1000
0100
1000
0100
1000
0000
0001
0010
,
0001
0000
1001
0000
,
0101
0000
0100
0010
,
1000
0000
0001
0000
1000
0001
0100
0000
,
0001
0010
0001
0100
,
0010
1000
0010
0000
1000
0000
0100
0010
,
0100
0010
0001
0000
1000
0001
0000
0001
,
1000
0000
1000
0010
0000
0010
0100
0000
,
0001
0000
0010
0000
0001
1000
0000
1000
,
0010
0000
1000
0000
0001
0100
0000
0100
,
0001
0000
0010
0000
0100
1000
0100
1000
,
0100
0000
0010
0000
0001
0100
0001
0100
,
0001
0000
1000
0000
0001
0000
0100
0010
,
0100
0000
0001
0000
1000
0001
1000
0000
,
0010
0000
0100
0000
0001
0010
0001
0010
,
0001
0000
1000
0000
0100
1000
0100
1000
,
0100
0000
0010
0000
0001
0100
0001
0000
,
1000
0010
1000
0100
,
1000
0000
0001
0000
0101
0000
0000
0110
,
0000
0000
0010
0000
1000
0001
1000
0001
,
1000
0000
0001
0000
0010
0000
0000
0011
,
0000
0001
0101
0000
,
0100
0000
0010
0000
1010
0000
0000
1001
,
0000
0000
0010
0000
1010
0000
0000
1100
,
0000
0000
0100
0000
0110
0000
0000
0011
,
0000
0001
1001
0000
,
1010
0000
0000
0000
0101
0000
0000
0110
,
0000
0000
1010
0000
1100
0000
0000
0110
,
0000
0000
0011
0000
1001
0000
0000
1010
,
0000
0110
0101
0000
,
1001
0000
0000
0000
1000
0010
1000
0010
,
1000
0000
0001
0000
0010
0001
0010
0001
,
0100
0000
0010
0000
1000
0001
1000
0000
,
0010
0100
0001
0010
,
0100
1000
2002
0000
,
0000
0000
3003
0000
0101
0000
0000
0110
,
0000
0010
2002
0000
,
0000
0000
0000
0000
,
3003
0000
0100
0110
,
0000
1001
0000
1000
,
0100
0010
0022
0000
,
0000
0000
0000
0000
,
0033
0000
0000
0000
;
