#TITLE:Boss Rush (DJ Noriken Remix);
#SUBTITLE:;
#ARTIST:USAO;
#TITLETRANSLIT:;
#SUBTITLETRANSLIT:;
#ARTISTTRANSLIT:;
#GENRE:;
#CREDIT:;
#BANNER:;
#BACKGROUND:;
#LYRICSPATH:;
#CDTITLE:;
#MUSIC:Boss Rush (DJ Noriken Remix).ogg;
#OFFSET:-7.919999;
#SAMPLESTART:99.300934;
#SAMPLELENGTH:15.000003;
#SELECTABLE:YES;
#BPMS:0.000000=199.850006
;
#STOPS:
;
#BGCHANGES:;
#KEYSOUNDS:;
#ATTACKS:;

//---------------dance-single - ----------------
#NOTES:
     dance-single:
     :
     Beginner:
     1:
     0.232053,0.350326,0.007486,0.127255,0.000000,217.000000,216.000000,1.000000,17.000000,0.000000,0.000000,0.232053,0.350326,0.007486,0.127255,0.000000,217.000000,216.000000,1.000000,17.000000,0.000000,0.000000:
0000
0000
0000
0000
,
0000
0000
0000
0000
,
0000
0000
0000
0000
,
0000
0000
0000
0000
,
1001
0000
0100
0000
,
0010
0000
0100
0000
,
0010
0000
0000
0000
,
1000
0000
0001
0000
,
1000
0000
0000
0000
,
0100
0000
0010
0000
,
0100
0000
0010
0000
,
0001
0000
0000
0000
,
1000
0000
1000
0000
,
0001
0001
0001
0000
,
0100
0000
0100
0000
,
0010
0010
0010
0000
,
1000
0000
0001
0000
,
1000
1000
1000
0000
,
0100
0000
0100
0000
,
0010
0010
0010
0000
,
0001
0000
1000
0000
,
0001
1000
0001
0000
,
1000
0000
0100
0000
,
1000
0010
1000
0000
,
0100
0000
0010
0000
,
0001
0010
0001
0000
,
0100
0000
0010
0000
,
0100
0000
0001
0000
,
2000
0000
3002
0000
,
0203
0000
0320
0000
,
2030
0000
3002
0000
,
2003
0000
3200
0000
,
2300
0000
3020
0000
,
0230
0000
0302
0000
,
2003
0000
3002
0000
,
2003
0000
0000
0000
,
3001
0000
0001
0000
,
0100
0000
0100
0000
,
0010
0000
0010
0000
,
1000
0000
1000
0000
,
0001
0000
0001
0000
,
0100
0000
0100
0000
,
0010
0000
0010
0000
,
1000
0000
1000
0000
,
0001
0000
0001
0000
,
0100
0000
0100
0000
,
0010
0000
0010
0000
,
1000
0000
0001
0000
,
1000
0000
0001
0000
,
0100
0000
0100
0000
,
0010
0000
0010
0000
,
1000
1000
1000
0000
,
0001
0000
0001
0000
,
0100
0000
0100
0000
,
0010
0000
0010
0000
,
1000
0000
1000
0000
,
0001
0000
0001
0000
,
0100
0000
0100
0000
,
0010
0000
0010
0000
,
1000
0000
0001
0000
,
1000
0000
0000
0000
,
0100
0000
0000
0000
,
0010
0000
0000
0000
,
0001
0000
0000
0000
,
1000
0000
0000
0000
,
0100
0000
0000
0000
,
1000
0000
0000
0000
,
0001
0000
0000
0000
,
0010
0000
0001
0000
,
0010
0000
0001
0000
,
0100
0000
0010
0000
,
0100
0000
0010
0000
,
1000
0000
0001
0000
,
1000
0000
0001
0000
,
0100
0100
0100
0100
,
0010
0000
0000
0000
,
0010
0000
0000
0000
,
0100
0000
0001
0000
,
0100
0000
0001
0000
,
0010
0000
0001
0000
,
0010
0010
0010
0000
,
0100
0100
0100
0000
,
1000
1000
1000
0000
,
0002
0000
2003
0000
,
3100
0000
0010
0000
,
0001
0001
1000
0000
,
0100
1000
0100
0000
,
1000
0010
1000
0001
,
0100
0000
0010
0000
,
1000
0000
0001
0000
,
1000
0000
0100
0000
,
0010
0010
0010
0000
,
0001
0000
1000
0000
,
0100
0000
1000
0000
,
0010
0000
0100
0000
,
0001
0001
0001
0000
,
1000
1000
1000
0000
,
0010
0010
0010
0000
,
0100
0100
0100
0000
,
0001
0001
0001
0000
,
1000
1000
1000
0000
,
0010
0010
0010
0000
,
0100
0100
0001
0001
,
0010
0010
0100
0100
,
1000
0000
0000
0000
;

//---------------dance-single - ----------------
#NOTES:
     dance-single:
     :
     Easy:
     11:
     0.432025,0.467101,0.179654,0.089827,0.000000,404.000000,380.000000,24.000000,12.000000,0.000000,0.000000,0.432025,0.467101,0.179654,0.089827,0.000000,404.000000,380.000000,24.000000,12.000000,0.000000,0.000000:
0000
0000
0000
0000
,
0000
0000
0000
0000
,
0000
0000
0000
0000
,
0000
0000
0000
0000
,
0001
0100
0010
0100
,
0001
1000
0001
0000
1000
0000
0000
0000
,
0100
1000
0010
0100
,
0001
0001
0001
0000
,
0010
0100
0010
0001
,
1000
0001
1000
0000
1010
0000
0001
0000
,
0100
0010
0100
0001
,
1000
0000
0000
0000
,
0010
0010
0100
0100
,
0001
0001
1001
1000
,
0100
0100
0010
0010
,
0001
0001
1001
1000
,
0100
0100
0010
0010
,
0001
0001
0101
0100
,
0010
1000
0100
1000
,
0002
2003
3020
0230
,
0301
0000
1000
0000
,
0001
0100
0101
0000
,
0010
1000
0100
0010
,
0001
0100
0101
0101
,
0010
0100
1000
0100
,
0001
0100
1100
0010
,
0100
0001
0010
0001
,
0100
1000
0100
0001
,
0020
0000
0000
0000
,
2030
0000
0000
0000
,
3020
0000
0000
0000
,
0032
0000
0000
0000
,
0203
0000
0000
0000
,
2300
0000
0000
0000
,
3200
0000
0000
0000
,
0302
0000
0000
0000
,
1003
0000
0100
0000
1000
0000
0010
1000
,
0010
1000
0100
0010
,
0001
1000
0001
0000
1000
0000
0100
0000
,
1000
0100
1000
0000
0001
0000
0100
0000
,
0010
0100
0001
0010
,
0001
0000
1000
0000
,
0100
1000
1100
0000
,
0010
0100
0110
0000
,
0001
0010
1000
0010
,
0001
0100
1000
0100
,
0001
1000
0010
1000
,
0100
0010
0001
0100
,
0010
0100
0001
1000
,
0100
1000
0010
0100
,
0001
1000
0001
0000
1000
0000
0100
0000
,
1000
0100
1000
0000
0010
0100
0010
0000
,
0100
0001
1000
0001
,
1000
0001
1000
0000
0010
0000
0100
0000
,
0010
0100
0010
0000
1000
0000
0100
0000
,
1000
0001
0100
0010
,
0100
0001
1000
0001
,
0010
0001
0100
0010
,
1000
0100
1000
0000
0001
0000
0010
0000
,
0001
0100
0010
1000
,
0100
1000
0001
0010
,
0001
0001
1001
0000
,
1000
0100
1000
0010
,
0110
0110
0110
0000
,
0001
0100
1000
0100
,
0001
0001
1001
0000
,
1000
0010
0001
0010
,
1000
0100
1000
0000
0001
0100
0001
0000
,
1000
0100
0010
0001
,
1000
0001
1000
0000
0010
0000
0000
0000
,
0100
0010
1000
0100
,
1000
0100
1000
0000
0001
0000
0000
0000
,
0100
0010
1000
0010
,
0101
0010
0001
0100
,
1000
0100
0001
0010
,
0001
0000
1000
0001
1000
0000
1010
0000
,
0010
0000
0100
0001
0100
0000
0001
0000
,
1000
0100
1100
0000
,
0010
0000
0100
0001
0100
0000
0001
0000
,
1000
0100
1100
0000
,
0010
1000
0100
0010
,
0001
0001
1001
0000
,
0100
1000
0100
1000
,
0010
1000
0010
0000
1000
0000
0100
0000
,
0010
0001
1000
0001
,
1000
0001
1000
0000
0010
0000
0100
0000
,
0001
0010
0001
1000
,
0100
1000
0010
0100
,
0001
1000
0010
1000
,
0100
0010
0001
0100
,
0010
0100
0110
0010
,
1000
0001
1000
0000
0010
0000
0100
0000
,
0001
1000
0100
1000
,
0010
0100
0001
0010
,
0001
1000
0001
0000
1000
0000
0100
0000
,
1000
0010
1000
0000
0100
0000
0010
0000
,
0001
1000
0001
0000
0100
0000
0010
0000
,
1000
0100
1100
0000
,
0001
0100
0010
1000
,
0001
1000
0010
0000
,
0100
0001
1000
0001
,
1000
0100
1100
0010
,
0100
0001
0010
0100
,
1000
0100
1000
0000
0001
0000
0100
0000
,
0110
0000
0000
0000
;

//---------------dance-single - ----------------
#NOTES:
     dance-single:
     :
     Medium:
     1:
     0.062023,0.080704,0.037428,0.014971,0.000000,58.000000,53.000000,5.000000,2.000000,0.000000,0.000000,0.062023,0.080704,0.037428,0.014971,0.000000,58.000000,53.000000,5.000000,2.000000,0.000000,0.000000:
// measure 0
0000
0000
0000
0000
,  // measure 1
0000
0000
0000
0000
,  // measure 2
0000
0000
0000
0000
,  // measure 3
0000
0000
0000
0000
,  // measure 4
1000
0010
1000
0100
,  // measure 5
0010
0001
0100
0000
0101
0000
0000
0000
,  // measure 6
0001
0000
0010
1000
0010
0000
0001
1000
,  // measure 7
0001
1000
0010
0000
0110
0000
0100
0000
,  // measure 8
0001
0000
1000
0100
1000
0000
0010
0100
,  // measure 9
0001
0100
0010
0000
1000
0000
0001
0100
,  // measure 10
0001
0000
0010
0001
0100
0001
1000
0010
,  // measure 11
2000
0000
0000
0000
,  // measure 12
3001
0000
0100
0001
0000
0100
0010
1000
,  // measure 13
0100
1000
0001
0000
0011
0000
0101
0000
,  // measure 14
0210
0000
0310
1000
0000
0000
0000
0000
;

//---------------dance-single - ----------------
#NOTES:
     dance-single:
     :
     Hard:
     1:
     0.049191,0.069242,0.037428,0.007486,0.014971,46.000000,41.000000,5.000000,1.000000,0.000000,0.000000,0.049191,0.069242,0.037428,0.007486,0.014971,46.000000,41.000000,5.000000,1.000000,0.000000,0.000000:
// measure 0
0000
0000
0000
0000
,  // measure 1
0000
0000
0000
0000
,  // measure 2
0000
0000
0000
0000
,  // measure 3
0000
0000
0000
0000
,  // measure 4
1001
0000
1000
0010
0000
0010
0100
0001
,  // measure 5
0011
0000
0010
0000
0110
0000
0000
0000
1100
0000
0000
0000
1000
0001
1000
0001
,  // measure 6
0100
0110
0000
0010
1000
0100
0010
0001
,  // measure 7
0100
0000
1000
0000
0100
0000
0001
0000
0010
0000
0001
0000
0100
0010
1000
0010
,  // measure 8
0200
0000
0301
1000
0010
1000
0001
0100
,  // measure 9
0001
0010
0001
0000
0000
0000
0000
0000
;
