#TITLE:Another Life;
#SUBTITLE:;
#ARTIST:Afrojack & David Guetta;
#TITLETRANSLIT:;
#SUBTITLETRANSLIT:;
#ARTISTTRANSLIT:;
#GENRE:;
#CREDIT:;
#BANNER:Another Life.png;
#BACKGROUND:Another Life-bg.png;
#LYRICSPATH:;
#CDTITLE:;
#MUSIC:Another Life.ogg;
#OFFSET:-0.582000;
#SAMPLESTART:66.977409;
#SAMPLELENGTH:17.999987;
#SELECTABLE:YES;
#BPMS:0.000000=145.000000
;
#STOPS:
;
#BGCHANGES:;
#KEYSOUNDS:;
#ATTACKS:;

//---------------dance-single - ----------------
#NOTES:
     dance-single:
     :
     Beginner:
     2:
     0.108098,0.144283,0.000000,0.000000,0.000000,118.000000,118.000000,0.000000,0.000000,0.000000,0.000000,0.108098,0.144283,0.000000,0.000000,0.000000,118.000000,118.000000,0.000000,0.000000,0.000000,0.000000:
// measure 0
0000
0000
0000
0000
,  // measure 1
0000
0000
0000
0000
,  // measure 2
0000
0000
0000
0000
,  // measure 3
0000
0000
0000
0000
,  // measure 4
0000
0000
0000
0000
,  // measure 5
0000
0000
0000
0000
,  // measure 6
0000
0000
0000
0000
,  // measure 7
0000
0000
0000
0000
,  // measure 8
1000
0000
0000
0000
,  // measure 9
0001
0000
0000
0000
,  // measure 10
0100
0000
0000
0000
,  // measure 11
0010
0000
0000
0000
,  // measure 12
1000
0000
0000
0000
,  // measure 13
0001
0000
0000
0000
,  // measure 14
0100
0000
0000
0000
,  // measure 15
0100
0000
0000
0000
,  // measure 16
0010
0000
0010
0000
,  // measure 17
1000
0000
1000
0000
,  // measure 18
0001
0000
0001
0000
,  // measure 19
0100
0000
0000
0000
,  // measure 20
0100
0000
0010
0000
,  // measure 21
0010
0000
1000
0000
,  // measure 22
1000
0000
0001
0000
,  // measure 23
0001
0000
0000
0000
,  // measure 24
0100
0000
0000
0000
,  // measure 25
0100
0000
0000
0000
,  // measure 26
0000
0000
0000
0000
,  // measure 27
0010
0000
0000
0000
,  // measure 28
0010
0000
0000
0000
,  // measure 29
1000
0000
0000
0000
,  // measure 30
1000
0000
0000
0000
,  // measure 31
0001
0000
0000
0000
,  // measure 32
0001
0000
0100
0000
,  // measure 33
0001
0000
0000
0000
,  // measure 34
1000
0000
0010
0000
,  // measure 35
1000
0000
0000
0000
,  // measure 36
0100
0000
0010
0000
,  // measure 37
0100
0000
0000
0010
,  // measure 38
0000
0001
0000
0010
,  // measure 39
0000
0000
0000
0000
,  // measure 40
0001
0000
0000
1000
,  // measure 41
0000
0000
0001
0000
,  // measure 42
0000
0000
1000
0000
,  // measure 43
0001
0000
0000
0000
,  // measure 44
1000
0000
0000
0000
,  // measure 45
0001
0000
0000
0000
,  // measure 46
0100
0000
0100
0000
,  // measure 47
0010
0000
0000
0000
,  // measure 48
0010
0000
0000
0000
,  // measure 49
1000
0000
0000
0000
,  // measure 50
1000
0000
0001
0000
,  // measure 51
1000
0000
0001
0000
,  // measure 52
1000
0000
0000
0000
,  // measure 53
0001
0000
0000
0000
,  // measure 54
0100
0000
0000
0000
,  // measure 55
0010
0000
0010
0000
,  // measure 56
1000
0000
0000
0000
,  // measure 57
0001
0000
0001
0000
,  // measure 58
0100
0000
0100
0000
,  // measure 59
0010
0000
0000
0000
,  // measure 60
1000
0000
1000
0000
,  // measure 61
0001
0000
0000
0000
,  // measure 62
0100
0000
0100
0000
,  // measure 63
0000
0000
0010
0000
,  // measure 64
0010
0000
1000
0000
,  // measure 65
0000
0000
0001
0000
,  // measure 66
1000
0000
0000
0000
,  // measure 67
0001
0000
0001
0000
,  // measure 68
0100
0000
0000
0000
,  // measure 69
0010
0000
0010
0000
,  // measure 70
1000
0000
1000
0000
,  // measure 71
0001
0000
0001
0000
,  // measure 72
0100
0000
0000
0000
,  // measure 73
0010
0000
0010
0000
,  // measure 74
1000
0000
1000
0000
,  // measure 75
0001
0000
0001
0000
,  // measure 76
0100
0000
0000
0010
,  // measure 77
0000
0010
0000
1000
,  // measure 78
0000
1000
0000
0001
,  // measure 79
0000
0001
0000
0100
,  // measure 80
0000
0000
0000
0000
,  // measure 81
0010
0000
0000
0000
,  // measure 82
1000
0000
0001
0000
,  // measure 83
1000
0000
0100
0000
,  // measure 84
1000
0000
0000
0000
,  // measure 85
0001
0000
0010
0000
,  // measure 86
0001
0000
0100
0000
,  // measure 87
0010
0000
0100
0000
,  // measure 88
0010
0000
0000
0000
,  // measure 89
1000
0000
1000
0000
,  // measure 90
0001
0000
0000
0000
;

//---------------dance-single - ----------------
#NOTES:
     dance-single:
     :
     Easy:
     4:
     0.188714,0.259710,0.000000,0.269329,0.000000,206.000000,206.000000,0.000000,42.000000,0.000000,0.000000,0.188714,0.259710,0.000000,0.269329,0.000000,206.000000,206.000000,0.000000,42.000000,0.000000,0.000000:
// measure 0
0000
0000
0000
0000
,  // measure 1
0000
0000
0000
0000
,  // measure 2
0000
0000
0000
0000
,  // measure 3
0000
0000
0000
0000
,  // measure 4
0000
0000
0000
0000
,  // measure 5
0000
0000
0000
0000
,  // measure 6
0000
0000
0000
0000
,  // measure 7
0000
0000
0000
0000
,  // measure 8
0001
0000
0000
0000
,  // measure 9
0001
0001
0001
0000
,  // measure 10
0010
0010
0010
0000
,  // measure 11
0001
0000
0000
0000
,  // measure 12
1000
0000
0100
0000
,  // measure 13
1000
0010
1000
0000
,  // measure 14
0001
0100
0001
0000
,  // measure 15
1000
0000
0001
0000
,  // measure 16
0100
0000
0010
0000
,  // measure 17
2000
0000
0001
0000
,  // measure 18
3002
0000
0100
0000
,  // measure 19
0203
0000
0010
0000
,  // measure 20
0320
0000
2030
0000
,  // measure 21
3200
0000
0320
0000
,  // measure 22
0032
0000
2003
0000
,  // measure 23
3002
0000
0100
0000
,  // measure 24
0203
0000
0010
0000
,  // measure 25
0320
0000
1000
0000
,  // measure 26
2030
0000
3002
0103
,  // measure 27
0001
0000
0100
0000
,  // measure 28
0200
0000
0010
0000
,  // measure 29
0320
0000
1000
0000
,  // measure 30
2030
0000
0001
0000
,  // measure 31
3002
0000
0100
0000
,  // measure 32
0103
0010
0100
0000
,  // measure 33
0010
0000
1000
0010
,  // measure 34
0000
0100
0010
1000
,  // measure 35
0010
0100
0000
0001
,  // measure 36
1000
0001
0000
1000
,  // measure 37
0001
1000
0000
0001
,  // measure 38
0100
0001
0100
0001
,  // measure 39
0000
1000
0000
0010
,  // measure 40
0000
0000
0000
0100
,  // measure 41
0000
0010
1000
0000
,  // measure 42
0010
0010
1000
0000
,  // measure 43
0001
0000
0001
0000
,  // measure 44
0100
0000
0001
1000
,  // measure 45
0001
0000
1000
0000
,  // measure 46
0010
0100
0010
0000
,  // measure 47
0001
0000
0010
0000
,  // measure 48
1000
0000
0001
0000
,  // measure 49
0200
0000
0001
0000
,  // measure 50
0301
0001
0001
0000
,  // measure 51
2000
0001
3001
0000
,  // measure 52
0200
0010
0310
0000
,  // measure 53
0010
1000
0010
0100
,  // measure 54
0002
1000
1003
0000
,  // measure 55
2000
0100
3100
0000
,  // measure 56
0002
0100
0103
0000
,  // measure 57
1000
0010
0001
0000
,  // measure 58
0001
0010
1000
1000
,  // measure 59
0000
0001
0100
2000
,  // measure 60
0000
3100
0001
0020
,  // measure 61
0000
0130
1000
0200
,  // measure 62
0000
0310
0001
0020
,  // measure 63
0000
0031
0100
0002
,  // measure 64
0000
1003
0200
0000
,  // measure 65
0310
0000
0010
0000
,  // measure 66
1000
0000
1000
0000
,  // measure 67
0002
0000
0103
0000
,  // measure 68
0200
0000
0310
0000
,  // measure 69
0020
0000
1030
0000
,  // measure 70
2000
0000
3001
0000
,  // measure 71
0200
0000
0301
0000
,  // measure 72
0002
0000
1003
0000
,  // measure 73
0010
0000
0010
0000
,  // measure 74
0100
0000
0100
0000
,  // measure 75
0001
0000
0001
0000
,  // measure 76
1000
0000
1000
0001
,  // measure 77
1000
0001
0000
0100
,  // measure 78
0001
0100
0000
0010
,  // measure 79
1000
0010
1000
0010
,  // measure 80
0100
0010
0100
0001
,  // measure 81
1000
0000
0000
0001
,  // measure 82
1000
0001
0200
0300
,  // measure 83
0010
1000
0002
0000
,  // measure 84
0103
0000
0010
0000
,  // measure 85
1000
0010
0100
0001
,  // measure 86
2000
3002
0203
0300
,  // measure 87
0010
1000
0002
0003
,  // measure 88
0100
0000
0100
0000
,  // measure 89
0001
0000
0000
0000
,  // measure 90
1000
0000
0000
0000
;

//---------------dance-single - ----------------
#NOTES:
     dance-single:
     :
     Medium:
     7:
     0.283070,0.403994,0.141077,0.698973,0.000000,309.000000,287.000000,22.000000,109.000000,0.000000,0.000000,0.283070,0.403994,0.141077,0.698973,0.000000,309.000000,287.000000,22.000000,109.000000,0.000000,0.000000:
// measure 0
0000
0000
0000
0000
,  // measure 1
0000
0000
0000
0000
,  // measure 2
0000
0000
0000
0000
,  // measure 3
0000
0000
0000
0000
,  // measure 4
0000
0000
0000
0000
,  // measure 5
0000
0000
0000
0000
,  // measure 6
0000
0000
0000
0000
,  // measure 7
0000
0000
0000
0000
,  // measure 8
0010
0010
0000
0100
,  // measure 9
0001
1000
0001
0100
,  // measure 10
0020
2030
3002
0000
,  // measure 11
0103
0000
0000
0010
0000
0000
1000
0000
,  // measure 12
0010
0000
0100
0000
0001
0000
1000
0001
,  // measure 13
1000
0010
0100
0001
,  // measure 14
2000
3002
0203
0000
,  // measure 15
0310
0000
0000
0010
0000
0000
1000
0000
,  // measure 16
0001
0000
1000
0000
0001
0100
0001
0000
,  // measure 17
1000
1001
0101
0100
,  // measure 18
0020
0000
2030
0000
,  // measure 19
3002
0000
0103
0010
,  // measure 20
1000
0000
0001
1000
0001
0000
0100
0000
,  // measure 21
0020
2030
3002
0203
,  // measure 22
0320
2030
3200
0302
,  // measure 23
0203
0000
0000
0000
,  // measure 24
1300
0000
0001
0000
,  // measure 25
1000
0001
1000
0000
0000
0000
0001
0100
,  // measure 26
0001
0100
0002
0000
0000
0000
0003
0000
,  // measure 27
1000
0000
0001
0000
,  // measure 28
0200
0000
0320
0000
,  // measure 29
2030
0000
3002
0000
,  // measure 30
0203
0000
0000
0000
0010
0300
0000
0000
,  // measure 31
2000
0000
3002
0000
,  // measure 32
0103
0010
1000
0010
,  // measure 33
0100
0000
0001
0000
1000
0000
0001
0100
,  // measure 34
0001
2000
3020
0230
,  // measure 35
0301
0001
0001
2000
,  // measure 36
3200
0320
0032
0203
,  // measure 37
0320
2030
3002
0203
,  // measure 38
0302
0023
0032
2003
,  // measure 39
0000
0000
0000
0000
,  // measure 40
3001
0000
0000
0100
,  // measure 41
0001
1000
1010
0010
,  // measure 42
0100
0001
0101
1000
,  // measure 43
1001
0000
0000
0101
0000
0000
0110
0000
,  // measure 44
1010
1000
0100
0010
,  // measure 45
0002
0203
0310
0000
,  // measure 46
2000
3020
0130
0000
,  // measure 47
1001
0000
0000
0110
0000
0000
1001
0000
,  // measure 48
1100
0000
0010
0001
,  // measure 49
0200
0000
0310
0010
,  // measure 50
1000
1000
0001
0001
,  // measure 51
0200
0302
2003
0000
,  // measure 52
3010
0100
0001
1000
,  // measure 53
0001
0000
0100
0000
0001
1000
0001
0000
,  // measure 54
0100
0010
1000
0100
,  // measure 55
0010
0001
0010
0000
0001
0000
1000
0000
,  // measure 56
0010
0100
0001
0000
,  // measure 57
1000
0001
0100
0020
,  // measure 58
1030
1000
0001
0200
,  // measure 59
0301
1000
0010
2000
,  // measure 60
3001
0100
0001
0020
,  // measure 61
0031
1000
0100
2000
,  // measure 62
3010
0100
0001
2000
,  // measure 63
3001
0100
0101
0001
,  // measure 64
0010
0100
2000
3001
,  // measure 65
0100
0001
2000
3000
,  // measure 66
0001
0010
0001
0000
0010
0000
0100
0000
,  // measure 67
2000
3002
0000
0103
,  // measure 68
0020
0000
2030
0000
,  // measure 69
3001
0001
0001
0000
,  // measure 70
0100
0010
0100
0001
,  // measure 71
1000
0001
1000
0000
0010
0000
0100
0000
,  // measure 72
0001
0010
0100
1000
,  // measure 73
0001
0100
0001
0000
1000
0010
1000
0000
,  // measure 74
0010
0100
0001
2000
,  // measure 75
3200
0320
0032
0203
,  // measure 76
0010
0000
0010
0000
0010
0300
0002
0000
,  // measure 77
2003
3002
0203
0320
,  // measure 78
2030
3200
0320
0032
,  // measure 79
0203
0320
2030
3002
,  // measure 80
0203
0000
0000
0000
,  // measure 81
0300
0000
0001
1000
0001
0000
1000
0000
,  // measure 82
0010
0000
0100
0000
0220
0000
0000
0330
,  // measure 83
0001
0000
1000
0000
2002
0000
0000
3003
,  // measure 84
0202
0000
0303
0220
0000
0330
2020
3030
,  // measure 85
2200
0000
3300
0200
0320
0032
0023
0032
,  // measure 86
0203
0320
2030
0000
,  // measure 87
3002
0203
0320
2030
,  // measure 88
3001
0000
0000
0202
0000
0303
1001
0000
,  // measure 89
2002
0000
0000
0000
,  // measure 90
3003
0000
0000
0000
;

//---------------dance-single - ----------------
#NOTES:
     dance-single:
     :
     Hard:
     9:
     0.352693,0.456577,0.179553,1.320996,0.000000,385.000000,357.000000,28.000000,206.000000,0.000000,0.000000,0.352693,0.456577,0.179553,1.320996,0.000000,385.000000,357.000000,28.000000,206.000000,0.000000,0.000000:
// measure 0
0000
0000
0000
0000
,  // measure 1
0000
0000
0000
0000
,  // measure 2
0000
0000
0000
0000
,  // measure 3
0000
0000
0000
0000
,  // measure 4
0000
0000
0000
0000
,  // measure 5
0000
0000
0000
0000
,  // measure 6
0000
0000
0000
0000
,  // measure 7
0000
0000
0000
0000
,  // measure 8
1000
0000
0002
0000
0000
0000
0103
0001
,  // measure 9
2000
0000
3010
1000
0200
0000
0320
0000
,  // measure 10
0032
0000
2003
0000
3002
0000
0103
0010
,  // measure 11
2020
0000
0000
0000
3030
0000
2002
0000
0000
0000
3003
0000
0202
0000
0000
0303
,  // measure 12
0120
2030
3002
0203
,  // measure 13
0320
2030
3200
0320
,  // measure 14
0032
0000
1003
0001
1000
0000
0100
1000
,  // measure 15
0100
0000
0010
0001
0010
0000
1001
0000
,  // measure 16
0101
0000
0100
0010
1000
0000
0001
1000
,  // measure 17
0100
1100
0110
0011
,  // measure 18
0001
0010
0100
1000
0002
0000
1000
0000
,  // measure 19
1003
0100
0010
0001
1000
0000
0001
0000
,  // measure 20
0100
0001
0020
0000
0032
0000
0203
0000
,  // measure 21
0320
2030
3002
2003
,  // measure 22
3020
0230
0302
0023
,  // measure 23
0230
0000
1300
0001
0010
0000
0001
1000
,  // measure 24
0002
0000
0203
0000
,  // measure 25
0320
0000
2030
0000
,  // measure 26
3200
0000
0302
0000
,  // measure 27
0203
0000
2300
0000
,  // measure 28
3002
0000
0203
0000
,  // measure 29
2300
0000
3200
0000
,  // measure 30
0302
0000
2003
0000
,  // measure 31
3002
0000
1003
0020
,  // measure 32
0230
0000
0302
1000
2003
0000
3200
0000
,  // measure 33
0320
0000
0032
0000
2003
0000
3002
0100
,  // measure 34
0203
0302
0203
0320
,  // measure 35
2030
0000
3001
1000
0001
0000
0201
0000
,  // measure 36
0320
2030
3200
0320
,  // measure 37
0032
0000
2003
0000
3020
0000
1030
0001
,  // measure 38
0100
0001
0010
0001
1000
0010
1000
1000
,  // measure 39
0001
0001
0100
0010
0200
0000
0000
0000
,  // measure 40
0000
0000
0301
1000
0010
1000
0100
0000
,  // measure 41
0120
0032
0203
0010
,  // measure 42
0320
2030
3002
0203
,  // measure 43
0320
0000
0030
2002
0000
3003
0101
0000
,  // measure 44
2002
0000
3003
0010
1000
0001
1000
0100
,  // measure 45
0002
0203
2300
0010
,  // measure 46
3002
0203
0320
2030
,  // measure 47
3002
0000
0003
0202
0000
0303
1010
0000
,  // measure 48
2001
0000
3001
0010
0001
0100
0020
0000
,  // measure 49
2030
0000
3001
1000
0002
0000
0103
0010
,  // measure 50
2000
3200
0320
0032
,  // measure 51
0203
0000
0320
0000
2030
0000
3001
0001
,  // measure 52
0200
0010
0300
0010
2000
0000
3001
0100
,  // measure 53
0010
0000
2000
0000
3001
0100
0001
1000
,  // measure 54
0020
0230
0302
2003
,  // measure 55
3002
0000
0203
0000
0320
0000
1030
0001
,  // measure 56
1000
0100
1000
0010
1000
0000
1001
0000
,  // measure 57
0101
0000
0120
0000
2030
0000
3002
0100
,  // measure 58
0103
0000
0002
0000
2003
0000
3020
0100
,  // measure 59
0130
0000
0001
0100
2000
0000
3100
0001
,  // measure 60
0010
0200
2300
3002
,  // measure 61
0013
0000
0002
0000
0203
0000
0320
1000
,  // measure 62
1030
0000
2000
0000
3002
0000
0023
0001
,  // measure 63
0031
0200
0320
2030
,  // measure 64
3200
2300
3002
0000
,  // measure 65
0013
0020
0230
1300
,  // measure 66
2000
0000
3002
0000
0013
0000
0001
0100
,  // measure 67
0002
2003
3010
0100
,  // measure 68
0001
1000
0001
0000
1000
0010
1000
0010
,  // measure 69
0200
0302
2003
3010
,  // measure 70
2000
3002
0103
0002
,  // measure 71
0023
0032
2003
3010
,  // measure 72
1000
0100
1000
0000
1001
0000
0002
0000
,  // measure 73
0100
0000
0203
1000
1000
0000
2300
0000
,  // measure 74
0100
0000
3200
0001
0001
0000
0302
0000
,  // measure 75
0023
0230
2300
3200
,  // measure 76
0010
0000
1000
1000
1000
0000
0320
0000
,  // measure 77
2030
3002
0023
0032
,  // measure 78
0203
0320
2030
3200
,  // measure 79
0320
0032
0023
0032
2003
3020
2030
3020
,  // measure 80
0230
0000
0000
0000
,  // measure 81
0300
0000
0000
0000
,  // measure 82
0201
0000
0302
0000
2003
0010
3020
0000
,  // measure 83
0230
0000
0302
0000
2003
0100
3200
0000
,  // measure 84
0302
0000
0003
0202
0000
0303
2200
3300
,  // measure 85
2020
0000
3030
0010
0100
0001
0010
0100
,  // measure 86
0020
0032
2003
0010
,  // measure 87
3020
0230
0302
1000
,  // measure 88
2003
0000
0000
0000
3000
0000
2002
0000
0000
0000
3003
0000
0202
0000
0000
0303
,  // measure 89
0110
0000
0000
0000
;
