#VERSION:0.83;
#TITLE:Altale;
#SUBTITLE:;
#ARTIST:Sakuzyo;
#TITLETRANSLIT:;
#SUBTITLETRANSLIT:;
#ARTISTTRANSLIT:;
#GENRE:;
#ORIGIN:;
#CREDIT:;
#BANNER:Altale.png;
#BACKGROUND:Altale-bg.png;
#PREVIEWVID:;
#JACKET:altale-jacket.jpg;
#CDIMAGE:;
#DISCIMAGE:;
#LYRICSPATH:;
#CDTITLE:;
#MUSIC:Altale.ogg;
#OFFSET:-6.156000;
#SAMPLESTART:93.583946;
#SAMPLELENGTH:15.000000;
#SELECTABLE:YES;
#DISPLAYBPM:180.000000;
#BPMS:0.000=90.000,
16.000=180.000,
196.000=90.000,
223.000=180.000,
313.000=90.000;
#STOPS:;
#DELAYS:;
#WARPS:;
#TIMESIGNATURES:0.000=4=4;
#TICKCOUNTS:0.000=4;
#COMBOS:0.000=1;
#SPEEDS:0.000=1.000=0.000=0;
#SCROLLS:0.000=1.000;
#FAKES:;
#LABELS:0.000=Song Start;
#BGCHANGES:0.000=Altale.avi=1.000=0=0=0=StretchNoLoop====,
99999=-nosongbg-=1.000=0=0=0 // don't automatically add -songbackground-
;
#KEYSOUNDS:;
#ATTACKS:
;

//---------------dance-single - ----------------
#NOTEDATA:;
#CHARTNAME:;
#STEPSTYPE:dance-single;
#DESCRIPTION:;
#CHARTSTYLE:;
#DIFFICULTY:Beginner;
#METER:3;
#RADARVALUES:0.139268,0.165825,0.000000,0.000000,0.000000,153.000000,153.000000,0.000000,0.000000,0.000000,0.000000,0.000000,0.000000,0.000000,0.139268,0.165825,0.000000,0.000000,0.000000,153.000000,153.000000,0.000000,0.000000,0.000000,0.000000,0.000000,0.000000,0.000000;
#CREDIT:;
#DISPLAYBPM:180.000000;
#NOTES:
// measure 0
0000
0000
1000
0000
,  // measure 1
0001
1000
0000
0000
,  // measure 2
0001
1000
0100
0000
,  // measure 3
1000
0000
0010
0000
,  // measure 4
0010
0000
0100
0000
,  // measure 5
0100
0000
0001
0000
,  // measure 6
0001
0000
1000
0000
,  // measure 7
1000
0000
0010
0000
,  // measure 8
0010
0000
0100
0000
,  // measure 9
0100
0000
0001
0000
,  // measure 10
1000
0000
0010
0000
,  // measure 11
1000
0000
0100
0000
,  // measure 12
1000
0000
0001
0000
,  // measure 13
0010
0000
0001
0000
,  // measure 14
0100
0000
0010
0000
,  // measure 15
1000
0000
0100
0000
,  // measure 16
1000
0000
0001
0000
,  // measure 17
0010
0000
0001
0000
,  // measure 18
0100
0000
0010
0000
,  // measure 19
1000
0000
0010
0000
,  // measure 20
0100
0000
0001
0000
,  // measure 21
1000
0000
0001
0000
,  // measure 22
1000
0000
0010
0000
,  // measure 23
0100
0000
0001
0000
,  // measure 24
0010
0000
0100
0000
,  // measure 25
1000
0000
0100
0000
,  // measure 26
1000
0000
0001
0000
,  // measure 27
0010
0000
0001
0000
,  // measure 28
0100
0000
0010
0000
,  // measure 29
1000
0000
0010
0000
,  // measure 30
0100
0000
0001
0000
,  // measure 31
1000
0000
0001
0000
,  // measure 32
0010
0000
0100
0000
,  // measure 33
1000
0000
0001
0000
,  // measure 34
1000
0000
0010
0000
,  // measure 35
0100
0000
0001
0000
,  // measure 36
0100
0000
0010
0000
,  // measure 37
1000
0000
0010
0000
,  // measure 38
0100
0000
0001
0000
,  // measure 39
0010
0000
0001
0000
,  // measure 40
1000
0000
0100
0000
,  // measure 41
0010
0000
0001
0000
,  // measure 42
1000
0000
0100
0000
,  // measure 43
1000
0000
0001
0000
,  // measure 44
1000
0000
0000
0000
,  // measure 45
0010
0000
0100
0000
,  // measure 46
0010
0000
0100
0000
,  // measure 47
0001
0000
0000
0000
,  // measure 48
0010
0000
0100
0000
,  // measure 49
0000
1000
0000
0001
,  // measure 50
0000
0000
1000
0000
,  // measure 51
0000
0010
0100
0000
,  // measure 52
0010
0000
0100
0000
,  // measure 53
0001
0000
1000
0000
,  // measure 54
0010
0000
1000
0000
,  // measure 55
0000
0010
0000
0000
,  // measure 56
0010
0000
0000
0000
,  // measure 57
0000
0000
0100
0000
,  // measure 58
0000
0001
0000
0000
,  // measure 59
0001
0000
0000
1000
,  // measure 60
0000
0000
1000
0000
,  // measure 61
0000
1000
0000
0000
,  // measure 62
0010
0000
0000
0010
,  // measure 63
0000
0000
0100
0000
,  // measure 64
0000
0100
0000
0000
,  // measure 65
0001
0000
0000
0001
,  // measure 66
0000
0000
1000
0000
,  // measure 67
0000
1000
0000
0000
,  // measure 68
0010
0000
0000
0010
,  // measure 69
0000
0000
0100
0000
,  // measure 70
0000
0100
0000
0000
,  // measure 71
0001
0000
0000
0001
,  // measure 72
0000
0000
1000
0000
,  // measure 73
0000
1000
0000
0000
,  // measure 74
0010
0000
0010
0000
,  // measure 75
0000
0000
0100
0000
,  // measure 76
0000
0100
0000
0000
,  // measure 77
0001
0000
0000
1000
,  // measure 78
0000
1000
0000
0000
,  // measure 79
0010
0000
0100
0000
,  // measure 80
0001
1000
0000
0000
,  // measure 81
0001
0000
1000
0000
,  // measure 82
0100
0000
0010
0000
,  // measure 83
0000
0001
0000
0000
,  // measure 84
1000
0000
0000
0000
,  // measure 85
0100
0000
1000
0000
,  // measure 86
0100
0010
0000
0001
;

//---------------dance-single - ----------------
#NOTEDATA:;
#CHARTNAME:;
#STEPSTYPE:dance-single;
#DESCRIPTION:;
#CHARTSTYLE:;
#DIFFICULTY:Easy;
#METER:7;
#RADARVALUES:0.322228,0.386924,0.203896,0.503367,0.000000,354.000000,322.000000,32.000000,79.000000,0.000000,0.000000,0.000000,0.000000,0.000000,0.322228,0.386924,0.203896,0.503367,0.000000,354.000000,322.000000,32.000000,79.000000,0.000000,0.000000,0.000000,0.000000,0.000000;
#CREDIT:;
#DISPLAYBPM:180.000000;
#NOTES:
// measure 0
0000
0000
1010
0000
,  // measure 1
1000
0100
1000
0000
0001
1000
0000
0001
,  // measure 2
1000
0000
0010
0100
0000
0010
0100
0000
,  // measure 3
0001
1000
0000
0001
1000
0000
0010
0000
,  // measure 4
1000
0100
1000
1100
,  // measure 5
0100
0101
0001
0101
,  // measure 6
0100
1100
1000
1010
,  // measure 7
0010
0110
0100
0101
,  // measure 8
0001
1001
1000
1010
,  // measure 9
0010
0110
0100
0002
,  // measure 10
2003
3020
0230
0302
,  // measure 11
0023
0230
2300
3002
,  // measure 12
2003
3020
0130
0001
,  // measure 13
0010
0001
1000
0100
,  // measure 14
1100
1000
1010
0010
,  // measure 15
0110
0100
0101
0001
,  // measure 16
0010
0100
1000
0100
,  // measure 17
0010
0001
1000
0001
,  // measure 18
0100
0010
1000
0010
,  // measure 19
0100
0001
0010
0001
,  // measure 20
2000
3200
0320
0032
,  // measure 21
2003
3200
2300
3200
,  // measure 22
0320
0032
0023
0032
,  // measure 23
0203
0320
2030
3020
,  // measure 24
0230
0302
0023
0032
,  // measure 25
0023
0230
2300
3200
,  // measure 26
2300
3002
0023
0032
,  // measure 27
0203
0302
2003
3020
,  // measure 28
2030
3200
0320
0032
,  // measure 29
2003
3200
2300
3200
,  // measure 30
0320
0032
0023
0031
,  // measure 31
1000
0100
1000
0010
,  // measure 32
1000
0100
0010
0001
,  // measure 33
1000
0100
0010
1000
,  // measure 34
0010
0001
0010
1000
,  // measure 35
0010
0001
0100
1000
,  // measure 36
0100
0001
0010
0100
,  // measure 37
1000
0010
0100
0001
,  // measure 38
0100
0010
1000
0100
,  // measure 39
0010
0001
0011
0010
,  // measure 40
0100
1100
1000
0001
,  // measure 41
1001
1000
0010
1010
,  // measure 42
0010
1000
1001
0001
,  // measure 43
0100
0010
1000
0010
,  // measure 44
0100
0001
0010
0200
,  // measure 45
2300
3001
1000
0010
,  // measure 46
1000
0100
0010
0001
,  // measure 47
2000
0000
0000
0000
,  // measure 48
3002
0000
0000
0000
1003
0000
0010
1000
,  // measure 49
0000
0001
1000
0000
0010
0100
0000
0001
,  // measure 50
0010
0000
0000
0001
1000
0000
0010
0000
,  // measure 51
0000
0000
0000
0000
0100
0000
0001
1000
,  // measure 52
0000
0000
0001
1000
0001
1000
0010
1000
,  // measure 53
0010
0000
0100
0001
0100
0001
2000
0000
,  // measure 54
0000
3020
0030
0000
,  // measure 55
0020
0130
0001
1000
,  // measure 56
1001
0001
0010
0100
,  // measure 57
1000
0100
1100
1000
,  // measure 58
0010
0100
0001
0010
,  // measure 59
0011
0010
0010
1100
,  // measure 60
1000
0001
1001
1000
,  // measure 61
0010
0110
0100
0001
,  // measure 62
0011
0010
0100
2000
,  // measure 63
0000
3200
0000
0000
0302
0000
0000
0203
,  // measure 64
0000
0000
2300
0000
0000
3000
0001
0000
,  // measure 65
1000
0001
0010
0011
,  // measure 66
0010
0200
2300
3001
,  // measure 67
1000
0020
2030
3200
,  // measure 68
2300
3002
0013
0001
,  // measure 69
0100
0010
1000
0010
,  // measure 70
0100
0101
0001
0010
,  // measure 71
0100
1000
0001
0011
,  // measure 72
0010
0100
1100
1000
,  // measure 73
0001
0000
0020
0000
0000
0032
0000
0000
,  // measure 74
2003
0000
0000
3200
0000
0000
0320
0000
,  // measure 75
0000
0000
0000
0000
,  // measure 76
0030
2001
0000
0000
,  // measure 77
0000
0000
0000
3001
,  // measure 78
0001
1000
0000
0010
,  // measure 79
0100
0000
0001
0000
,  // measure 80
1000
0010
0000
0000
,  // measure 81
1000
0000
0100
0000
,  // measure 82
0010
0001
0010
0001
,  // measure 83
0100
0010
1000
0010
,  // measure 84
0100
0001
0000
0000
,  // measure 85
0000
1000
0100
0010
,  // measure 86
0001
1000
0100
0010
;

//---------------dance-single - ----------------
#NOTEDATA:;
#CHARTNAME:;
#STEPSTYPE:dance-single;
#DESCRIPTION:;
#CHARTSTYLE:;
#DIFFICULTY:Medium;
#METER:11;
#RADARVALUES:0.452394,0.613280,0.509739,0.496996,0.044602,497.000000,417.000000,80.000000,78.000000,0.000000,0.000000,0.000000,0.000000,0.000000,0.452394,0.613280,0.509739,0.496996,0.044602,497.000000,417.000000,80.000000,78.000000,0.000000,0.000000,0.000000,0.000000,0.000000;
#CREDIT:;
#DISPLAYBPM:180.000000;
#NOTES:
// measure 0
0000
0000
0000
0000
,  // measure 1
0000
0000
0000
0101
0000
0000
0110
0000
,  // measure 2
1000
0100
0000
1000
0010
0100
0001
0100
,  // measure 3
0010
1000
0100
0000
1000
0010
0100
0001
,  // measure 4
0011
1010
1100
1001
,  // measure 5
0101
0110
1010
1100
,  // measure 6
0110
0011
0101
0110
,  // measure 7
1010
1100
1001
0101
,  // measure 8
0110
1010
0110
0101
,  // measure 9
1001
1100
0110
0011
,  // measure 10
0101
0000
1001
0000
1010
0000
0010
0100
,  // measure 11
0010
0100
0001
0000
1001
0000
1010
0000
,  // measure 12
1100
0000
1000
0100
1000
0100
0010
0000
,  // measure 13
0001
0000
0010
0100
1000
0100
0010
0000
,  // measure 14
0011
0101
1001
1010
,  // measure 15
1100
0000
1001
0000
1000
0001
1000
0000
,  // measure 16
1010
0110
0101
1001
,  // measure 17
1100
1010
0110
0101
,  // measure 18
1001
0000
0011
0000
0010
0100
1000
0100
,  // measure 19
0010
0000
0001
0000
1000
0001
1000
0000
,  // measure 20
1000
0010
0100
0010
,  // measure 21
1000
0100
0010
0001
,  // measure 22
2000
3020
0032
2003
,  // measure 23
3200
0302
2003
3200
,  // measure 24
0320
0000
0031
1000
0002
0000
0100
0000
,  // measure 25
0103
0110
0110
0010
,  // measure 26
1000
0000
0100
0000
0010
0100
0010
0000
,  // measure 27
0100
0000
1000
0000
0001
1000
0001
0000
,  // measure 28
0020
0000
0230
0000
2300
0000
3001
1000
,  // measure 29
0002
1000
0023
0230
,  // measure 30
0320
2030
3002
0203
,  // measure 31
0320
0100
0031
2000
,  // measure 32
3100
2000
3020
0100
,  // measure 33
0001
1000
0032
0100
,  // measure 34
0103
0010
0100
0000
0001
0000
1000
0100
,  // measure 35
1000
0000
0001
0000
0010
0001
0010
0000
,  // measure 36
0001
2000
3200
0320
,  // measure 37
0032
1003
0010
2000
,  // measure 38
3200
0320
0032
0203
,  // measure 39
0320
0000
2030
0000
3002
0000
1003
0010
,  // measure 40
2000
0000
3200
0000
0310
0001
0010
0000
,  // measure 41
0101
1001
0011
1001
,  // measure 42
1100
1001
0001
0010
,  // measure 43
0001
0010
0001
0000
0100
0010
0100
0010
,  // measure 44
0100
0010
0100
0000
0001
1000
0001
0000
,  // measure 45
1000
0100
1000
0100
1000
0100
1000
0000
,  // measure 46
0002
0023
0230
2300
,  // measure 47
3200
0320
0032
0000
,  // measure 48
0000
0000
0000
0000
,  // measure 49
1003
1000
0001
0100
0001
0010
0100
1000
,  // measure 50
0001
2000
0000
3001
0010
0001
0100
0010
,  // measure 51
0100
0001
0020
0000
0000
0001
0130
0001
,  // measure 52
0020
0000
0000
0032
0000
0000
1003
0100
,  // measure 53
0010
0002
0000
0013
0200
0000
1300
0001
,  // measure 54
1000
0010
0200
0000
0001
0001
0000
0000
,  // measure 55
1000
0000
0000
0000
0300
0000
0001
1000
0001
1000
0001
1000
0010
0000
0000
0000
,  // measure 56
0100
0001
0011
1001
,  // measure 57
1000
0000
1010
0000
0110
0000
0100
0001
,  // measure 58
0100
0001
1001
1010
,  // measure 59
1100
1010
1001
0101
,  // measure 60
1001
0000
0000
1100
0000
0000
1000
0100
1000
0100
0000
0000
,  // measure 61
0010
0001
0100
0120
,  // measure 62
0130
1020
2030
3010
,  // measure 63
0010
0000
2020
0000
3030
2002
0000
3003
,  // measure 64
0202
0000
0303
0220
0000
0330
1010
0000
,  // measure 65
1000
0100
0010
0001
0100
0000
0001
0000
,  // measure 66
1001
0000
0102
0000
1003
0000
0010
0100
,  // measure 67
0010
0000
0100
0000
0001
0010
0002
0000
,  // measure 68
0203
0000
2300
0000
3200
0000
0310
0100
,  // measure 69
0020
2030
3200
0320
,  // measure 70
0032
0203
0310
1001
,  // measure 71
0001
0100
0010
0100
,  // measure 72
0001
0000
0000
1001
0000
0000
1000
0000
0000
0001
0000
0001
,  // measure 73
0100
0000
0010
0000
1000
0100
0010
0000
,  // measure 74
0000
0001
1000
0100
1000
0001
0010
0001
,  // measure 75
0100
0010
0100
0000
0010
0000
0100
0000
,  // measure 76
1001
0010
0100
0020
,  // measure 77
0000
0000
0130
0001
,  // measure 78
1000
0000
0001
0000
1000
0001
0000
0000
,  // measure 79
1000
0100
1000
0010
0100
0000
0000
0001
,  // measure 80
1000
0000
0010
1000
0100
0020
0000
0000
,  // measure 81
0000
0000
0031
1000
0001
0000
0000
1000
,  // measure 82
0010
0000
0000
1000
0100
1000
0010
0100
,  // measure 83
0001
0010
0001
0000
1000
0100
0000
0000
,  // measure 84
0000
0000
1000
0010
1000
0100
1000
0000
,  // measure 85
0000
0000
0000
0000
0000
0000
0000
0000
0000
0001
0010
0001
0010
0001
0010
0001
,  // measure 86
0010
0000
0001
0000
0100
0010
0100
0010
0100
0000
0010
0000
0100
0001
0100
0001
,  // measure 87
0100
0001
2000
0000
3000
0000
0000
0000
;

//---------------dance-single - ----------------
#NOTEDATA:;
#CHARTNAME:;
#STEPSTYPE:dance-single;
#DESCRIPTION:;
#CHARTSTYLE:;
#DIFFICULTY:Hard;
#METER:13;
#RADARVALUES:0.584380,0.780538,0.758237,0.312215,0.242126,642.000000,523.000000,119.000000,49.000000,0.000000,0.000000,0.000000,0.000000,0.000000,0.584380,0.780538,0.758237,0.312215,0.242126,642.000000,523.000000,119.000000,49.000000,0.000000,0.000000,0.000000,0.000000,0.000000;
#CREDIT:;
#DISPLAYBPM:180.000000;
#NOTES:
// measure 0
0000
0000
0000
0000
,  // measure 1
0000
0000
0000
0000
0000
0000
0000
0000
0000
0000
0000
0000
0000
0000
0000
0000
0000
0000
0000
0000
0001
0000
0000
1000
0001
0000
0000
0000
0000
0000
0000
0000
,  // measure 2
1000
0000
0000
0010
1000
0000
0000
0000
0000
0000
0000
0000
0001
0000
0000
0100
0001
0000
0000
0000
0100
0000
0000
0000
0010
0000
0000
0000
1000
0000
0000
0000
,  // measure 3
0001
0000
0000
0000
1000
0000
0000
0010
1000
0000
0000
0000
0000
0000
0000
0000
0001
0000
0000
0010
0001
0000
0000
0000
0101
0000
0000
0000
0110
0000
0000
0000
,  // measure 4
1010
1100
0101
0011
,  // measure 5
1010
1001
0101
0110
,  // measure 6
1100
0011
1100
0011
,  // measure 7
0101
1010
0101
1010
,  // measure 8
0101
1001
1010
1010
,  // measure 9
1100
1100
0110
0110
,  // measure 10
0011
0000
1001
0000
1100
0000
0100
0001
,  // measure 11
0100
1000
0100
0010
0100
0000
0011
0000
,  // measure 12
1001
0000
1000
0010
0100
0010
0001
0010
,  // measure 13
0100
0000
0001
0010
0100
1000
0001
0000
,  // measure 14
0101
0110
1001
1010
,  // measure 15
0011
0000
0010
0100
0010
1000
0100
1000
,  // measure 16
0001
0101
0110
1010
,  // measure 17
1100
0011
0101
1001
,  // measure 18
1010
0000
0110
0000
0100
0001
0010
0100
,  // measure 19
1000
0000
1001
0000
0001
0100
1000
0000
,  // measure 20
0101
0011
0110
1100
,  // measure 21
1001
0000
0001
0010
0001
1000
0001
0100
,  // measure 22
0020
0000
1000
0000
1030
0000
0001
1000
,  // measure 23
0001
0000
0101
0000
1001
0000
1000
0100
,  // measure 24
0010
0001
0010
0100
1000
0000
1001
0000
,  // measure 25
0011
0000
0100
1000
0100
0000
0011
0000
,  // measure 26
0001
0010
1000
0000
0010
0001
0100
0010
,  // measure 27
1000
0010
0100
0000
0101
0000
0110
0000
,  // measure 28
1010
0000
1000
0100
0001
0000
1100
0000
,  // measure 29
1010
0000
0010
0100
0001
0000
0100
0010
,  // measure 30
1000
0100
0010
0001
0100
0010
1000
0000
,  // measure 31
1100
0101
0001
0011
,  // measure 32
0001
0100
0001
0010
0100
1000
0010
0100
,  // measure 33
0001
0000
1000
0001
0010
0100
0001
0100
,  // measure 34
1000
0010
0100
0010
1000
0010
0100
1000
,  // measure 35
0100
0001
0010
0001
1000
0001
0010
0100
,  // measure 36
1000
0010
0001
0010
0100
0010
0001
0010
,  // measure 37
1000
0010
0100
0001
0010
0100
1000
0001
,  // measure 38
1000
0000
0100
0000
0010
0000
0001
0000
0100
0000
0001
0010
0001
0000
0100
0010
,  // measure 39
0100
0001
0010
0001
0100
0010
1000
0100
,  // measure 40
1100
0000
1000
0010
0100
0001
0011
0000
,  // measure 41
0010
1000
0010
0001
0101
0000
0110
0000
,  // measure 42
1001
0101
0100
0010
,  // measure 43
1000
0000
0001
0000
0100
0000
0000
0000
0001
0100
0001
0000
1000
0100
1000
0000
,  // measure 44
0001
0010
0001
0000
1000
0000
0000
0000
0001
0000
0010
0000
0001
0000
0000
0000
,  // measure 45
0100
0010
0100
0000
0001
1000
0001
0000
1000
0010
1000
0000
0001
0000
0100
0000
,  // measure 46
0001
1000
0001
0010
0100
1000
0001
1000
,  // measure 47
0100
0010
0001
1000
2002
0000
0000
0000
,  // measure 48
0000
0000
0000
3003
,  // measure 49
1001
0000
0000
0000
1000
0000
0000
0000
0010
0000
0000
1000
0010
0000
0000
0000
0100
0000
0000
0000
0001
0000
0000
1000
0001
0000
0000
0000
0101
0000
0000
0000
,  // measure 50
0110
0000
0000
0100
0002
0000
0000
0000
0000
0000
0000
0000
1003
0000
0000
0000
1100
0000
0000
0000
0100
0000
0000
0000
0110
0000
0000
0000
0010
0000
0000
0000
,  // measure 51
0011
0000
0000
0000
0001
0000
0000
0000
2002
0000
0000
0000
0000
0000
0000
0000
3003
0000
0000
0000
0100
0000
0000
0000
0010
0000
0000
0000
1000
0000
0000
0010
,  // measure 52
0200
0000
0000
0000
0000
0000
0000
0000
0000
0000
0000
0000
0302
0000
0000
0000
0000
0000
0000
0000
0003
0000
0000
0010
0001
0000
0000
0000
0010
0000
0000
0000
,  // measure 53
0200
2300
3002
0023
0032
0000
0203
0320
,  // measure 54
1000
1000
2030
0000
3001
0002
0000
0000
,  // measure 55
0103
0000
0000
0000
0000
0000
0010
0000
1000
0100
1000
0001
0100
0000
0000
0000
,  // measure 56
0110
0000
0000
0000
0101
0000
0000
0001
0010
0000
0000
0010
0100
0000
0000
0000
,  // measure 57
1100
1001
0101
0110
,  // measure 58
0010
1000
0010
1000
0000
0000
0001
0000
0000
0101
0000
0000
,  // measure 59
0100
0010
2010
3200
,  // measure 60
0320
0000
0000
0000
0000
0000
0000
0000
0000
0000
0000
0000
0032
0000
0000
0000
0000
0000
0000
0000
0000
0000
0000
0000
1003
0000
0000
0000
0010
0000
0000
0000
1000
0000
0000
0000
0010
0000
0000
0000
0000
0000
0000
0000
0000
0010
0000
0000
,  // measure 61
0100
0101
0011
0110
,  // measure 62
1100
0000
0000
1000
0001
0000
0000
0001
0100
0000
0000
0000
0110
0000
0000
0000
,  // measure 63
0101
0000
0011
0000
0000
1001
0000
0000
,  // measure 64
1100
0000
0000
0110
0000
0000
0011
0000
,  // measure 65
1001
0000
0000
1000
0001
0100
0001
0000
0000
0101
0000
0000
,  // measure 66
1001
0000
0000
0000
1010
0000
0000
0000
1000
0000
0000
0000
1001
0000
0000
1000
,  // measure 67
0010
0000
0000
0010
0100
0000
0000
0000
0001
0000
0000
0001
0010
0000
0000
0000
,  // measure 68
0110
0000
0000
1100
0000
0000
1001
0000
0000
0001
0100
0010
,  // measure 69
0100
0000
0000
0101
0000
0000
1001
0000
0000
1000
0010
1000
,  // measure 70
0010
0100
0010
0100
0000
0000
0001
0000
0000
0101
0000
0000
,  // measure 71
0100
0010
0100
0010
0100
0010
0100
0000
0000
0101
0000
0000
,  // measure 72
0011
0000
0000
0000
0110
0000
0000
0000
1100
0000
0000
0000
1001
0000
0000
0001
,  // measure 73
0010
0000
0110
0000
0100
1000
1001
0000
,  // measure 74
0000
0100
0010
1000
0100
0010
0100
1000
,  // measure 75
0010
0000
0100
0000
0010
0000
0100
0000
0001
0010
0000
0000
0010
0100
0000
0000
,  // measure 76
0100
1000
0000
0000
1000
0010
0000
0000
0110
0000
0000
0000
2002
0000
0000
0000
,  // measure 77
3003
0000
0000
1000
0010
0000
0000
0000
0220
0000
0000
0000
0000
0000
0000
0000
,  // measure 78
0330
0000
0000
0000
0000
0000
0000
0000
2002
0000
0000
0000
3003
0000
0000
0000
1000
0000
0000
0010
1000
0000
0000
0000
0000
0000
0000
0000
0000
0000
0001
0000
,  // measure 79
0000
0100
0001
0000
0000
0000
1000
0000
0000
0000
0010
0000
0000
0100
0020
0000
0000
0000
0000
0000
0000
0000
0000
0000
2030
0000
0000
0000
3002
0000
0000
0000
,  // measure 80
0000
2003
3200
0320
0032
0000
0023
0000
,  // measure 81
0000
0000
0000
0000
2030
0000
0000
0000
0000
0000
0000
0000
3010
0000
0000
0010
0200
0000
0000
0000
0000
0000
0000
0000
1300
0000
0000
0001
2000
0000
0000
0000
,  // measure 82
0000
0000
3000
0002
0203
2300
3200
0302
,  // measure 83
0013
0000
0000
0100
0010
0000
0000
0000
0000
0000
0000
0000
0001
0000
0000
0001
2000
0000
0000
0000
0000
0000
0000
0000
0000
0000
0000
0000
0000
0000
0000
0000
,  // measure 84
0000
0000
0000
3002
0023
0230
2300
0000
,  // measure 85
0000
0000
0000
0000
0000
0000
0000
0000
3000
0001
0010
0001
0010
0001
0010
0100
,  // measure 86
1000
0100
1000
0100
1000
0001
0100
0001
0100
0001
0100
0010
1000
0010
1000
0001
,  // measure 87
0010
0100
1000
0001
2000
0000
0000
0000
3000
0000
0000
0000
0000
0000
0000
0000
;

//---------------dance-single - ----------------
#NOTEDATA:;
#CHARTNAME:;
#STEPSTYPE:dance-single;
#DESCRIPTION:;
#CHARTSTYLE:;
#DIFFICULTY:Challenge;
#METER:16;
#RADARVALUES:0.721827,1.533200,0.643546,0.395048,0.716821,793.000000,692.000000,101.000000,62.000000,0.000000,0.000000,0.000000,0.000000,0.000000,0.721827,1.533200,0.643546,0.395048,0.716821,793.000000,692.000000,101.000000,62.000000,0.000000,0.000000,0.000000,0.000000,0.000000;
#CREDIT:;
#DISPLAYBPM:180.000000;
#NOTES:
// measure 0
0000
0000
0000
0000
,  // measure 1
0000
0000
0000
0000
0000
0000
0000
0000
0000
0000
0000
0000
0000
0000
0000
0000
0000
0000
0000
0000
1000
0000
0000
1000
0001
0000
0000
0000
0000
0000
0000
0000
,  // measure 2
1000
0000
0000
1000
0010
0000
0000
0000
0000
0000
0000
0000
1000
0000
0000
1000
0100
0000
0000
0000
0010
0000
0000
0000
0001
0000
0000
0000
1001
0000
0000
0000
,  // measure 3
1000
0000
0000
0000
0010
0000
0000
0010
0100
0000
0000
0000
0000
0000
0000
0000
0001
0000
0000
0001
0100
0000
0000
0000
0101
0000
0000
0000
1001
0000
0000
0000
,  // measure 4
2100
0100
0100
3000
0021
0001
0001
0030
,  // measure 5
0210
0010
0010
0300
2100
0100
0100
3000
,  // measure 6
0210
0010
0010
0300
0012
0010
0010
0003
,  // measure 7
1002
1000
1000
0003
0201
0001
0001
0300
,  // measure 8
2001
0001
0001
3000
0012
0010
0010
0003
,  // measure 9
0120
0100
0100
0030
1200
1000
1000
0300
,  // measure 10
1001
0000
0000
0000
0011
0000
0000
0000
0110
0000
0000
0000
0100
1000
0100
1000
,  // measure 11
0100
1000
0100
1000
0100
0000
0000
0000
0110
0000
0000
0000
0011
0000
0000
0000
,  // measure 12
1001
0000
0000
0000
1000
0010
1000
0010
1000
0010
1000
0010
1000
0000
0000
0000
,  // measure 13
1100
0000
0000
0000
0100
0000
0001
0000
0100
0000
1000
0000
0010
0100
0010
0100
,  // measure 14
0010
0100
0010
0100
0010
0000
0000
0000
1001
0000
0000
0000
0101
0000
0000
0000
,  // measure 15
0110
0000
0000
0000
0001
0100
0001
0100
0001
0100
0001
0100
0001
0000
0000
0000
,  // measure 16
1001
0011
0101
0110
,  // measure 17
1000
0000
0010
1000
0010
0000
1000
0000
1001
0000
0000
0000
0100
0000
0001
0100
,  // measure 18
0001
0100
0001
0000
1001
0000
0000
0000
1000
0000
0100
0000
0010
0000
0001
0000
,  // measure 19
0101
0000
0110
0000
0010
1000
0010
0000
,  // measure 20
0110
1010
1001
0101
,  // measure 21
1001
0000
0000
0000
0001
0000
0100
0000
0001
1000
0001
1000
0001
1000
0001
1000
,  // measure 22
0010
0110
1001
0001
,  // measure 23
0101
1010
1000
0110
,  // measure 24
0001
0000
0100
0000
0001
1000
0001
0000
,  // measure 25
1000
1010
0110
0100
,  // measure 26
0001
1000
0001
0000
1000
0100
0010
0001
,  // measure 27
0010
0100
1000
0000
0010
1000
1001
0000
,  // measure 28
0101
0110
1010
1100
,  // measure 29
0110
0000
0011
0000
0001
0100
0010
1000
,  // measure 30
0020
0000
0230
0000
0301
1000
0001
0100
,  // measure 31
0001
1001
1100
0110
,  // measure 32
0010
0001
0010
0100
1000
0000
1000
0010
,  // measure 33
0100
0010
1001
0110
,  // measure 34
0010
1000
0010
1000
0010
1000
0010
1000
0010
1000
0010
1000
0001
1000
0001
1000
,  // measure 35
0001
1000
0001
1000
0001
1000
0001
1000
0001
0100
0001
0100
0001
0100
0001
0100
,  // measure 36
0001
0100
0001
0100
0002
0000
0000
0000
2003
0000
0000
0000
3020
0000
0000
0000
,  // measure 37
0130
0001
0100
0001
0100
0001
0100
0001
0100
0001
0100
0001
1000
0001
1000
0001
,  // measure 38
1000
0001
1000
0001
1000
0001
1000
0001
1000
0010
1000
0010
1000
0010
1000
0010
,  // measure 39
1000
0010
1000
0010
1000
0010
1000
0010
1000
0000
0001
0000
0100
0000
0001
0000
,  // measure 40
1001
0000
0000
0000
0001
0000
0100
0000
0010
1000
0010
1000
0010
0000
1000
0000
,  // measure 41
0001
0010
0001
0010
0100
0010
0100
0000
1000
0000
0000
0000
1000
0001
1000
0001
,  // measure 42
1000
0010
1000
0010
1000
0010
1000
0000
0100
0010
0100
0010
0100
0000
0010
0000
,  // measure 43
0001
0010
0001
0010
0001
0000
1000
0000
0100
0010
0100
0000
0010
0001
0010
0001
,  // measure 44
0010
0001
0010
0001
0010
0000
0000
0000
0100
0010
0100
0010
0100
0000
1000
0000
,  // measure 45
0010
0100
0010
0000
0100
0001
1000
0001
1000
0001
0100
0001
0100
0000
0010
0000
,  // measure 46
1000
0100
1000
0100
1000
0100
1000
0100
0010
0001
0010
0001
0010
0001
0010
0001
,  // measure 47
1000
0001
1000
0001
1000
0001
1000
0000
0001
0010
0100
1000
0010
0100
0001
0010
,  // measure 48
0100
1000
0010
0100
0001
0010
0100
1000
0020
0000
0000
0000
0000
0000
0000
0000
,  // measure 49
0130
0000
0000
0000
0000
0000
0000
0000
0100
0000
0000
0100
0001
0000
0000
0000
1001
0000
0000
0000
1000
0000
0000
0100
1000
0000
0000
0000
1010
0000
0000
0000
,  // measure 50
0110
0000
0000
0100
0002
0000
0000
0000
0000
0000
0000
0000
0013
0000
0000
0000
1010
0000
0000
0000
1000
0000
0000
0000
1010
0000
0000
0000
0010
0000
0000
0000
,  // measure 51
0011
0001
0202
0000
0303
0001
1000
0010
,  // measure 52
2000
0000
0000
3200
0000
0000
2300
3002
,  // measure 53
2003
3020
0230
0302
0023
0000
0230
2300
,  // measure 54
0001
0001
3002
0000
0103
0200
0000
0000
,  // measure 55
0301
0000
0000
0000
0000
0000
0000
0000
0000
0000
0000
0000
0001
1000
0001
1000
0001
0010
0001
0010
0100
1000
0100
1000
0001
0000
0000
0000
0000
0000
0000
0000
,  // measure 56
0011
0000
0000
0000
0110
0000
0000
0100
1000
0000
0000
1000
0001
0000
0000
0000
,  // measure 57
0011
0110
1100
1010
,  // measure 58
0100
0001
0100
0001
0000
0000
1000
0000
0000
1010
0000
0000
,  // measure 59
0010
0000
0000
0000
0000
0000
0000
0000
0000
0000
0000
0000
0100
0000
0000
0000
0001
0000
0000
0000
1000
0000
0000
0000
0001
0000
0000
0000
0000
0000
0000
0000
0000
0001
0000
0000
0100
0000
0000
0000
0000
0000
0000
0000
0000
0100
0000
0000
,  // measure 60
0010
0000
0000
0000
0000
0000
0000
0000
0000
0010
0000
0000
1000
0000
0000
0000
0000
0000
0000
0000
0000
0000
0000
0000
0001
0000
0000
0000
0100
0000
0000
0000
0001
0000
0000
0000
0100
0000
0000
0000
0000
0000
0000
0000
0000
0100
0000
0000
,  // measure 61
0010
1010
1100
0110
,  // measure 62
0011
0000
0000
0001
0100
0000
0000
0100
0010
0000
0000
0000
1010
0000
0000
0000
,  // measure 63
1100
0000
0000
0100
0010
0100
0010
0001
0010
0001
1000
0001
,  // measure 64
1000
0010
1000
0010
0100
0001
0100
0001
1000
0001
0000
0000
,  // measure 65
1100
0000
0000
1000
0001
0010
0001
0000
0000
0011
0000
0000
,  // measure 66
0110
0000
0000
0000
1100
0000
0000
0000
1000
0000
0000
0000
1001
0000
0000
0001
,  // measure 67
0100
0000
0000
0100
0010
0000
0000
0000
1000
0000
0000
1000
0010
0000
0000
0000
,  // measure 68
0110
0000
0000
0101
0000
0000
0011
0000
0000
0010
0100
1000
,  // measure 69
0100
0000
0000
0011
0000
0000
0101
0000
0000
0100
0010
1000
,  // measure 70
0010
0100
0001
0010
0000
0000
0100
0000
0000
1100
0000
0000
,  // measure 71
1000
0010
0100
0010
1000
0001
1000
0000
0000
1001
0000
0000
,  // measure 72
0101
0000
0000
0000
0110
0000
0000
0000
1010
0000
0000
0000
1001
0000
0000
0001
,  // measure 73
0010
0000
0011
0000
0010
0001
0101
0000
,  // measure 74
0000
0110
0010
1000
0100
0001
0100
1000
,  // measure 75
0010
0100
0001
0100
0010
0000
1000
0000
0001
0010
0000
0000
0001
0100
0000
0000
,  // measure 76
0010
1000
0000
0000
0100
1000
0000
0000
1001
0000
0000
0000
0022
0000
0000
0000
,  // measure 77
0033
0000
0000
0001
1000
0000
0000
0000
2020
0000
0000
0000
0000
0000
0000
0000
,  // measure 78
3030
0000
0000
0000
0000
0000
0000
0000
2002
0000
0000
0000
3003
0000
0000
0000
0001
0000
0000
0100
0001
0000
0000
0000
0000
0000
0000
0000
0000
0000
1000
0000
,  // measure 79
0000
0010
1000
0000
0000
0000
0001
0000
0000
0000
0100
0000
0000
0010
0200
0000
0000
0000
0000
0000
0000
0000
0000
0000
0302
0000
0000
0000
2003
0000
0000
0000
,  // measure 80
0000
3002
0023
0230
2300
0000
3200
0000
,  // measure 81
0000
0000
0000
0000
0302
0000
0000
0000
0000
0000
0000
0000
0103
0000
0000
0100
0020
0000
0000
0000
0000
0000
0000
0000
0031
0000
0000
1000
0002
0000
0000
0000
,  // measure 82
0000
0000
0003
2000
3020
0032
0023
2030
,  // measure 83
3100
0000
0000
0010
0100
0000
0000
0000
0000
0000
0000
0000
1000
0000
0000
1000
0002
0000
0000
0000
0000
0000
0000
0000
0000
0000
0000
0000
0000
0000
0000
0000
,  // measure 84
0000
0000
0000
2003
3200
0320
0032
0000
,  // measure 85
0000
0000
0000
0000
0000
0000
0000
0000
0000
0000
0000
0000
0000
0000
0000
0000
0003
0000
1000
0100
1000
0100
1000
0100
1000
0100
1000
0100
1000
0100
1000
0100
,  // measure 86
0010
0001
0010
0001
0010
0001
0010
0001
0010
0001
0010
0001
0010
0001
0010
0100
0010
0100
1000
0100
1000
0010
1000
0010
1000
0001
0100
0001
0100
0010
0100
0010
,  // measure 87
1000
0100
1000
0100
0010
0001
0010
0001
2000
0000
0000
0000
0000
0000
0000
0000
3000
0000
0000
0000
0000
0000
0000
0000
0000
0000
0000
0000
0000
0000
0000
0000
;
