#TITLE:Almagest;
#SUBTITLE:;
#ARTIST:Galdeira;
#TITLETRANSLIT:;
#SUBTITLETRANSLIT:;
#ARTISTTRANSLIT:;
#GENRE:;
#CREDIT:;
#BANNER:Almagest.png;
#BACKGROUND:Almagest-bg.png;
#LYRICSPATH:;
#CDTITLE:;
#MUSIC:Almagest.ogg;
#OFFSET:2.283000;
#SAMPLESTART:63.499973;
#SAMPLELENGTH:14.999998;
#LASTBEATHINT:3.806233;
#SELECTABLE:YES;
#DISPLAYBPM:178.000000:356.000000;
#BPMS:0.000000=178.000000
,56.000000=356.000000
,184.000000=178.000000
,188.000000=355.998993
,228.000000=178.000000
,240.000000=356.000000
,304.000000=178.000000
,312.000000=356.000000
,440.000000=178.000000
;
#STOPS:
;
#BGCHANGES:;
#KEYSOUNDS:;
#ATTACKS:;

//---------------dance-single - ----------------
#NOTES:
     dance-single:
     :
     Challenge:
     19:
     1.332737,1.893679,0.407778,0.029837,0.691233,938.000000,897.000000,41.000000,3.000000,0.000000,0.000000,1.332737,1.893679,0.407778,0.029837,0.691233,938.000000,897.000000,41.000000,3.000000,0.000000,0.000000:
// measure 0
0000
0000
0000
0000
,  // measure 1
0000
0000
0000
0000
,  // measure 2
0000
0000
0000
0000
,  // measure 3
0000
0000
0000
0000
,  // measure 4
1000
0001
1000
0001
0100
0000
0010
0000
1000
0010
1000
0010
0100
0000
0001
0000
,  // measure 5
0100
0010
1000
0010
1000
0000
0001
0000
0010
0100
0010
0001
1000
0000
0010
0000
,  // measure 6
0100
0001
0010
0001
1000
0000
0100
0000
0010
0001
0100
0001
1000
0000
0100
0000
,  // measure 7
1000
0100
0010
0001
1000
0010
1000
0000
0001
0010
0100
1000
0001
0010
0001
0000
,  // measure 8
1001
0001
0101
0100
0110
0010
1010
1000
,  // measure 9
1001
0001
0101
0100
0110
0010
1010
1000
,  // measure 10
0001
0010
0100
1000
0010
0100
0010
1000
0100
0010
0001
0100
0010
0001
0010
0100
,  // measure 11
0001
0010
0100
1000
0010
0100
0001
0010
0100
1000
0100
0001
0200
0000
0000
0000
,  // measure 12
1300
0001
1000
0000
0010
0100
0001
1000
0001
0010
0100
1000
0010
0100
0001
0100
,  // measure 13
0010
0001
0010
1000
0001
0000
0000
0001
0100
0000
0110
0000
1001
0000
0000
0000
,  // measure 14
0001
0010
1000
0010
,  // measure 15
0100
1000
0100
0010
0001
1000
0001
0000
,  // measure 16
0100
0010
1000
0010
,  // measure 17
0100
0001
1000
0001
0100
0001
1000
0001
,  // measure 18
0010
0000
0100
0000
1000
0000
0100
1000
,  // measure 19
0010
1000
0100
1000
0010
0100
0001
0000
,  // measure 20
0101
0100
0110
0010
,  // measure 21
1000
0001
1000
0000
0010
0000
0100
0000
,  // measure 22
0101
0001
1000
0010
,  // measure 23
0100
0001
0010
0001
1000
0100
1000
0001
,  // measure 24
0100
0010
1000
0110
,  // measure 25
0001
0010
0100
0010
0001
1000
0010
1000
,  // measure 26
0001
0000
0010
0000
0100
0000
1000
0001
,  // measure 27
0010
0100
1000
0010
0100
0001
0100
0000
,  // measure 28
1100
0101
0000
1001
,  // measure 29
0001
0010
0100
1000
0001
0100
0010
0100
,  // measure 30
0001
0000
1000
0000
0010
0000
0100
0001
,  // measure 31
1000
0001
0100
0010
1000
0001
1000
0000
,  // measure 32
0100
0010
0001
0100
,  // measure 33
0010
1000
0100
0010
0001
0100
0010
1000
,  // measure 34
0100
0000
1000
0000
0001
0010
0001
1000
,  // measure 35
0100
1000
0010
0100
0001
0100
0010
1000
,  // measure 36
0010
0100
0001
0010
,  // measure 37
0001
1000
0001
0000
1000
0000
0010
1000
0010
0000
1000
0000
0001
0000
0010
0000
,  // measure 38
0001
0000
0010
0000
0100
0000
1000
0100
,  // measure 39
1000
0010
1000
0001
0100
0001
1000
0000
,  // measure 40
1010
0000
0010
0000
1000
0001
0100
0010
,  // measure 41
0100
0001
1000
0001
0010
0001
0100
0000
,  // measure 42
1001
1010
0010
0100
,  // measure 43
0001
0000
0000
0000
1000
0001
1000
0000
0001
0000
1000
0000
0001
1000
0001
0000
,  // measure 44
0100
0010
1000
0010
0100
0001
0010
0100
,  // measure 45
1000
0001
0010
0001
0100
0010
0100
0001
,  // measure 46
1000
0001
1000
0001
1000
0000
0010
0100
0010
0000
0000
0000
0100
0000
0000
0000
,  // measure 47
1001
0000
0001
0000
0100
0000
0010
1000
,  // measure 48
0001
0000
1000
0001
0100
0000
0010
1000
,  // measure 49
0100
0010
0001
0100
0001
0000
1000
0010
,  // measure 50
0100
0000
0001
1000
1010
0000
0000
0000
,  // measure 51
0101
0000
0010
0000
1000
0000
0001
0010
,  // measure 52
0100
0000
1000
0001
0100
0000
0001
0000
,  // measure 53
1001
1000
1010
0010
,  // measure 54
0100
0001
0100
0010
1000
0000
1001
0000
,  // measure 55
0001
0000
0010
0000
0100
0000
1000
0001
,  // measure 56
0010
0000
0100
1000
0001
0000
0100
0000
,  // measure 57
0001
0000
0100
0000
0010
0000
1000
0000
0010
0100
0010
0000
0100
0000
0001
0000
1000
0000
0010
0000
0100
0001
1000
0000
0001
0000
0100
0000
0010
1000
0001
0000
,  // measure 58
1000
0000
0000
0000
0100
0000
0010
0000
0001
1000
0001
0000
0001
0100
0001
1000
,  // measure 59
0010
0100
0010
0100
0010
0000
0000
0000
0000
0000
0000
0000
1000
0000
0001
0000
0010
0000
0001
0000
0100
0000
0000
0000
0001
0000
0000
0000
0000
0000
0000
0000
,  // measure 60
1001
0000
0101
0000
0010
1000
0100
1000
,  // measure 61
0001
0010
0001
0100
0010
0100
0001
0010
,  // measure 62
0001
1000
0100
0010
0001
0010
0100
1000
,  // measure 63
0100
0010
0001
1000
0020
0000
0000
0000
,  // measure 64
1030
0000
0001
0000
0100
0010
1000
0010
,  // measure 65
0100
0010
1000
0010
0100
0010
1000
0001
,  // measure 66
0100
0001
1000
0001
0010
0001
1000
0001
,  // measure 67
0010
0100
1000
0001
0011
0000
1100
0000
,  // measure 68
1001
0000
1001
0000
0100
0010
1000
0010
,  // measure 69
0100
0010
0001
0010
0100
0010
0001
0010
,  // measure 70
1000
0010
0100
0001
0010
0100
1000
0100
,  // measure 71
0010
0001
0100
0010
1000
0001
0010
0100
,  // measure 72
1000
0100
1000
0100
0001
0100
0001
0100
,  // measure 73
1000
0100
0010
0001
1000
0100
0010
0001
,  // measure 74
0100
1000
0100
0001
0010
1000
0010
0001
,  // measure 75
0100
0010
1000
0010
0100
0001
0010
0100
,  // measure 76
1000
0000
0000
0000
1001
0000
0000
0000
0101
0000
0000
0000
0110
0000
0000
0000
1000
0001
1000
0000
0001
0000
1000
0000
0001
0000
0100
0000
0010
0000
0000
0000
,  // measure 77
1000
0100
0010
0001
1000
0100
1000
0010
0100
0001
0010
0001
1000
0100
0010
0001
,  // measure 78
0100
0001
1000
0000
0010
1000
0100
0000
,  // measure 79
0010
0001
0010
1000
0010
0100
0010
0000
,  // measure 80
0001
0100
1000
0000
1000
0100
0001
0000
,  // measure 81
0001
0010
0001
0000
1000
0001
0100
0000
,  // measure 82
0001
1000
0001
0000
1000
0010
0100
0001
,  // measure 83
0010
0001
1000
0001
0100
0010
0100
0001
,  // measure 84
0010
0001
1000
0010
1000
0001
0100
0001
,  // measure 85
0010
0100
1000
0001
0100
0010
0100
0000
,  // measure 86
0001
0010
0100
0010
0001
0100
0010
0100
,  // measure 87
0001
1000
0010
0000
1000
0000
0001
0000
1000
0001
0100
0000
0001
0000
0000
0000
,  // measure 88
1000
0100
1000
0000
0010
0000
0000
0000
0100
0010
0100
0000
0010
0000
1000
0000
,  // measure 89
0001
0010
0001
1000
0100
1000
0001
0000
,  // measure 90
0011
0000
1000
0000
0010
1000
0001
0100
,  // measure 91
0001
1000
0010
0100
0001
0010
0100
1000
,  // measure 92
0001
0000
0101
0000
0010
1000
0001
0100
,  // measure 93
0010
1000
0001
0000
0100
0000
0001
0000
1000
0000
0010
0000
1000
0000
0100
0000
,  // measure 94
0010
0001
1000
0010
0100
1000
0100
1000
,  // measure 95
0100
0010
0100
0010
1000
0001
0100
0001
,  // measure 96
0010
0001
0100
0001
0010
0100
1000
0001
,  // measure 97
0100
0010
1000
0010
0100
0000
0001
0000
,  // measure 98
0010
0000
0100
0000
1000
0001
0100
0000
,  // measure 99
0001
0100
0010
1000
0010
0100
0001
0000
,  // measure 100
1000
0010
0001
0010
,  // measure 101
1000
0001
0100
0010
0100
0001
0100
0000
,  // measure 102
0100
0001
0010
0100
1000
0001
0010
0001
,  // measure 103
0100
0010
0100
0001
1000
0010
1000
0100
,  // measure 104
1000
0001
0010
0001
0100
0010
0100
0001
,  // measure 105
1000
0100
1000
0001
0010
0001
0100
0000
,  // measure 106
0010
0110
1001
1001
,  // measure 107
0110
0000
0000
0000
0100
0001
1000
0000
0001
0000
0000
0000
1000
0010
0100
0000
,  // measure 108
0010
1000
0100
1000
0001
1000
0100
0010
,  // measure 109
0001
0100
0001
0000
0000
0000
0001
0000
1000
0000
0010
0000
1000
0000
0100
0000
,  // measure 110
1000
0001
0000
0001
0010
0001
0100
0000
0100
0010
0000
0010
1000
0100
0010
0000
,  // measure 111
0001
1000
0000
0001
1000
0000
0010
0000
0100
0001
0100
0001
1000
0010
1000
0010
,  // measure 112
0100
0001
0000
0001
1000
0010
1000
0000
0100
0010
0000
0001
0010
0100
1000
0001
,  // measure 113
1000
0010
0000
0010
0100
0001
0100
0000
0100
0010
1000
0010
0100
0001
0010
0100
,  // measure 114
1000
0001
1000
0001
0100
0010
1000
0000
0100
0010
0000
0010
0001
1000
0001
0000
,  // measure 115
1000
0100
1000
0100
0010
0001
0010
0001
0100
0010
1000
0010
0100
0001
0010
0000
,  // measure 116
0001
1000
0000
1000
0010
1000
0100
0000
1000
0001
0000
0001
0010
0001
0100
0000
,  // measure 117
0010
1000
0000
1000
0001
0000
0100
0000
0001
0010
0100
1000
0010
0100
0001
0010
,  // measure 118
0200
0000
0000
0000
,  // measure 119
0300
0000
0000
0000
;

//---------------dance-single - ----------------
#NOTES:
     dance-single:
     :
     Hard:
     17:
     1.130979,1.538615,0.407778,0.059675,0.308320,796.000000,755.000000,41.000000,6.000000,0.000000,0.000000,1.130979,1.538615,0.407778,0.059675,0.308320,796.000000,755.000000,41.000000,6.000000,0.000000,0.000000:
0000
0000
0000
0000
,
0000
0000
0000
0000
,
0000
0000
0000
0000
,
0000
0000
0000
0000
,
1000
0001
1000
0000
0001
0000
0100
0000
0010
1000
0010
0000
1000
0000
0001
0000
,
0100
0001
0100
0000
0001
0000
1000
0000
0010
1000
0010
0000
1000
0000
0001
0000
,
0100
0010
0100
0000
0001
0000
1000
0000
0010
1000
0010
0000
0100
0000
0010
0000
,
0100
0000
0001
0000
0011
0000
0010
0000
0100
0010
0100
0000
1000
0000
0010
0000
,
1010
1000
1100
0100
0110
0010
0011
0001
,
1001
1000
1010
0010
0110
0100
0101
0001
,
1000
0010
0100
0000
0001
1000
0010
0000
0100
0001
1000
0000
0010
0100
0010
0000
,
1000
0001
0010
0000
0100
0010
0100
0000
1000
0010
0100
0000
0002
0000
0000
0000
,
1003
0001
1000
0000
0100
0010
0100
0000
0010
0001
0010
0001
1000
0010
1000
0010
,
0100
0001
0100
0001
0010
0000
0000
0010
0001
0000
0001
0000
1001
0000
0000
0000
,
0101
0001
0010
0100
,
1000
0001
1000
0000
0001
1000
0001
0000
,
1000
0100
0001
0100
,
1000
0010
1000
0000
0001
0010
0001
0000
,
1000
0100
0010
0001
,
1000
0100
1000
0000
0001
0010
0001
0000
,
1001
0001
0100
0010
,
1000
0001
1000
0001
1000
0001
0010
0000
,
0001
1000
0100
0010
,
0100
1000
0100
1000
0100
1000
0100
1000
,
0010
1000
0001
1000
,
0001
0010
0001
0010
0001
0100
0001
0100
,
0001
0100
0001
1000
,
0001
0010
0001
0010
0001
0010
0001
0000
,
0101
1100
0000
1001
,
0001
0010
0100
1000
0001
0010
0001
0010
,
0001
0000
1000
0000
0010
0000
0100
0001
,
0100
0001
0100
0010
1000
0010
1000
0000
,
0100
0010
0001
0100
,
0010
1000
0001
1000
0100
1000
0100
0000
,
0010
0000
0001
0000
0010
0100
0010
0100
,
1000
0001
1000
0001
1000
0001
1000
0000
,
0010
0110
0000
0011
,
1000
0010
1000
0010
1000
0001
0100
0001
,
0100
0010
1000
0001
,
1000
0010
1000
0010
1000
0000
0001
0000
,
0010
0001
0100
0010
,
1000
0001
1000
0001
1000
0000
0010
0000
,
0110
0101
0001
0010
,
0100
1000
0001
0010
0001
0100
0001
1000
,
0001
1000
0010
0100
0010
0100
0001
0100
,
0001
0010
0100
1000
0001
1000
0100
0010
,
0001
0100
0001
0000
0000
0000
1000
0001
1000
0000
0000
0000
0110
0000
0000
0000
,
1001
0000
0010
0000
1000
0000
0001
0100
,
0001
0000
0100
0001
0100
0000
0001
1000
,
0001
1000
0001
0000
0100
0000
0001
0010
,
0001
0000
0001
0010
0002
0000
0000
0003
,
1000
0000
0010
0000
0100
0000
0001
1000
,
0001
0000
1000
0001
1000
0000
0010
0000
,
0110
0100
0101
0001
,
1000
0010
1000
0000
0001
0000
0100
0000
,
0101
0010
1000
0001
,
0100
0000
0010
1000
0010
0000
0100
0000
,
0001
0100
0001
0100
0001
0000
1000
0000
0001
0000
1000
0010
1000
0010
0100
0001
,
0100
0000
0100
0000
0010
0000
1000
0000
0100
0001
0100
0000
1000
0001
0010
0001
,
0200
0000
0000
0000
0300
0000
0001
0010
0001
1000
0100
0000
1100
0000
0000
0000
,
1000
0000
1001
0000
0001
0100
0001
0100
,
0001
0000
1000
0010
1000
0010
1000
0000
,
0001
1000
0001
1000
0001
0000
1000
0000
,
0010
0100
0120
0000
,
0130
0000
0001
0000
1000
0010
0100
0000
,
0010
1000
0001
0000
0100
0001
1000
0000
,
0001
0100
0001
0100
0010
1000
0010
1000
,
0001
0100
0001
0100
0010
0000
1000
0000
,
1010
0000
0110
0000
0100
0001
0100
0000
,
0001
1000
0010
1000
0010
1000
0010
0000
,
1000
0001
1000
0001
1000
0001
0100
0000
,
0001
1000
0010
1000
0001
1000
0010
0000
,
0100
0010
0100
0010
0100
0010
0100
0000
,
0001
0010
0001
0010
0001
0010
0001
0000
,
1000
0100
1000
0100
0010
0001
0010
0001
,
0100
0010
0100
0010
0100
0010
0100
0010
,
1000
0000
1000
0000
0001
0000
0001
0000
0100
0010
0100
0000
0010
1000
0001
0000
,
1000
0000
0000
0000
0010
0100
0010
0000
0100
0010
0100
0000
0010
0100
0010
0000
,
1000
0001
1000
0000
1000
0100
1000
0000
,
0010
0100
0010
0000
0100
0010
0100
0000
,
0001
0010
0001
0000
0001
0100
0001
0000
,
1000
0001
1000
0000
0001
1000
0001
0000
,
1000
0000
0100
0000
0010
0001
0010
0000
,
0100
1000
0100
0000
1000
0001
1000
0000
,
0001
0100
0001
0000
0100
0000
0010
0000
,
0100
0001
1000
0000
0010
0000
1010
0000
,
0010
1000
0010
0000
0010
0001
0010
0000
,
0010
1000
0010
0000
0010
0001
0010
0000
,
0100
0001
0100
0000
0100
1000
0100
0000
,
0100
0010
0001
0000
0001
0010
0100
0000
,
1000
0000
1001
0000
0001
1000
0001
0000
,
0001
0010
0001
0000
0001
0100
0001
0000
,
1001
1010
0000
1000
,
0001
0010
0001
0010
0100
1000
0100
1000
,
0010
0100
0010
0000
0010
1000
0010
0000
,
0010
0001
0010
0000
0010
1000
0010
0000
,
1000
0001
0100
0000
0100
0010
1000
0000
,
1000
0001
0100
0000
0100
0001
1000
0000
,
0010
0000
1000
0000
0100
0010
0001
0000
,
0001
0010
0100
0000
0100
0001
0100
0000
,
1000
0001
1001
0001
,
0100
0010
0100
0010
0100
0010
0100
0010
,
1000
0001
1000
0000
1000
0100
1000
0000
,
1000
0010
1000
0100
1000
0010
1000
0000
,
0001
0100
0010
0000
1000
0010
0100
0000
,
0100
0010
1000
0000
0001
1000
0100
0000
,
0011
0001
0101
0100
,
0110
0000
0010
1000
0001
0000
1000
0001
,
1000
0010
1000
0010
1000
0000
0001
0100
,
0001
0100
0010
1000
0010
1000
0001
0100
,
0001
0000
0000
0000
0001
0000
0000
0000
1000
0001
0000
1000
0001
1000
0010
0000
,
0100
0010
0000
0010
1000
0000
0001
0000
0100
0010
0100
0000
1001
0000
0000
0000
,
1010
0000
0000
0000
0110
0000
0000
0000
0100
0001
0000
0001
1000
0000
0010
0000
,
0100
0010
0000
0010
1000
0000
0001
0000
0100
0010
0000
0010
0100
0000
0001
0000
,
0100
0000
0010
0000
1000
0100
0000
0100
1000
0010
1000
0000
0010
0000
1000
0000
,
0001
1000
0001
0000
0100
0010
0100
0000
0001
1000
0001
0000
0010
0100
1000
0000
,
0001
0100
0010
0100
0001
0010
0001
1000
,
0100
0000
1000
0000
0001
0010
0001
0000
1000
0100
1000
0100
1000
0000
0001
0000
,
2002
0000
0000
0000
,
3003
0000
0000
0000
;

//---------------dance-single - ----------------
#NOTES:
     dance-single:
     :
     Easy:
     8:
     0.436194,0.704162,0.129295,0.019892,0.000000,307.000000,294.000000,13.000000,2.000000,0.000000,0.000000,0.436194,0.704162,0.129295,0.019892,0.000000,307.000000,294.000000,13.000000,2.000000,0.000000,0.000000:
0000
0000
0000
0000
,
0000
0000
0000
0000
,
0000
0000
0000
0000
,
0000
0000
0000
0000
,
1000
0001
1000
0000
0001
0100
0001
0000
,
0100
0010
1000
0010
,
0100
0100
0100
0000
0001
0001
0001
0000
,
1000
0010
0100
0010
,
1000
0001
1000
0000
0001
0100
0001
0000
,
0100
0010
0100
0000
0010
0000
1000
0000
,
0100
1000
0100
0000
0100
0010
0100
0000
,
0100
0001
0100
0000
1000
0000
0001
0000
,
0100
0001
0010
0001
,
1000
0000
0001
0000
0100
0100
0010
0000
,
1000
0000
0001
0000
,
1000
0000
0010
0000
,
1000
0000
0010
0000
,
0100
0000
0010
0000
,
0100
0000
0010
0000
,
0001
0000
0010
0000
,
1000
0000
0010
0000
,
0001
0000
0010
0000
,
1000
0000
0010
0000
,
0001
0000
0100
0000
,
1000
0000
0100
0000
,
0001
0000
0100
0000
,
1000
0000
0010
0000
,
0001
0000
0010
0000
,
1000
0000
0100
0000
,
0001
0000
0100
0000
,
1000
0000
0001
0000
,
1000
0000
0001
0000
,
0010
0000
0001
0000
,
0100
0001
0100
0000
,
0010
0000
1000
0000
,
0001
0100
0001
0000
,
1000
0000
0100
0000
,
0010
0000
0001
0000
,
1000
0000
0001
0000
,
0100
0000
0001
0000
,
1000
0000
0010
0000
,
0100
0000
0010
0000
,
1000
0000
0100
0000
,
1000
0000
0001
0000
,
0100
0000
0010
0000
,
0100
0000
0001
0000
,
2000
0000
0000
3002
0000
0003
1000
0000
,
0001
0000
1000
0000
,
0001
0000
0100
0000
,
0010
0000
0100
0000
,
0001
1000
0001
0000
,
1000
0000
0010
0000
,
0100
0000
0010
0000
,
1000
0000
0001
0000
,
0100
0001
0100
0000
,
0010
0000
1000
0000
,
0100
0000
0010
0000
,
0001
0100
0010
0100
,
0001
1000
0100
1000
,
0010
0000
0100
0000
,
0001
1000
0001
0000
,
1000
0100
1000
0000
,
0010
0000
0100
0000
,
0001
0100
0001
0000
,
0100
0000
0010
0000
,
1000
0001
1000
0000
,
0100
0000
1000
0000
,
0010
0000
0100
0000
,
0010
0000
1000
0000
,
0001
0000
0100
0000
,
0010
0000
0100
0000
,
0001
0000
1000
0000
,
1100
0000
0001
0000
,
0101
0000
0010
0000
,
0100
0000
0010
0000
,
1000
0000
0100
0000
,
0010
0001
0010
0001
,
0100
0000
0000
0000
,
1010
0000
0000
0000
,
1001
0000
0001
0000
,
0101
0000
0100
0000
,
0110
0000
0100
0000
,
1010
0000
0010
0000
,
1000
0000
1000
0000
,
1001
0000
0001
0000
,
0101
0000
0100
0000
,
0110
0000
0010
0000
,
1000
0000
0001
0000
,
0100
0000
0010
0000
,
0100
0000
0001
0000
,
1000
0100
1000
0000
,
0010
0100
0010
0000
,
0100
0000
0001
0000
,
0010
0000
0001
0000
,
1000
0000
0001
0000
,
0100
0001
0100
0000
,
0010
0000
1000
0000
,
0100
0000
0010
0000
,
0001
0000
0010
0000
,
0100
0000
1000
0000
,
0001
0000
0100
0000
,
0010
0000
0100
0000
,
0001
1000
0001
0000
,
1000
0010
1000
0000
,
0010
0000
0100
0000
,
0001
0000
0010
0000
,
0001
0000
1000
0000
,
0100
0000
1000
0000
,
0010
0000
0100
0000
,
0010
0000
1000
0000
,
1001
0001
0100
0010
,
0100
0001
1000
0100
,
1000
0010
0100
0010
,
1000
0001
0100
0010
,
0110
0100
0001
1000
,
0100
1000
0010
0100
,
0010
1000
0001
0100
,
0010
0100
0001
1000
,
1001
0000
0000
0000
;

//---------------dance-single - ----------------
#NOTES:
     dance-single:
     :
     Medium:
     13:
     0.650739,1.006017,0.069621,0.049729,0.000000,458.000000,451.000000,7.000000,5.000000,0.000000,0.000000,0.650739,1.006017,0.069621,0.049729,0.000000,458.000000,451.000000,7.000000,5.000000,0.000000,0.000000:
0000
0000
0000
0000
,
0000
0000
0000
0000
,
0000
0000
0000
0000
,
0000
0000
0000
0000
,
1000
0001
1000
0000
0001
0100
0001
0000
,
0100
0010
0100
0000
0010
1000
0010
1000
,
0001
1000
0001
0000
0100
0010
0100
0000
,
0001
0010
0001
0010
0100
1000
0100
1000
,
0001
0100
0001
0100
0010
1000
0010
1000
,
0001
1000
0001
1000
0100
1000
0100
0010
,
0001
0100
0001
0100
0001
0100
0001
0100
,
0001
0100
0010
2000
0000
0000
3001
0000
,
0100
0010
0100
0000
0001
0010
0001
0000
,
1000
0100
1000
0000
0010
0010
0010
0000
,
1000
0001
0100
0000
,
0001
0100
0010
0000
,
1000
0010
0100
0001
,
0100
0010
1000
0000
,
0001
0100
0001
0100
,
0010
0100
0010
0000
,
0100
0001
0100
0001
,
0010
0100
1000
0000
,
1000
0100
1000
0100
,
0010
0100
0010
0000
,
0001
0100
0001
0010
,
0001
1000
0001
0000
,
1000
0010
1000
0100
,
1000
0001
1000
0000
,
0001
0101
0000
0110
,
0000
1001
0000
1000
,
0010
0100
0010
0000
,
0100
0010
0100
0000
,
0010
1000
0010
0000
,
1000
0010
1000
0001
,
0100
0010
0100
0000
,
0010
0100
0010
0000
0100
0000
0101
0000
,
0000
1010
0000
1000
,
0100
0010
0100
0000
0010
0000
0001
0000
,
1000
0100
0010
1000
,
0010
0001
1000
0000
,
0001
1000
0100
1000
,
0010
0100
0010
0000
1000
0000
0000
0000
,
0001
0001
0100
0100
,
0010
0000
1000
0010
1000
0000
0100
1000
,
0100
0010
0001
0100
,
0010
0100
0010
0100
0010
0100
0010
0100
,
0002
0000
0000
2003
0000
0000
3001
0000
,
0100
0100
0001
0001
,
1000
0010
1000
0000
,
0001
0100
0001
1000
,
0010
1000
0001
0000
,
0101
0000
0010
0000
,
0100
0100
0010
0000
,
1000
0100
1000
0100
,
1000
0100
1000
0000
,
0101
0000
0010
0000
,
0100
0000
0010
0000
,
0001
0001
0100
0000
0001
0000
0100
0000
,
1000
0000
0100
0001
0010
0100
0010
1000
,
0020
0000
0130
0001
,
0100
1000
0001
0010
,
0001
0010
0001
0000
0100
0000
0010
0000
,
0100
0010
0100
0000
0010
0000
1000
0000
,
0010
1000
0010
0000
,
1000
0001
1000
0001
,
0010
0001
0010
0001
,
0100
0010
0100
0010
,
0100
0010
0100
0000
,
0010
0000
1000
0000
0010
1000
0010
0000
,
1000
0000
0001
0000
1000
0001
1000
0000
,
0001
0000
0100
0000
0001
0100
0001
0000
,
1000
0100
0001
0100
,
1000
0100
0001
0000
,
1000
0010
0001
0000
,
1000
0100
0001
0100
,
1000
0010
0001
0010
,
1000
0000
0001
0000
,
1000
0000
0100
0000
,
0010
0001
0010
0000
,
0001
0010
0001
0000
,
0100
0010
0100
0000
,
0010
0100
0010
0000
,
1000
0010
1000
0000
,
0001
0100
0001
0000
,
0100
0010
0100
0000
,
0010
0100
0010
0000
,
1000
0100
1000
0000
,
0100
1000
0100
0000
,
0001
0100
0001
0000
,
0100
0001
0100
0000
,
0010
0100
0010
0000
,
0100
0010
0100
0000
,
1000
0100
1000
0100
,
1000
0100
1000
0100
,
1000
0000
0001
0000
,
0100
0000
0010
0000
,
0100
0010
0100
0000
,
0010
1000
0010
0000
,
1000
0100
1000
0000
,
0001
0100
0001
0000
,
0100
0010
1000
0010
,
0100
0001
0100
0010
,
1000
0000
0001
0000
,
0100
0010
0100
0000
,
0010
1000
0010
0000
,
1000
0100
1000
0000
,
0001
0100
0010
0100
,
0001
0010
0100
1000
,
0010
0100
0010
1000
,
0001
0100
0010
0100
,
0001
1000
1000
0000
0010
0000
0100
0000
,
0010
1000
0010
0000
1000
0001
1000
0000
,
0001
0100
0010
0100
,
0010
1000
0010
0000
1000
0001
0100
0001
,
0010
0000
0001
0000
1000
0010
1000
0000
,
0010
0100
0010
0000
0100
0001
0010
0000
,
0001
0100
0010
0000
1000
0010
0100
0000
,
0010
1000
0010
0000
0100
0001
0010
0001
,
2000
0000
0000
0000
,
3000
0000
0000
0000
;

//---------------dance-single - ----------------
#NOTES:
     dance-single:
     :
     Beginner:
     5:
     0.252907,0.528122,0.000000,0.000000,0.000000,178.000000,178.000000,0.000000,0.000000,0.000000,0.000000,0.252907,0.528122,0.000000,0.000000,0.000000,178.000000,178.000000,0.000000,0.000000,0.000000,0.000000:
0000
0000
0000
0000
,
0000
0000
0000
0000
,
0000
0000
0000
0000
,
0000
0000
0000
0000
,
1000
0100
1000
0010
,
0100
0000
0001
0010
,
0001
1000
0100
1000
,
0010
0000
0100
0001
,
0100
0010
1000
0010
,
0100
0000
0001
0010
,
0001
1000
0100
1000
,
0010
0100
0001
0100
,
0010
0010
1000
1000
,
0001
0001
0100
0100
,
0010
0000
0000
0000
,
1000
0000
0100
1000
,
0000
0000
0000
0000
,
0001
0000
0010
0000
,
0001
0000
0000
0000
,
1000
0000
0100
0000
,
1000
0000
0000
0000
,
0010
0000
0100
0000
,
0010
0000
0000
0000
,
1000
0000
0001
0000
,
1000
0000
0000
0000
,
0001
0000
0000
0000
,
0100
0000
0000
0000
,
0010
0000
0000
0000
,
0100
0000
0000
0000
,
0001
0000
0000
0000
,
1000
0000
0000
0000
,
0001
0000
0000
0000
,
1000
0000
0000
0000
,
0010
0000
0000
0000
,
0100
0000
0000
0000
,
0010
0000
0000
0000
,
1000
0000
0000
0000
,
0001
0000
0000
0000
,
1000
0000
0000
0000
,
0001
0000
0000
0000
,
0010
0000
0000
0000
,
0001
0000
0000
0000
,
0100
0000
0000
0000
,
0010
0000
0000
0000
,
0100
0000
0000
0000
,
0001
0000
0000
0000
,
1000
0000
1000
0000
,
0001
0000
0000
0001
,
0000
0001
0000
0000
,
0001
0000
0000
0000
,
1000
0000
0000
0000
,
1000
0000
0000
0000
,
1000
0000
0000
0000
,
0100
0000
0000
0000
,
0100
0000
0000
0000
,
0010
0000
0000
0000
,
0010
0000
0000
0000
,
0001
0000
1000
0000
,
0001
0000
1000
0000
,
0100
0000
0010
0000
,
0001
0000
0000
0000
,
1000
0000
0000
0000
,
0001
0000
0000
0000
,
1000
0000
0000
0000
,
0100
0000
0000
0000
,
0010
0000
0000
0000
,
0001
0000
0000
0000
,
0010
0000
0000
0000
,
0001
0000
0000
0000
,
0100
0000
0000
0000
,
0010
0000
0000
0000
,
0100
0000
0000
0000
,
0001
0000
0000
0000
,
1000
0000
0000
0000
,
0001
0000
0000
0000
,
0010
0000
0000
0000
,
0001
0000
0100
0000
,
0010
0000
0100
0000
,
0001
0000
0000
0000
,
1000
0000
0000
0000
,
0100
0000
0000
0000
,
1000
0000
0000
0000
,
0010
0000
0000
0000
,
0100
0000
0000
0000
,
0001
0000
0000
0000
,
0010
0000
0000
0000
,
0100
0000
0000
0000
,
1000
0000
0000
0000
,
0001
0000
0000
0000
,
1000
0000
0000
0000
,
0100
0000
0000
0000
,
0010
0000
0000
0000
,
0001
0000
0000
0000
,
1000
0000
0000
0000
,
0001
0000
0000
0000
,
0100
0000
0000
0000
,
0010
0000
0000
0000
,
1000
0000
0000
0000
,
0010
0000
0000
0000
,
0100
0000
0000
0000
,
0001
0000
0000
0000
,
0010
0000
0000
0000
,
0100
0000
0000
0000
,
1000
0000
0000
0000
,
0010
0000
0000
0000
,
0100
0000
0000
0000
,
0001
0000
0000
0000
,
1000
0000
0000
0000
,
0001
0000
0000
0000
,
0010
0000
0000
0000
,
0100
0100
1000
1000
,
0001
0001
0010
0010
,
0001
0100
0010
0100
,
0001
1000
0010
1000
,
0001
0100
0010
0100
,
0001
1000
0100
1000
,
0010
0100
0001
0100
,
0010
1000
0010
0100
,
0001
0000
0000
0000
;
