#TITLE:ALIVE;
#SUBTITLE:;
#ARTIST:REDALiCE;
#TITLETRANSLIT:;
#SUBTITLETRANSLIT:;
#ARTISTTRANSLIT:;
#GENRE:;
#CREDIT:;
#BANNER:ALIVE.png;
#BACKGROUND:ALIVE-bg.png;
#LYRICSPATH:;
#CDTITLE:;
#MUSIC:ALIVE.ogg;
#OFFSET:-5.816000;
#SAMPLESTART:39.048893;
#SAMPLELENGTH:15.000004;
#SELECTABLE:YES;
#BPMS:0.000000=170.000000
,4.000000=169.979996
;
#STOPS:
;
#BGCHANGES:;
#KEYSOUNDS:;
#ATTACKS:;

//---------------dance-single - ----------------
#NOTES:
     dance-single:
     :
     Beginner:
     2:
     0.108058,0.159017,0.000000,0.000000,0.000000,77.000000,77.000000,0.000000,0.000000,0.000000,0.000000,0.108058,0.159017,0.000000,0.000000,0.000000,77.000000,77.000000,0.000000,0.000000,0.000000,0.000000:
0000
0000
0000
0000
,
0000
0000
0000
0000
,
0000
0000
0000
0000
,
0000
0000
0000
0000
,
1000
0000
0000
0000
,
0100
0000
0000
0000
,
0010
0000
0000
0000
,
1000
0000
0000
0000
,
0001
0000
0000
0000
,
1000
0000
0000
0000
,
0100
0000
0000
0000
,
1000
0000
0000
0000
,
0010
0000
0000
0000
,
0100
0000
0000
0000
,
0001
0000
0000
0000
,
0000
0000
0000
0000
,
1000
0000
0000
0000
,
1000
0000
0000
0000
,
0010
0000
0010
0000
,
0010
0000
0000
0000
,
0100
0000
0100
0000
,
0100
0000
0000
0000
,
0001
0000
0000
0000
,
0001
0000
0000
0000
,
1000
0000
0000
0000
,
1000
0000
0000
0000
,
0100
0000
0000
0000
,
0100
0000
0000
0000
,
0010
0000
0000
0010
,
0000
0000
0001
0000
,
1000
0000
0001
0000
,
0100
0000
0000
0000
,
0010
0000
0000
0000
,
1000
0000
0000
0000
,
0001
0000
0000
0000
,
0100
0000
0000
0000
,
0001
0000
0000
0000
,
1000
0000
0000
0000
,
0001
0000
0000
0000
,
0010
0000
0000
0000
,
0100
0000
0000
0000
,
0100
0000
0000
0000
,
1000
0000
0000
0000
,
1000
0000
1000
0000
,
0001
0000
0001
0000
,
0100
0000
0100
0000
,
0010
0000
0010
0000
,
1000
0000
1000
0000
,
0001
0000
0000
0000
,
0001
0000
1000
0000
,
0001
0000
0010
0000
,
0001
0000
0000
0000
,
0100
0000
0100
0000
,
0010
0000
0010
0000
,
1000
0000
0000
0000
,
0001
0000
0100
0000
,
0001
0000
0000
0000
,
1000
0000
0010
0000
,
1000
0000
0000
0000
,
0001
0000
0100
0000
,
0001
0000
0000
0000
,
1000
0000
0000
0000
,
1000
0000
0000
0000
,
0001
0000
0000
0000
,
1000
0000
0000
0010
;

//---------------dance-single - ----------------
#NOTES:
     dance-single:
     :
     Easy:
     4:
     0.216116,0.286231,0.000000,0.009823,0.000000,154.000000,154.000000,0.000000,1.000000,0.000000,0.000000,0.216116,0.286231,0.000000,0.009823,0.000000,154.000000,154.000000,0.000000,1.000000,0.000000,0.000000:
0000
0000
0000
0000
,
0000
0000
0000
0000
,
0000
0000
0000
0000
,
0000
0000
0000
0000
,
0001
0000
0000
0000
,
1000
0000
0000
0000
,
0001
0001
0100
0000
,
0010
0010
1000
0000
,
0001
0001
1000
0000
,
0100
0100
1000
0000
,
0010
0010
1000
0000
,
0100
0100
0010
0000
,
0001
0001
1000
1000
,
0010
0000
0100
0000
,
0001
0000
0000
0000
,
0000
0000
0000
0000
,
1000
0000
0001
0000
,
1000
0000
0100
0000
,
1000
0000
0010
0000
,
0100
0000
0000
0000
,
0001
0000
0010
0000
,
0001
0000
0100
0000
,
0010
0000
1000
0000
,
0010
0000
0000
0000
,
0100
0100
0001
0000
,
0001
0001
1000
0000
,
1000
0000
1000
0000
,
0010
0000
0010
0000
,
0100
0100
0001
0000
,
0001
0001
1000
0000
,
1000
0000
1000
0000
,
0100
0000
0100
0000
,
0010
0000
0010
0000
,
0001
0000
0001
0000
,
0100
0000
0100
0000
,
0010
0000
0010
0000
,
1000
0000
1000
0000
,
0001
0000
0001
0000
,
0100
0000
0100
0000
,
0010
0000
0010
0000
,
1000
0000
1000
0000
,
0001
1000
0001
0000
,
0100
0010
0100
0000
,
0010
0100
0010
0000
,
1000
1000
0001
0001
,
1000
1000
0001
0001
,
0100
0100
0010
0010
,
0100
0100
0010
0010
,
2000
0000
0000
0000
,
3001
0001
1000
0000
,
0100
0100
0010
0000
,
0001
0001
1000
0000
,
0001
0001
1000
0000
,
0100
0100
1000
0000
,
0010
0010
0100
0000
,
0001
0001
1000
0000
,
0001
0001
0010
0000
,
0100
1000
0100
0000
,
1000
0001
1000
0000
,
0001
0010
0001
0000
,
0100
0010
0100
0000
,
0010
1000
0010
0000
,
1000
0001
1000
0000
,
0001
0100
0001
0000
,
1000
0010
1000
0100
;

//---------------dance-single - ----------------
#NOTES:
     dance-single:
     :
     Medium:
     9:
     0.348032,0.349838,0.078588,0.009823,0.000000,248.000000,240.000000,8.000000,1.000000,0.000000,0.000000,0.348032,0.349838,0.078588,0.009823,0.000000,248.000000,240.000000,8.000000,1.000000,0.000000,0.000000:
0000
0000
0000
0000
,
0000
0000
0000
0000
,
0000
0000
0000
0000
,
0000
0000
0000
0000
,
1000
0100
1000
0010
,
0100
0001
0010
0001
,
1000
1000
0010
0010
,
0100
0100
0001
0001
,
1000
1000
0001
0001
,
0100
0100
0010
0010
,
1000
0001
1000
0001
,
0100
0010
0100
0010
,
1000
0100
1000
0100
,
0010
0001
0010
0001
,
0200
0000
0000
0000
,
0000
0000
0000
0000
,
0310
1000
0010
1000
,
0100
0000
1000
0100
1000
0000
0010
0000
,
1000
0010
0100
0001
,
0010
0000
0001
0100
,
0010
0000
1000
0010
1000
0000
0100
0000
,
1000
0000
0000
0001
0000
0100
0001
0000
,
0010
0001
0100
0010
,
1000
1000
0100
0000
,
0010
0000
0001
0000
1000
0001
1000
0000
,
0100
0000
1000
0000
0010
0000
1000
0100
,
0000
0000
0100
1000
0000
0100
1000
0000
,
0001
0100
0001
0010
,
0001
1000
0001
0000
0100
0000
0010
0000
,
1000
0000
0010
0100
0010
0000
0100
0000
,
0001
1000
0001
1000
,
0010
0100
0001
0010
,
0001
0001
1000
0000
,
0100
1000
0100
0010
,
0011
0001
0100
0000
,
1000
0100
0001
0100
,
1100
1000
0010
0000
,
0001
0010
1000
0100
,
0011
0001
0100
0000
,
0010
1000
0100
1000
,
0001
0001
0100
0100
,
0010
0010
1000
1000
,
0100
0100
0010
0010
,
0001
0001
1000
1000
,
0001
1000
0001
0000
1000
0010
1000
0000
,
0010
0100
0001
0010
,
0001
1000
0100
1000
,
0010
0000
0100
0001
0100
0000
0010
1000
,
0010
0000
0000
0000
,
0001
1000
1001
0001
,
0100
0010
1000
0100
,
1000
0100
1100
0100
,
0010
0001
0011
0001
,
0100
0010
1000
0010
,
0100
0001
0010
0001
,
1000
0100
1000
0010
,
0100
0001
0100
0010
,
1000
1100
0100
0010
,
0001
1000
0001
0100
,
0110
0010
1000
0100
,
1000
0001
0010
0001
,
0100
0010
0100
0000
0010
0000
1000
0000
,
0100
1000
0001
0010
,
0001
0100
0010
0100
,
0001
0000
0000
1000
0001
1000
0001
0000
;

//---------------dance-single - ----------------
#NOTES:
     dance-single:
     :
     Hard:
     13:
     0.607652,0.673031,0.343822,0.275057,0.181734,433.000000,398.000000,35.000000,28.000000,0.000000,0.000000,0.607652,0.673031,0.343822,0.275057,0.181734,433.000000,398.000000,35.000000,28.000000,0.000000,0.000000:
// measure 0
0000
0000
0000
0000
,  // measure 1
0000
0000
0000
0000
,  // measure 2
0000
0000
0000
0000
,  // measure 3
0000
0000
0000
0000
,  // measure 4
1000
0010
0000
0010
0100
0001
0010
0010
,  // measure 5
0001
0100
0010
1000
0001
0010
0100
1000
,  // measure 6
0001
0000
0001
0000
0100
0001
0000
0100
1000
0000
0100
0001
0000
0100
0010
0000
,  // measure 7
2000
0000
3001
0100
0010
0000
0010
1000
,  // measure 8
0001
0000
1000
0001
1000
0000
0000
0000
0010
0000
0100
0000
0001
0000
0010
0000
,  // measure 9
0100
1000
0100
0000
0010
0001
0010
0000
0100
1000
0100
0000
0020
0000
0000
0000
,  // measure 10
0031
0000
0010
0000
0100
1000
0000
0100
0010
0000
0001
0100
0000
0001
1000
0000
,  // measure 11
0020
0000
0130
0001
1000
0000
0100
0010
,  // measure 12
0001
1000
0100
0010
0100
1000
0001
0100
,  // measure 13
0020
0000
0030
1000
0001
0100
0010
0000
,  // measure 14
1001
0000
0000
0000
,  // measure 15
0000
0000
0000
0000
,  // measure 16
0001
1000
1000
0010
0100
0001
1000
0000
,  // measure 17
1010
0000
0000
0010
0100
0000
0000
0100
0001
0000
0010
0000
0001
0000
0000
0000
,  // measure 18
0100
0000
0010
0000
1000
0000
0100
0000
1000
0000
0000
0001
0000
0000
0001
0000
,  // measure 19
0010
0000
0001
0100
0000
0010
1000
0001
,  // measure 20
1000
0000
0010
0100
0010
0000
0001
0000
0010
0000
0100
0000
0010
0000
0000
0000
,  // measure 21
0100
0000
0000
0100
0001
0000
0000
0001
1000
0000
1000
0000
0010
0000
0000
0000
,  // measure 22
0100
0001
0010
0100
1000
0000
1000
0000
,  // measure 23
1010
0000
0000
0000
0010
0000
0100
0001
0000
1000
0001
0000
0100
0000
0001
0000
,  // measure 24
1000
0010
0100
0001
0000
0001
0100
0010
,  // measure 25
0100
0001
1000
0010
2000
0000
3001
0100
,  // measure 26
0200
0000
0301
0002
0000
1003
2000
0000
,  // measure 27
3010
0000
0100
0100
0000
0001
1000
0010
,  // measure 28
1000
0001
0100
0010
0000
1000
0001
2000
,  // measure 29
0000
3001
0010
1000
0020
0000
0031
0100
,  // measure 30
0010
0000
1000
0100
0000
0100
0001
0000
,  // measure 31
0010
0100
1000
0100
0010
0001
1000
0100
,  // measure 32
0010
0100
0010
0000
0100
0000
2000
0000
0000
0000
3010
0000
1000
0000
0001
0000
,  // measure 33
1000
0000
0010
0000
0100
0000
0001
0000
0000
0000
0100
0000
0010
0000
1000
0010
,  // measure 34
1000
0002
0000
0203
0000
0310
1000
0001
,  // measure 35
0010
0000
0001
0000
0000
0000
2001
0000
0000
0000
3001
0000
0010
0100
0010
0000
,  // measure 36
0001
0100
0000
0101
0000
0001
1000
0010
,  // measure 37
1000
0000
0001
0000
0010
0000
0100
0000
0010
0000
0001
0000
0100
0000
0010
1000
,  // measure 38
0010
0200
0000
0301
0010
0001
0100
0010
,  // measure 39
1000
0000
0200
0000
0000
0000
2300
0000
0000
0000
3001
0000
0010
0100
0010
0000
,  // measure 40
0100
0001
0100
0000
0100
1000
0100
0100
,  // measure 41
0010
0000
1000
0000
0010
0000
0000
0000
0100
0000
1000
0000
0010
0000
0100
0001
,  // measure 42
0100
0010
1000
0000
0001
0010
1000
0000
,  // measure 43
1000
0010
0001
0000
0100
0001
1000
0010
,  // measure 44
1010
1010
0110
0101
,  // measure 45
0011
0011
0101
1001
,  // measure 46
1100
0110
0011
0110
,  // measure 47
1000
0100
0010
0001
0100
0010
1000
0100
,  // measure 48
1000
0001
0000
0000
0000
0000
0000
0000
,  // measure 49
1001
0000
0110
0000
1001
0000
0010
0100
,  // measure 50
0001
0000
0100
0000
0000
0000
1000
0000
0100
0000
0001
0000
0010
1000
0010
0000
,  // measure 51
0001
0010
0001
0000
0020
0000
0000
0000
0130
1000
0100
0000
0020
0000
0000
0000
,  // measure 52
0130
0010
0100
0000
0001
0000
0100
0000
1000
0010
1000
0000
0002
0000
0003
0000
,  // measure 53
1001
0000
1010
0000
0100
0100
0001
1000
,  // measure 54
0000
0010
0010
0100
0001
0010
0200
0000
,  // measure 55
0310
0001
0010
0000
0002
0000
0000
0000
1003
0100
1000
0000
0200
0000
0300
0000
,  // measure 56
2002
0000
0000
0000
3000
0000
1003
0010
1000
0000
0010
0000
0100
0000
0000
0000
,  // measure 57
0101
0101
0011
0011
,  // measure 58
1100
1100
1010
1010
,  // measure 59
0100
0001
0010
1000
0010
0001
0100
0000
,  // measure 60
1000
0100
0010
1000
0010
0001
0010
0000
,  // measure 61
1001
0000
0110
0000
0010
0010
0100
0100
,  // measure 62
0000
0001
1000
0010
1000
0001
0020
0000
,  // measure 63
0031
0000
1000
0001
1000
0000
0000
0000
0100
0000
0010
0100
0010
0000
0000
0000
,  // measure 64
0021
0000
0000
0000
0030
0000
0001
1000
0001
0000
1000
0000
2100
0000
0000
0000
,  // measure 65
0000
3000
0000
0000
;

//---------------dance-single - ----------------
#NOTES:
     dance-single:
     :
     Challenge:
     15:
     0.726937,0.833276,0.491174,0.314351,0.486262,518.000000,468.000000,50.000000,32.000000,0.000000,0.000000,0.726937,0.833276,0.491174,0.314351,0.486262,518.000000,468.000000,50.000000,32.000000,0.000000,0.000000:
// measure 0
0000
0000
0000
0000
,  // measure 1
0000
0000
0000
0000
,  // measure 2
0000
0000
0000
0000
,  // measure 3
0000
0000
0000
0000
,  // measure 4
1000
0000
0010
0000
0000
0000
0010
0000
0100
0000
0001
0000
1000
0010
1000
0010
,  // measure 5
1000
0000
0010
0000
1000
0100
1000
0000
0010
0100
0000
0100
0001
0000
1000
0000
,  // measure 6
0001
0000
0100
0000
0001
0010
0000
0001
0100
0000
0010
1000
0000
0010
0100
0000
,  // measure 7
0001
0000
1000
0000
0100
0001
0100
0000
1000
0010
0000
0010
1000
0000
0001
0100
,  // measure 8
0001
0000
0010
0001
0010
0000
0100
1000
0000
0100
0010
0000
0001
0000
1000
0000
,  // measure 9
0100
0010
0001
0000
0010
0100
1000
0000
0100
0010
0001
0000
1002
0000
0000
0000
,  // measure 10
1003
0000
0100
0000
0010
0001
0000
0010
0100
0000
1000
0100
0000
0010
0001
0000
,  // measure 11
0021
0000
0000
0000
0031
1000
0001
0000
1000
0010
0000
0100
0010
0000
1000
0001
,  // measure 12
1000
0001
0010
0100
0010
0001
1000
0010
,  // measure 13
0100
0001
0100
0001
0100
0001
0100
0001
1000
0001
1000
0001
1000
0001
1000
0002
,  // measure 14
2000
0000
0000
0000
,  // measure 15
0000
0000
0000
3003
,  // measure 16
1000
0000
0001
0100
0001
0000
0010
0000
0001
0000
0100
0000
0010
0000
0000
0000
,  // measure 17
1010
0000
0000
0010
0100
0000
0000
0100
0001
0000
0100
0000
1100
0000
0000
0000
,  // measure 18
0100
0000
0010
0000
1000
0000
0010
0000
0100
0000
0000
1001
0000
0000
0010
0000
,  // measure 19
0110
0000
0100
0001
0000
0001
0010
0100
,  // measure 20
1000
0000
0001
0010
0001
0000
0100
0000
0010
0000
0001
0000
0011
0000
0000
0000
,  // measure 21
1010
0000
0000
1000
0001
0000
0000
0001
1000
0000
1000
0000
0020
0000
0000
0000
,  // measure 22
0130
0001
0010
0100
2000
0000
3010
0000
,  // measure 23
0101
0000
0000
0000
1000
0000
0001
0100
0000
0001
0100
0000
0010
0000
1000
0000
,  // measure 24
0001
0000
0100
0000
0010
0000
1000
0000
0000
0000
0001
0000
0100
0000
0010
0100
,  // measure 25
0010
1000
0100
1000
0001
0001
0100
0200
,  // measure 26
0000
0300
0010
0120
0000
1030
2001
0000
,  // measure 27
3010
0000
0100
0201
0000
0301
1000
0010
,  // measure 28
1000
1000
0100
0010
0000
0100
1000
0200
,  // measure 29
0000
0301
0100
1000
0020
0000
0130
1010
,  // measure 30
0000
0000
0001
0110
0000
1000
0110
0000
,  // measure 31
0001
0000
0010
0000
0100
0000
1000
0001
1000
0000
0100
0000
0010
0000
0001
0000
,  // measure 32
0100
0010
0100
0000
0001
0000
2001
0000
0000
0000
3010
0000
1000
0000
0001
0000
,  // measure 33
0100
0001
0100
0000
0010
0000
1000
0000
0100
0000
0010
0000
1000
0000
0010
0001
,  // measure 34
0010
0002
0000
0203
0000
0310
1000
0001
,  // measure 35
0010
0001
0010
0000
0000
0000
0210
0000
0000
0000
1300
0000
0100
1000
0001
1000
,  // measure 36
0100
0010
0000
0011
0000
0001
1000
0010
,  // measure 37
1000
0001
1000
0000
0010
0000
0100
0000
0010
0000
0001
0000
0010
0000
1000
0001
,  // measure 38
0010
0002
0000
0103
0010
0001
0010
0100
,  // measure 39
0001
0000
0100
0000
0000
0000
0201
0000
0000
0000
0301
0000
1000
0100
1000
0100
,  // measure 40
1000
0010
1000
0001
0100
0010
0001
0010
,  // measure 41
0100
0000
0001
0000
1000
0000
0001
0000
0100
0000
0001
0000
0010
0000
0100
1000
,  // measure 42
0100
0001
0100
0000
1000
0010
0100
0001
,  // measure 43
1000
0000
0001
0000
0100
0000
0001
0000
0010
0000
0001
0000
1000
0100
1000
0000
,  // measure 44
1001
0110
1001
0110
,  // measure 45
1100
0101
0011
1010
,  // measure 46
1001
0011
0110
1100
,  // measure 47
1000
0001
1000
0001
1000
0001
1000
0001
0100
0010
0100
0010
0100
0010
0100
0010
,  // measure 48
0100
1001
0000
0000
0000
0000
0000
0000
,  // measure 49
0110
0000
1001
0000
0110
0000
0010
0100
,  // measure 50
0001
0000
0001
0000
1000
0000
0010
0000
0100
0001
0100
0000
0001
1000
0001
0000
,  // measure 51
0010
0100
0010
0100
0020
0000
0000
0000
0130
1000
0100
1000
0100
0000
0000
0000
,  // measure 52
1000
0100
1000
0100
0010
0001
0010
0001
0100
0010
0100
0010
0200
0000
0300
0000
,  // measure 53
1001
0000
0110
0000
0010
0010
1000
0101
,  // measure 54
0000
0010
1000
0001
1000
0100
0020
0000
,  // measure 55
0031
0100
0010
0100
0002
0000
0000
0000
1003
0010
0100
0010
2000
0000
0000
0000
,  // measure 56
0002
0000
0000
0000
3003
0000
0100
0001
1000
0000
0010
0000
1000
0000
0000
0000
,  // measure 57
0011
0011
1100
1100
,  // measure 58
1001
0011
0110
1100
,  // measure 59
1000
0010
1000
0010
2000
0000
0000
0000
3010
0100
0010
0100
0002
0000
0000
0000
,  // measure 60
0103
0001
0100
0001
0100
0000
0010
0000
1000
0100
1000
0100
2000
0000
3000
0000
,  // measure 61
1001
0000
0000
0000
0110
0000
0000
0000
0001
0100
0010
0000
1000
0000
1001
0000
,  // measure 62
0000
0001
0100
0010
0001
0010
0200
0000
,  // measure 63
0301
1000
0001
1000
0020
0000
0000
0000
0130
0001
0100
0001
1000
0001
1000
0001
,  // measure 64
0020
0000
0000
0000
0000
0000
0031
1000
0100
0000
1000
0000
2200
0000
0000
0000
,  // measure 65
0000
3300
0000
0000
;
