#TITLE:A Geisha's Dream Ruffage Remix;
#SUBTITLE:;
#ARTIST:NAOKI feat. SMiLE.dk;
#TITLETRANSLIT:;
#SUBTITLETRANSLIT:;
#ARTISTTRANSLIT:;
#GENRE:;
#CREDIT:;
#BANNER:A Geisha's Dream (Ruffage Remix).png;
#BACKGROUND:A Geisha's Dream (Ruffage Remix)-bg.png;
#LYRICSPATH:;
#CDTITLE:;
#MUSIC:A Geisha's Dream (Ruffage Remix).mp3;
#OFFSET:1.659000;
#SAMPLESTART:29.180000;
#SAMPLELENGTH:15.000000;
#LASTBEATHINT:1.525645;
#SELECTABLE:YES;
#BPMS:0.000000=140.000000
;
#STOPS:
;
#BGCHANGES:;
#KEYSOUNDS:;
#ATTACKS:;

//---------------dance-single - ----------------
#NOTES:
     dance-single:
     :
     Hard:
     11:
     0.497023,0.521170,0.103156,0.778356,0.131289,371.000000,360.000000,11.000000,83.000000,0.000000,0.000000,0.497023,0.521170,0.103156,0.778356,0.131289,371.000000,360.000000,11.000000,83.000000,0.000000,0.000000:
// measure 0
0000
0000
0000
0000
,  // measure 1
0000
0000
0000
0000
,  // measure 2
0000
0000
0000
0000
,  // measure 3
0000
0000
0000
0000
,  // measure 4
0000
0000
0000
0000
,  // measure 5
0000
0000
0000
0000
,  // measure 6
2001
0000
3001
0100
0020
0000
1030
0100
,  // measure 7
0002
0000
0203
0000
2300
0000
3010
0100
,  // measure 8
0002
0000
0013
0001
0200
0000
0310
1000
,  // measure 9
0200
0000
0000
0000
0320
0000
0000
0000
0031
1000
0000
0001
1000
0000
0000
0000
,  // measure 10
1020
0000
0230
0000
0301
1000
0001
0100
,  // measure 11
0020
0000
2030
0000
3200
0000
0310
0001
,  // measure 12
2000
0000
3100
1000
0020
0000
0230
0000
,  // measure 13
0301
0010
1000
0010
0001
0000
0100
0010
,  // measure 14
1000
0100
0000
0000
0100
0010
0000
0000
0010
0001
0000
0000
0001
0000
1000
0000
,  // measure 15
0020
0000
0130
0001
2000
0000
3100
0001
,  // measure 16
0200
0000
1300
0010
0002
0000
0013
1000
,  // measure 17
0100
0000
0010
0000
0001
0000
0100
0000
0010
1000
0000
0010
1000
0000
0001
0000
,  // measure 18
2000
3200
0302
0203
,  // measure 19
0320
0000
0031
0100
2000
0000
3100
0000
,  // measure 20
0002
0010
0013
0100
2000
0001
3001
0100
,  // measure 21
0010
1000
0010
0100
0001
0010
0100
1000
,  // measure 22
1002
0000
0203
0010
0320
0000
2030
0000
,  // measure 23
3020
0000
0130
0001
0020
0000
0230
0000
,  // measure 24
1300
0010
1000
0001
0100
0001
0010
0000
,  // measure 25
0001
0000
1000
0000
0010
0000
1000
0000
0100
0000
0010
0000
0001
0010
0000
0001
,  // measure 26
0010
0000
0110
0000
0100
0001
0100
1000
,  // measure 27
0100
0000
0011
0000
0001
0100
1000
0000
,  // measure 28
0100
0001
0001
0000
0100
0001
0001
0010
,  // measure 29
0100
0100
0001
0000
0100
0100
1000
0010
,  // measure 30
0200
0000
0301
1000
0020
0000
1030
0001
,  // measure 31
0200
0000
0310
1000
0002
0000
2003
0000
,  // measure 32
3020
0000
0130
0001
2000
0000
3100
0001
,  // measure 33
0100
0010
0001
0010
0200
0000
1300
0001
,  // measure 34
0200
0000
0310
1000
0020
0000
0130
0001
,  // measure 35
0100
0010
1000
0010
0200
0000
0301
0010
,  // measure 36
0002
0000
1003
0001
2000
0000
3010
0100
,  // measure 37
0010
0000
0100
0000
0001
0000
0100
0000
0001
0100
0000
0001
0100
0000
0010
0000
,  // measure 38
2000
0000
3002
0000
0103
0001
0010
0100
,  // measure 39
1000
0000
1001
0000
0101
0000
0100
0010
,  // measure 40
2000
0000
3100
0001
0200
0000
2300
0000
,  // measure 41
3010
0010
0100
0010
0002
0010
0013
1000
,  // measure 42
1000
0001
0000
0000
0001
0100
0000
0000
0100
0010
0000
0000
0010
0000
1000
0000
,  // measure 43
0200
0000
1300
0001
0200
0000
0310
1000
,  // measure 44
0002
0000
0103
0001
0020
0000
0031
0010
,  // measure 45
0100
0000
1000
0000
0100
0000
0010
0000
0001
0010
0000
0100
0010
0000
0100
0000
,  // measure 46
2000
0100
3200
0000
0320
0000
0032
0000
,  // measure 47
2003
0010
3010
0100
0010
0100
0010
0000
,  // measure 48
2000
0001
3001
0100
0002
1000
1003
0100
,  // measure 49
0010
0100
0001
0100
0010
0100
1000
0000
,  // measure 50
1020
0230
0320
2030
,  // measure 51
3002
0100
0103
0010
2000
0100
3200
0000
,  // measure 52
0320
0001
0031
0100
0020
1000
1030
0010
,  // measure 53
0100
0000
0001
0000
0010
0000
0001
0000
1000
0100
0000
1000
0100
0000
1000
0000
,  // measure 54
0001
0010
0000
0000
0010
1000
0000
0000
1000
0100
0000
0000
0100
0001
0000
0000
,  // measure 55
0001
1000
0000
0000
1000
0010
0000
0000
0010
0000
0100
0000
0110
0000
0000
0000
,  // measure 56
2002
0000
3003
0010
0022
0000
0033
0010
,  // measure 57
0100
1000
0100
0010
0001
1000
0001
0100
,  // measure 58
0010
1000
0000
0000
1000
0001
0000
0000
0001
0100
0000
0000
0100
0010
0000
0000
,  // measure 59
0010
1000
0002
0000
0203
0000
0320
0000
,  // measure 60
0130
0001
0100
0001
1000
0010
1000
0010
,  // measure 61
0200
0000
0000
0300
;

//---------------dance-single - ----------------
#NOTES:
     dance-single:
     :
     Beginner:
     2:
     0.111194,0.143011,0.000000,0.112533,0.000000,83.000000,83.000000,0.000000,12.000000,0.000000,0.000000,0.111194,0.143011,0.000000,0.112533,0.000000,83.000000,83.000000,0.000000,12.000000,0.000000,0.000000:
0000
0000
0000
0000
,
0000
0000
0000
0000
,
0000
0000
0000
0000
,
0000
0000
0000
0000
,
0000
0000
0000
0000
,
0000
0000
0000
0000
,
1000
0000
1000
0000
,
0010
0000
0010
0000
,
0100
0000
0100
0000
,
0001
0000
0001
0000
,
1000
0000
1000
0000
,
0100
0000
0100
0000
,
0010
0000
0010
0000
,
0001
0000
1000
0000
,
0001
0000
0100
0000
,
0100
0000
0010
0000
,
0010
0000
1000
0000
,
1000
0000
0000
0000
,
0001
0000
1000
0000
,
0001
0000
0000
0000
,
0200
0000
0320
0000
,
2030
0000
3000
0000
,
0002
0000
0203
0000
,
0302
0000
0003
0000
,
2000
0000
0000
0000
,
3002
0000
0000
0000
,
0203
0000
0000
0000
,
0320
0000
0000
0000
,
2030
0000
0000
0000
,
3002
0000
0000
0000
,
0103
0000
0100
0000
,
0010
0000
0010
0000
,
1000
0000
0000
0000
,
0001
0000
0000
0000
,
0100
0000
0100
0000
,
0010
0000
0000
0000
,
1000
0000
1000
0000
,
0001
0000
0000
0000
,
0001
0000
0000
0000
,
0000
0000
0000
0000
,
0001
0000
0000
0000
,
1000
0000
0000
0000
,
0010
0000
0010
0000
,
0100
0000
0100
0000
,
0001
0000
0000
0000
,
1000
0000
0000
0000
,
1000
0000
1000
0000
,
0010
0000
0000
0000
,
0010
0000
0100
0000
,
0010
0000
0000
0000
,
1000
0000
0000
0000
,
0001
0000
1000
0000
,
0001
0000
0000
0000
,
1000
0000
0010
0000
,
1000
0000
0100
0000
,
1000
0000
0000
0000
,
0001
0000
0010
0000
,
0001
0000
0000
0000
,
0100
0000
0010
0000
,
0100
0000
0000
0000
,
0010
0000
1000
0000
,
0010
0000
0000
0000
;

//---------------dance-single - ----------------
#NOTES:
     dance-single:
     :
     Easy:
     4:
     0.200953,0.259530,0.009378,0.187556,0.000000,150.000000,149.000000,1.000000,20.000000,0.000000,0.000000,0.200953,0.259530,0.009378,0.187556,0.000000,150.000000,149.000000,1.000000,20.000000,0.000000,0.000000:
0000
0000
0000
0000
,
0000
0000
0000
0000
,
0000
0000
0000
0000
,
0000
0000
0000
0000
,
0000
0000
0000
0000
,
0000
0000
0000
0000
,
0001
0010
0001
0000
,
0100
0010
0100
0000
,
0010
1000
0010
0000
,
2000
0000
3002
0000
,
0103
0100
0100
0000
,
0010
0010
0010
0000
,
1000
0000
1000
0000
,
0001
0001
0001
0000
,
0100
0000
0010
0000
,
1000
0000
0010
0000
,
0100
0000
0001
0000
,
0010
0000
0001
0000
,
2000
0000
3200
0000
,
0320
0000
0032
0000
,
2003
0000
3020
0000
,
0130
0100
0002
0000
,
1003
1000
0010
0000
,
0100
0100
0001
0000
,
2000
0000
3002
0000
,
0013
0010
0100
0000
,
1000
0000
1000
0000
,
0001
0000
0001
0000
,
0100
0000
0100
0000
,
0010
0000
0010
0000
,
1000
0000
1000
0000
,
0001
0000
0001
0000
,
0100
0000
0100
0000
,
0010
0010
0010
0000
,
1000
0000
0001
0000
,
1000
1000
1000
0000
,
0100
0000
0010
0000
,
0100
0100
0100
0000
,
0010
0001
0010
0000
,
0001
1000
0001
0000
,
1000
0100
1000
0000
,
0010
0100
0010
0000
,
1000
0100
0001
0000
,
0100
1000
0010
0000
,
0001
0010
1000
0000
,
2002
0000
0000
3003
,
0100
0100
0010
0010
,
1000
0000
0001
1000
,
0001
0000
0100
0000
,
0010
1000
0100
0000
,
1000
0001
0010
0001
,
0100
0010
1000
0010
,
0200
0000
0302
0000
,
1003
0010
2000
0000
,
3001
0100
0010
1000
,
0010
0100
0001
0010
,
0002
0000
2003
0000
,
3100
0010
0001
0000
,
1000
0001
0100
0001
,
0010
0001
0100
0010
,
2000
0000
3200
0000
,
0310
0000
0010
0000
;

//---------------dance-single - ----------------
#NOTES:
     dance-single:
     :
     Medium:
     8:
     0.300089,0.374877,0.056267,0.140667,0.000000,224.000000,218.000000,6.000000,15.000000,0.000000,0.000000,0.300089,0.374877,0.056267,0.140667,0.000000,224.000000,218.000000,6.000000,15.000000,0.000000,0.000000:
0000
0000
0000
0000
,
0000
0000
0000
0000
,
0000
0000
0000
0000
,
0000
0000
0000
0000
,
0000
0000
0000
0000
,
0000
0000
0000
0000
,
1000
0000
0001
1000
0001
0000
0100
0000
,
0010
1000
0200
0310
,
0001
0000
0010
0001
0020
0000
0230
0000
,
1300
0000
0001
1000
0002
0000
0000
0000
,
0103
0010
1000
0010
,
0100
0000
0101
0000
0001
0000
1000
0001
,
1000
1000
1010
0010
,
0100
0010
0100
0000
0010
0000
1000
0000
,
1000
1000
1001
0001
,
0100
0010
1000
0010
,
0100
0001
0010
0100
,
2000
0000
3001
0100
,
0001
0010
0100
1000
,
0100
0000
0010
0001
0010
0000
0001
0000
,
2000
0000
3002
0000
,
0103
0010
2000
0000
,
3001
0010
0001
0100
,
0010
0000
1000
0100
1000
0000
0001
0000
,
0200
0000
0320
0000
,
1030
0001
1000
0000
,
0001
0010
0100
1000
,
0001
0100
0010
1000
,
1001
0001
0100
0010
,
0110
0100
0001
0010
,
0200
0000
1300
0000
0010
0000
1000
0100
,
1000
0000
0001
0000
0100
0000
0010
1000
,
0010
0100
0001
1000
,
0001
0100
0010
0000
,
0100
0001
1000
0010
,
1000
0001
0100
0001
,
0010
0100
1000
0001
,
1000
0010
0100
0010
,
1000
0001
1000
0001
,
0100
0010
0100
0010
,
1000
0100
1000
0100
,
0010
0001
0010
0000
0001
0000
0100
0000
,
0010
1000
0010
0100
,
0001
0010
0001
1000
,
0100
1000
0010
0100
,
0001
0000
0001
0000
1000
0001
1000
0000
,
0010
0100
0010
1000
,
0001
0100
0001
0010
,
0001
1000
0100
1000
,
0010
0100
0001
0010
,
0100
1000
0010
1000
,
0001
0100
0010
0100
,
0001
1000
0001
0000
1000
0010
1000
0000
,
0010
0100
0001
0000
,
1000
0000
1000
0000
,
0010
0000
0010
0000
,
0200
0300
0002
0003
,
1000
0010
1000
0100
,
0010
0001
1000
0100
,
1000
0010
0100
0010
,
0200
0000
0302
0000
,
1003
0010
0110
0000
;

//---------------dance-single - ----------------
#NOTES:
     dance-single:
     :
     Challenge:
     14:
     0.704673,0.781756,0.150045,0.121911,0.501711,526.000000,510.000000,16.000000,13.000000,0.000000,0.000000,0.704673,0.781756,0.150045,0.121911,0.501711,526.000000,510.000000,16.000000,13.000000,0.000000,0.000000:
0000
0000
0000
0000
,
0000
0000
0000
0000
,
0000
0000
0000
0000
,
0000
0000
0000
0000
,
0000
0000
0000
0000
,
0000
0000
0000
0000
,
1010
0000
0000
0000
1000
0000
0100
0000
0010
0000
0001
1000
0001
0000
0100
0000
,
0110
0000
0000
0000
1010
0000
0000
0000
1100
0000
0000
0100
0001
0000
0100
0000
,
1000
0000
0001
0100
1000
0000
0100
0001
,
0010
0000
1000
0000
0010
0000
0001
0000
0100
0010
0000
1000
0010
1000
0001
0100
,
0002
0000
0000
0000
2003
0000
0000
0000
3010
0100
0010
0000
0100
0000
0001
0000
,
1000
0000
0010
0000
1000
0000
0100
0000
0010
0000
0001
0100
0001
0000
1000
0000
,
2001
0000
0000
0000
3001
0000
0010
0000
0100
0000
1000
0001
1000
0000
0100
0000
,
0010
0000
0100
0001
0100
0000
0010
0000
0001
0000
1000
0001
1000
0000
0100
0000
,
0010
0000
0001
0100
0001
0000
1000
0000
0100
0010
0100
0000
0001
0000
0100
0000
,
1000
0000
0001
0000
0100
0000
0001
0000
0010
0000
0001
1000
0001
0000
1000
0000
,
0010
0000
0100
0001
0010
0100
1000
0001
,
0010
0000
0001
0000
0100
0000
0010
0000
1000
0001
0000
1000
0001
0000
0100
0000
,
0010
1000
0000
0000
1000
0100
0000
0000
0100
0001
0000
0000
0001
0010
0000
0000
,
0010
1000
0000
0000
1000
0000
0010
0000
2000
0000
0000
0000
3002
0000
0000
0000
,
0103
0010
1000
0100
0010
0001
0100
0010
,
1000
0000
0001
0000
1000
0000
0010
0000
1000
0000
0001
0100
0001
0000
0000
0000
,
0010
0001
0000
0000
0001
0100
0000
0000
0100
0010
0000
0000
0010
0100
0000
0000
,
0100
1000
0000
0000
1000
0000
0100
0000
0001
0000
0000
0000
1010
0000
0000
0000
,
0010
0001
0010
1000
0100
1000
0010
0100
,
0001
0000
0010
0000
0100
0000
0010
1000
0010
0000
0100
0000
1000
0010
1000
0000
,
0001
0100
0001
0100
0010
0000
0100
0001
0000
0001
0100
0000
0001
0000
0010
0000
,
0100
1000
0100
1000
0100
0000
1000
0001
0000
0001
0100
0000
0010
0000
0010
0000
,
0100
1000
0100
0010
0100
0000
0001
0100
0000
0010
0100
0000
0001
0000
0100
0000
,
0010
1000
0100
1000
0100
0000
0100
0001
0000
0001
0100
0000
1000
0000
0010
0000
,
0210
0000
0000
0000
0301
0000
0010
0000
0001
0000
1000
0100
1000
0000
0001
0000
,
0100
0000
0010
0000
1000
0000
0010
0000
0100
0000
0001
1000
0001
0000
0100
0000
,
0120
0000
0000
0000
1030
0000
0100
0000
0010
0000
0001
0100
0001
0000
1000
0000
,
0010
0000
0100
0000
0010
0000
1000
0000
0001
0000
0100
0001
0100
0000
0010
0000
,
2010
0000
0000
0000
3100
0000
1000
0000
0001
0000
0100
0001
0010
0000
0100
0000
,
1000
0000
0010
0000
1000
0000
0100
0000
0010
0000
0001
0100
0001
0000
0010
0000
,
0002
0000
0000
0000
1003
0000
0010
0000
0100
0000
0001
1000
0010
0000
0100
0000
,
0001
0000
0010
0000
0100
0000
1000
0000
0001
0010
0000
0001
0010
0001
1000
0000
,
0010
1000
0010
0000
0100
0000
0001
0000
0010
0100
0010
0000
0100
0000
1000
0000
,
0001
0000
0001
0000
0100
0000
0010
0000
1000
0000
0100
1000
0100
0000
0001
0000
,
0100
0000
1000
0000
0010
0000
0100
0000
0001
0000
0010
0001
0100
0000
0010
0000
,
1000
0000
0100
0000
0010
0000
0001
0000
1001
0000
1000
0010
1000
0000
0001
0000
,
0100
0001
0000
0000
0001
0010
0000
0100
0010
0100
1000
0000
0001
0000
1000
0000
,
1001
0000
0000
0000
0010
0000
0010
0000
0100
0000
0010
1000
0001
0000
1000
0000
,
0020
0000
0130
0001
0020
0000
0031
1000
,
0010
0000
0010
0000
1000
0000
1000
0000
0001
0100
0010
0100
0001
0000
1000
0000
,
0010
0100
0010
0000
0100
0000
0000
0100
0001
0000
0010
0000
1000
0000
0010
0000
,
0001
1000
0001
0000
0010
0000
0001
0000
0100
0001
0100
0000
0010
0000
1000
0000
,
0001
0000
0100
0001
0010
0000
0001
0000
1000
0010
0100
0000
1000
0000
0100
0000
,
0001
0100
0010
0000
1000
0000
0001
0000
0100
0010
0100
0000
0010
0000
0010
0000
,
1000
0001
0100
0000
0010
0000
1000
0000
0001
0100
0010
0000
0100
0000
0001
0000
,
0010
0100
0010
0100
1000
0000
0001
0000
1000
0001
1000
0001
0010
0000
1000
0000
,
0010
0001
0010
0000
0100
0000
0010
1000
0010
0000
0001
0000
0100
0000
0010
0000
,
0100
0010
0100
0010
0001
0000
0010
0000
1000
0010
1000
0010
0001
0000
0010
0000
,
1000
0010
0100
0010
1000
0000
0001
0000
0100
0000
0001
0000
0011
0000
0001
0000
,
1000
0100
0010
0001
1000
0000
1001
0000
0001
0010
0100
1000
0001
0000
0001
0000
,
0100
0010
0100
0010
0100
0000
0010
0000
1000
0100
1000
0100
1000
0000
0010
0000
,
0100
0010
0001
0000
0010
0000
0100
0000
0001
0010
0100
0000
1000
0000
1000
0000
,
0010
0100
0010
0100
0001
0000
0010
0000
0001
0000
1000
0000
0100
0000
1000
0000
,
0010
0100
0001
0100
0010
0000
0010
0000
1000
0001
0100
0000
0001
0000
0010
0000
,
0100
1000
0001
0010
0001
0000
0010
0000
0001
0100
0010
0000
1010
0000
1001
0000
,
0001
0010
0100
1000
2200
0000
3300
0000
;
