#TITLE:255;
#SUBTITLE:;
#ARTIST:255;
#TITLETRANSLIT:;
#SUBTITLETRANSLIT:;
#ARTISTTRANSLIT:;
#GENRE:;
#CREDIT:;
#BANNER:;
#BACKGROUND:255-bg.png;
#LYRICSPATH:;
#CDTITLE:;
#MUSIC:255.ogg;
#OFFSET:-0.236000;
#SAMPLESTART:54.786388;
#SAMPLELENGTH:12.000000;
#SELECTABLE:YES;
#BPMS:0.000000=255.000000
,328.000000=127.500000
,356.000000=63.750000
,358.000000=255.000000
;
#STOPS:
;
#BGCHANGES:;
#KEYSOUNDS:;
#ATTACKS:;

//---------------dance-single - ----------------
#NOTES:
     dance-single:
     :
     Beginner:
     4:
     0.158035,0.282360,0.044607,0.008921,0.000000,124.000000,119.000000,5.000000,1.000000,0.000000,0.000000,0.158035,0.282360,0.044607,0.008921,0.000000,124.000000,119.000000,5.000000,1.000000,0.000000,0.000000:
0000
0000
0000
0000
,
0000
0000
0000
0000
,
0000
0000
0000
0000
,
0000
0000
0000
0000
,
0000
0000
0000
0000
,
0000
0000
0000
0000
,
0001
0000
0000
0000
,
1000
0000
0000
0000
,
0001
0000
0000
0000
,
1000
0000
0000
0000
,
0001
0000
0000
0000
,
1000
0000
0000
0000
,
0100
0000
0000
0000
,
1000
0000
0000
0000
,
0010
0000
0000
0000
,
1000
0000
0000
0000
,
0001
0000
0000
0000
,
1000
0000
0000
0000
,
1100
0000
0000
0000
,
0110
0000
0000
0000
,
0011
0000
0000
0000
,
1001
0000
0000
0000
,
1100
0000
0000
0000
,
0100
0000
0000
0000
,
0100
0000
0000
0000
,
0010
0000
0000
0000
,
0010
0000
0000
0000
,
0001
0000
0000
0000
,
0001
0000
0000
0000
,
1000
0000
0000
0000
,
1000
0000
0000
0000
,
0100
0000
0000
0000
,
0100
0000
0000
0000
,
0010
0000
0010
0000
,
0010
0000
0000
0000
,
0001
0000
0001
0000
,
0001
0000
0000
0000
,
1000
0000
1000
0000
,
1000
0000
0000
0000
,
0001
0000
0000
0000
,
0001
0000
0000
0000
,
0100
0000
0000
0000
,
0100
0000
0000
0000
,
0010
0000
0000
0000
,
0010
0000
0000
0000
,
1000
0000
0000
0000
,
1000
0000
0000
0000
,
0001
0000
0000
0000
,
0001
0000
0000
0000
,
0100
0000
0000
0000
,
0100
0000
0000
0000
,
0010
0000
0000
0000
,
1000
0000
0000
0000
,
0001
0000
0000
0000
,
1000
0000
0000
0000
,
0100
0000
0000
0000
,
1000
0000
0000
0000
,
0010
0000
0000
0000
,
1000
0000
0000
0000
,
0001
0000
0000
0000
,
0100
0000
0000
0000
,
0001
0000
0000
0000
,
0010
0000
0000
0000
,
0100
0000
0000
0000
,
1000
0000
0001
0000
,
1000
0000
0000
0000
,
0001
0000
0000
0000
,
0010
0000
0000
0000
,
0001
0000
0000
0000
,
0100
0000
0000
0000
,
0001
0000
0000
0000
,
1000
0000
0000
0000
,
0001
0000
0000
0000
,
0010
0000
0000
0000
,
0001
0000
0000
0000
,
1000
0000
0000
0000
,
0100
0000
0000
0000
,
1000
0000
0000
0000
,
0010
0000
0000
0000
,
0100
0000
0000
0000
,
0010
0000
0000
0000
,
1000
0000
0000
0000
,
0001
0000
1000
0000
,
0001
0000
1000
0000
,
0100
0000
1000
0000
,
0100
0000
0010
0000
,
0001
0000
1000
0000
,
0001
0000
1000
0000
,
0100
0000
1000
0000
,
0020
0000
0130
0000
,
0000
0000
0100
0000
,
0000
0000
0001
0000
,
0000
0000
0001
0000
,
0000
0000
1000
0000
,
1000
0000
0100
0000
,
0000
0000
0100
0000
,
0100
0000
0100
0000
,
0000
0000
0010
0000
,
0010
0000
0010
0000
,
0000
0000
0001
0000
,
0001
0000
0001
0000
,
0000
0000
1000
0000
,
1000
0000
1000
0000
,
0000
0000
0001
0000
,
0001
0000
0001
0000
,
0001
0000
0100
0000
;

//---------------dance-single - ----------------
#NOTES:
     dance-single:
     :
     Easy:
     9:
     0.363225,0.617579,0.062449,0.044607,0.000000,285.000000,278.000000,7.000000,5.000000,0.000000,0.000000,0.363225,0.617579,0.062449,0.044607,0.000000,285.000000,278.000000,7.000000,5.000000,0.000000,0.000000:
0000
0000
0000
0000
,
0000
0000
0000
0000
,
0000
0000
0000
0000
,
0000
0000
0000
0000
,
0000
0000
0000
0000
,
0000
0000
0000
0000
,
1000
0001
1000
0000
,
0001
1000
0001
0000
,
1000
0010
1000
0000
,
0010
1000
0010
0000
,
1000
0100
1000
0100
,
1000
1100
0000
0000
,
0001
0100
0001
0100
,
0001
0100
0001
0000
,
1000
0100
1000
0100
,
1000
0100
1000
0000
,
0010
0100
0010
0100
,
0010
0000
0000
0000
,
0100
0001
0100
0000
,
0001
1000
0001
1000
,
0001
0000
1000
0100
,
1000
0000
0010
0100
,
0010
0000
0000
0100
,
0000
0000
0001
0000
,
1000
0001
1000
0000
,
0001
1000
0001
0000
,
1000
0100
1000
0100
,
1000
0000
0000
0000
,
0010
0100
0010
0100
,
0010
0000
0000
0000
,
0100
0001
0100
0001
,
0100
0000
0000
0000
,
0001
0010
0001
0010
,
0001
0000
0000
0000
,
1000
0100
1000
0000
,
0000
0000
0000
0000
,
0100
1000
0100
0010
,
0001
0010
0000
0000
,
0100
1000
0100
0010
,
0001
0010
0000
0000
,
0100
1000
0001
0000
,
1000
0001
0100
0000
,
0001
0001
1000
0000
,
0100
0100
1000
0000
,
0010
0010
0100
0000
,
0001
0001
0010
0000
,
0100
0100
1000
0000
,
0001
0001
0100
0000
,
1000
1000
0100
0000
,
2002
0000
0000
3003
,
0010
0000
0010
0000
,
0100
0000
0100
0000
,
0001
0000
0001
0000
,
1000
0000
1000
0000
,
0100
0000
0100
0000
,
0010
0000
0010
0000
,
0001
0000
0001
0000
,
1000
0000
1000
0000
,
0100
0100
0100
0000
,
0010
0010
0010
0000
,
0001
0001
0001
0000
,
1000
1000
1000
0000
,
0100
0000
1000
0000
,
0100
0000
0010
0000
,
0001
0000
0010
0000
,
0100
0000
1000
0000
,
0100
0000
0010
0000
,
0001
0000
1000
0000
,
0001
0000
1000
0000
,
0001
1000
0001
0000
,
1000
0000
0100
1000
,
0100
0000
1000
0000
,
0010
0000
1000
0000
,
0010
1000
0010
0000
,
1000
0100
1000
0000
,
0001
0010
0001
0000
,
0100
0010
0100
0000
,
0010
0100
0010
0000
,
1000
0001
1000
0000
,
0001
1000
0001
0000
,
1000
0100
1000
0000
,
0100
1000
0100
0000
,
0010
0100
0001
0000
0100
0000
0010
0000
,
1000
1000
0001
0000
1001
0000
1000
0000
,
0100
1000
1100
0100
,
0010
0010
0001
0000
1001
0000
1000
0000
,
0100
0100
1000
0000
0100
0000
0010
0010
,
0100
1000
0001
1000
,
0001
0001
0010
0000
0011
0000
0001
0000
,
0200
0000
0310
0010
,
0010
0000
1000
0000
,
0001
0001
0001
0000
,
0100
0000
0010
0000
,
1000
0000
0001
0001
,
0001
0000
1000
0000
,
0100
0100
0100
0000
,
1000
0000
0010
0000
,
0100
0000
0010
0010
,
0010
0000
1000
0000
,
0001
0001
0001
0000
,
1000
0000
0100
0000
,
1000
0000
0100
0100
,
0100
0000
1000
0000
,
0010
0010
0010
0000
,
0100
0000
0001
1000
,
0001
2002
0000
0000
,
0000
0000
3003
0000
;

//---------------dance-single - ----------------
#NOTES:
     dance-single:
     :
     Medium:
     13:
     0.569690,1.045133,0.356853,0.035685,0.026764,447.000000,407.000000,40.000000,4.000000,0.000000,0.000000,0.569690,1.045133,0.356853,0.035685,0.026764,447.000000,407.000000,40.000000,4.000000,0.000000,0.000000:
0000
0000
0000
0000
,
0000
0000
0000
0000
,
0000
0000
0000
0000
,
0000
0000
0000
0000
,
0000
0000
0000
0000
,
0000
0000
0000
0000
,
0001
1000
0001
0100
,
0010
1000
0001
1000
,
0001
0100
0010
0100
,
0001
1000
0010
0000
,
1000
0010
0100
0010
,
1000
0001
0100
0001
,
0010
0001
1000
0001
,
0100
0001
0100
0000
0010
0000
1000
0000
,
0001
0100
0001
0100
,
0010
1000
0010
1000
,
0010
0100
0001
1000
,
0001
1000
0010
0100
,
0001
0001
1000
1000
,
0010
0010
0100
0100
,
0001
1000
0001
1000
,
0001
0100
0010
0100
,
0001
1000
0001
1000
,
0010
0000
0100
0001
,
1000
0001
1000
0010
,
0100
0010
0100
0010
,
1001
0010
0001
0010
,
0001
0010
0001
0010
,
1001
0010
1000
0010
,
1000
0010
1000
0010
,
0110
0001
0100
0001
,
0100
0001
0100
0001
,
1010
0100
0010
0100
,
0010
0100
0010
0100
,
0001
1000
0001
1000
,
0010
0100
0110
0000
,
0001
1000
0001
1000
,
0001
1000
0001
0000
0101
0000
0000
0000
,
1000
0010
1000
0010
,
0100
0010
0100
0000
0110
0000
0000
0000
,
0001
1000
0001
1000
,
0001
1000
0010
0100
,
0010
0100
0001
1000
,
0001
1000
0010
0001
,
0010
0001
0010
0001
,
0010
1000
0010
0000
,
0010
0100
0010
0100
,
0001
0100
0001
0000
1000
0000
0010
0000
,
0100
0010
0100
0000
0010
0100
0010
0000
,
1000
0000
0000
0000
,
0001
0100
0001
0100
,
0000
0000
0000
0000
0010
1000
0010
0000
,
1000
0010
1000
0000
,
0001
0100
0001
0100
,
0010
1000
0010
1000
,
0001
0001
0100
0001
,
1000
0001
0100
0010
,
1000
0001
1000
0010
,
0110
0100
0001
1000
,
1001
0000
0001
0000
0100
0010
0100
0010
,
0100
0010
0100
0010
,
0100
0010
1000
0001
,
1001
0001
1000
0010
,
0100
0000
0010
0000
1000
0001
1000
0001
,
0100
0100
0010
1000
,
0100
0010
0001
0010
,
0110
0000
1001
0000
,
1000
1000
1001
0000
,
0001
0100
0001
0000
,
1000
0010
1000
0000
,
0010
0100
0010
0000
0100
0000
0000
0000
,
0001
1000
0001
0000
,
1000
0001
1001
0000
,
1010
0000
0110
0000
,
0110
0100
0110
0010
,
0011
0001
1001
1000
,
1100
0100
0110
0010
,
0011
0000
1001
0000
1000
0001
1000
0000
,
0100
0010
1000
0010
,
0100
0010
0001
1000
,
0001
0100
0010
0100
,
0001
1000
0001
0100
,
0020
0000
0000
0000
0130
0000
0100
0100
,
0100
0000
0100
0000
0100
0001
0000
0100
0001
0000
1000
0000
0001
0000
0000
0000
,
1000
1000
1000
1000
0001
0000
0100
0001
,
0101
1010
0101
1001
,
1000
0010
0100
0001
0010
0100
0010
0001
,
0010
0100
0010
0001
1000
0001
0100
0001
,
1000
0100
1000
0000
0010
1000
0010
0000
0100
0001
0100
0000
0001
1000
0001
0000
,
2010
0000
3001
0100
,
0010
0100
0101
0000
,
0001
1000
0001
1000
,
1001
1001
1001
0000
,
0010
0000
0100
0010
,
0100
0010
0110
0000
,
1000
0100
1000
0100
,
0010
0001
0011
0000
,
0001
1000
0001
1000
,
0001
1000
1001
0000
,
0100
0010
1000
0100
,
0011
0001
0011
0010
,
0100
0000
1000
0000
0001
1000
0001
0000
,
1000
0010
1000
0000
0010
0000
0100
0000
,
0101
0000
1000
0001
,
1000
0001
1000
0000
0010
0000
0100
0000
,
0010
2002
0000
0000
,
0000
0000
3003
0000
;

//---------------dance-single - ----------------
#NOTES:
     dance-single:
     :
     Hard:
     16:
     0.885760,1.235157,0.553122,0.107056,0.107056,695.000000,633.000000,62.000000,12.000000,12.000000,0.000000,0.885760,1.235157,0.553122,0.107056,0.107056,695.000000,633.000000,62.000000,12.000000,12.000000,0.000000:
0000
0000
0000
0000
,
0000
0000
0000
0000
,
0000
0000
0000
0000
,
0000
0000
0000
0000
,
0000
0000
0000
0000
,
0000
0000
0000
0000
,
1000
0100
1000
0100
1000
0100
1000
0000
,
0001
0100
0001
0100
0001
0100
0001
0000
,
0100
0010
0100
0010
0100
0010
0100
0010
,
1000
0001
1000
0001
1000
0001
1000
0000
,
0001
0100
0010
0100
1000
0100
0010
0100
,
0001
1000
0010
0100
0001
0000
0110
0000
,
0010
1000
0100
0010
0001
0100
0010
1000
,
0100
0010
0001
0100
0010
0000
0010
0100
,
0001
0010
0100
1000
0010
0100
0001
0010
,
0100
1000
0010
0100
0001
0010
0100
0000
,
1000
0010
1000
0000
1000
0100
1000
0000
,
0100
1000
0100
0010
0001
1000
0001
0000
,
0100
0001
0000
0001
1000
0000
0010
1000
,
0000
1000
0001
0000
0100
0010
0100
1000
,
0100
0001
0000
0001
1000
0000
0010
0100
,
0000
0100
0001
0000
1000
0100
0010
0100
,
1000
0010
0000
0010
1000
0000
0001
0010
,
0100
1000
0010
0000
1000
0100
0010
0001
,
0100
1000
0100
0010
0100
0000
0110
0000
,
0010
0100
0010
0100
0010
0100
0010
0100
,
0001
0000
1001
0000
0001
0100
0001
0100
,
0001
0000
0100
0000
0010
0100
0010
0100
,
0010
0000
0110
0000
1001
0000
0100
0010
,
0000
0010
1000
0001
1000
0001
0100
0000
,
0010
0100
0000
0101
0000
1001
0000
1000
,
0100
0001
0100
0000
1000
0010
0100
0010
,
1000
0000
0000
1001
0000
0000
0101
0000
0000
0000
0000
0000
0001
0000
0100
0000
,
0020
0000
0000
0000
,
1030
0100
1000
0001
1000
0100
1000
0001
,
0100
0010
0100
0001
0010
0100
1000
0000
,
0010
1000
0010
0100
0010
0001
0010
0100
,
0010
1000
0010
0001
0010
0100
0010
0000
,
1000
0100
0010
0100
0001
0100
0010
0100
,
0001
0100
1000
0100
0010
0001
0100
0000
,
1001
0000
0110
0000
1001
0000
1000
0100
,
0010
0001
0010
0100
1000
0001
1000
0000
,
0010
1000
0100
1000
0001
0010
0001
0000
,
0100
0010
1000
0100
1000
0001
0010
0000
,
0001
1000
0100
1000
0010
0100
0010
0001
,
0010
0100
0001
1000
0001
0100
0010
0000
,
1000
0100
0010
0001
0100
0010
1000
0000
,
0001
0010
0100
1000
0010
0100
0001
0000
,
1000
1000
0100
0100
0010
0010
0001
0001
,
2000
0000
0000
3010
,
0010
1000
0001
1000
0010
0000
0100
0000
,
0100
0000
0001
0000
0010
0001
0100
0001
,
1000
0000
1000
0000
0010
0000
0100
0001
,
0000
1001
0000
1000
0000
0010
1000
0001
,
0100
0000
0001
0000
0010
0000
0001
0100
,
1000
0010
0001
0000
0010
0000
0001
0000
,
0101
0100
0010
1000
,
0001
0100
0001
0100
0001
0100
0001
0100
,
0010
0000
1000
1100
0000
0110
0000
0011
,
0000
0001
1000
0000
0010
1000
0010
1000
,
0010
0100
0000
0100
0001
0000
0001
0010
,
0000
0010
0001
0000
1000
0000
0010
0000
,
0100
0001
0000
1001
0000
0001
0100
0000
,
0100
0010
0100
0001
1000
0001
0010
0000
,
0010
0001
0100
0010
1000
0001
0100
0020
,
0200
0000
0000
0330
,
1001
0000
0001
0000
0101
0000
0100
0010
,
1000
0000
1001
0000
0001
0010
0001
0000
,
1001
0000
1100
0000
0110
0000
0010
0001
,
0100
0000
0100
0010
1000
0010
0001
0000
,
0011
1010
1100
MMMM
,
0011
0110
1100
MMMM
,
1001
0110
1001
MMMM
,
0100
0010
1000
0001
1000
0100
0010
0000
,
0001
1000
0100
1000
0001
0100
0001
0010
,
0100
1000
0001
0010
0100
0010
0001
0000
,
1000
0010
0100
0001
1000
0010
0100
0001
,
1000
0001
0010
0100
1000
0010
1000
0000
,
0010
0100
0001
1000
0001
0100
0010
1000
,
0100
1000
0001
0010
0001
0100
0010
0000
,
0100
0001
0010
0100
0010
0001
1000
0001
,
0100
0010
0100
0001
1000
0100
0001
0000
,
1100
0000
1001
0000
0100
0001
0000
0100
0002
0000
0000
0000
1003
0000
0010
0000
,
0110
0000
0010
0000
1000
0001
0000
1000
0001
0000
0100
0000
0120
0000
1030
0001
,
0100
0000
0001
0000
1000
0001
0000
1000
0020
0000
0000
0000
0130
0000
0001
0000
,
0101
0000
0110
0000
0100
0001
1000
0001
0010
0000
0011
0000
0001
0000
1000
0100
,
1000
0000
1010
0000
0010
0100
0000
0100
0001
0000
1000
0000
0001
0000
0100
0000
,
0010
0000
1000
0000
0100
0001
0000
0100
1000
0000
0010
0000
0110
0000
0100
0000
,
0001
1000
0001
1000
0001
1000
0001
0000
1000
0100
1000
0100
1000
0100
1000
0000
,
0210
0000
0000
0000
0000
0010
0010
0010
0310
0000
0000
0000
1000
0000
0000
0000
,
0001
1000
0010
1000
0100
0000
0000
0010
,
0011
1001
1010
0110
,
0100
0010
0000
0010
1000
0000
0100
1000
,
0001
0000
0100
0001
0101
0000
0110
0000
,
0010
1000
0100
0010
0002
0000
0003
1000
,
1001
1010
0110
0101
,
0001
0010
0100
1000
0001
0000
1001
0000
,
1001
0000
1001
0000
0100
0010
1000
0100
,
1000
0001
0100
0010
0100
0000
0010
0000
,
0110
1001
0110
1001
,
1000
0100
0010
0001
0100
0010
0100
1000
,
0100
0000
0001
0100
1000
0100
0001
0000
,
1000
0100
0001
0100
1000
0000
0001
0000
,
1001
0000
0101
0000
0100
0010
1000
0100
,
0010
0000
0001
0000
0100
0010
0100
0000
0002
0000
0000
0000
0000
0000
2003
0000
,
0000
0200
0000
0000
,
0000
0000
3300
0000
;
