#TITLE:only L;
#SUBTITLE:;
#ARTIST:emon;
#TITLETRANSLIT:;
#SUBTITLETRANSLIT:;
#ARTISTTRANSLIT:;
#CREDIT:SupremeX;
#BANNER:Only L-bn.png;
#BACKGROUND:Only L-bg.png;
#LYRICSPATH:;
#CDTITLE:CDTitle.png;
#MUSIC:only L.ogg;
#OFFSET:-2.219;
#SAMPLESTART:50.440;
#SAMPLELENGTH:12.000;
#SELECTABLE:YES;
#BPMS:0.000=128.000;
#STOPS:;
#BGCHANGES:-5.000=only L.avi=1.000=0=0=1,
99999=-nosongbg-=1.000=0=0=0 // don't automatically add -songbackground-;

//---------------dance-single - ----------------
#NOTES:
     dance-single:
     :
     Hard:
     7:
     0.427,0.410,0.242,0.091,0.111: // measure 1
0000
0000
0000
0000
,  // measure 2
0000
0000
0000
0000
,  // measure 3
0000
0000
0000
0000
,  // measure 4
0000
0000
0000
0000
,  // measure 5
1000
0000
1000
0000
0010
1000
0010
0000
,  // measure 6
0100
0000
0001
0000
1000
0001
1000
0000
,  // measure 7
0001
0000
0001
0000
0010
0100
1000
0000
,  // measure 8
1100
0110
0011
1001
,  // measure 9
0001
0000
1000
0000
0001
0000
0010
0000
0000
0000
0100
1000
0100
0000
0000
0000
,  // measure 10
1000
0000
0001
0000
0000
0001
0000
0000
0010
0000
0000
0100
0000
0000
1000
0000
,  // measure 11
0000
0000
0010
0000
0000
0010
0000
0000
1000
0000
0000
0001
0000
0000
1000
0000
,  // measure 12
0000
0000
0100
0000
0000
0100
0000
0000
0010
0000
0000
0001
0000
0000
1000
0000
,  // measure 13
0001
0000
0100
0010
0000
0100
0010
0000
1000
0000
0000
0000
0001
0000
0000
0000
,  // measure 14
0100
0000
0010
0000
0000
1000
0000
0000
0010
0000
0000
1000
0000
0000
0100
0000
,  // measure 15
0000
0000
0010
0000
0000
0001
0000
0000
0010
0000
0000
0100
0000
0000
1000
0000
,  // measure 16
0000
0000
0010
0000
0000
1000
0000
0000
0001
0000
0000
0100
0000
0000
0001
0000
,  // measure 17
1000
0010
0100
0001
1000
0000
2000
0000
,  // measure 18
3020
0000
0030
0100
0001
0010
0100
2000
,  // measure 19
0000
0000
3010
1000
0100
0010
0001
0100
,  // measure 20
0000
0001
0010
0100
1000
0010
1000
0002
,  // measure 21
0000
0000
0103
0000
0000
0100
0001
1000
,  // measure 22
0000
0001
0010
0100
0000
1000
0100
0010
,  // measure 23
0000
0001
1000
0001
0000
1020
0000
1030
,  // measure 24
0000
1000
0100
0010
0001
1000
0010
1000
,  // measure 25
0001
0000
0000
0100
0000
0000
0010
0000
0010
0000
0000
1000
0000
0000
0001
0000
,  // measure 26
0001
0000
0100
0000
0010
0000
1000
0001
,  // measure 27
1000
0000
0101
0000
1010
0000
0001
1000
,  // measure 28
0001
0000
1100
0000
0011
0000
1000
0100
,  // measure 29
0010
0000
0001
0100
0010
0000
1000
0001
,  // measure 30
1000
0000
0001
0000
1001
0000
1000
0100
,  // measure 31
0010
0000
0001
0000
0101
0000
1000
0010
,  // measure 32
1000
0000
0000
0000
0001
0000
0100
0001
0000
0000
0000
0000
1000
0000
0010
0000
,  // measure 33
0200
0000
0301
0100
0001
0000
0000
1000
,  // measure 34
0100
0000
0010
0000
0001
0000
1000
0010
0000
0000
0000
0000
1000
0000
0010
0000
,  // measure 35
0100
0000
0101
0000
1010
0000
0001
0010
,  // measure 36
0100
0000
1100
0000
1001
0000
0010
0100
,  // measure 37
0010
0000
1000
0001
1000
0000
0010
0100
,  // measure 38
0001
0000
1000
0000
1010
0000
0001
0010
,  // measure 39
0100
0000
1010
0000
0101
0000
1000
0010
,  // measure 40
1000
0000
0000
0000
0001
0000
0100
0001
0000
0000
0000
0000
1000
0000
0010
0000
,  // measure 41
0200
0000
0301
0100
0001
0000
0000
1000
,  // measure 42
0100
0000
0010
0000
0001
0000
1000
0001
0000
0000
0000
0000
0200
0000
0000
0000
,  // measure 43
0310
0000
0001
0100
0010
0000
1000
1000
,  // measure 44
0010
0000
0100
0001
1000
0010
0100
0001
,  // measure 45
1000
0000
0010
1000
0001
0000
1001
0000
,  // measure 46
1010
0000
0101
0000
1000
0001
1000
0000
,  // measure 47
0010
0000
0100
0001
0100
0010
1000
0000
,  // measure 48
0001
0000
1000
0000
0001
0100
0010
0000
,  // measure 49
1000
0000
0001
0100
0010
1000
0001
0000
,  // measure 50
1010
0000
0101
0000
1020
0000
1000
1030
,  // measure 51
0100
0000
0001
0000
1000
0000
0010
0000
0100
0001
0100
0000
0010
0000
1000
0000
;

//---------------dance-single - ----------------
#NOTES:
     dance-single:
     :
     Medium:
     5:
     0.247,0.256,0.020,0.040,0.030:
0000
0000
0000
0000
,
0000
0000
0000
0000
,
0000
0000
0000
0000
,
0000
0000
0000
0000
,
1000
0000
1000
0000
0001
0100
0001
0000
,
1000
0010
0100
0001
,
1000
0000
0001
0000
1000
0100
0010
0000
,
0001
1000
0010
0100
,
0000
0001
0000
1000
,
0000
0000
0001
0000
0000
0000
0000
0000
0100
0000
0000
0100
0000
0000
0100
0000
,
0000
0000
0010
0000
0000
0000
0000
0000
1000
0000
0000
1000
0000
0000
1000
0000
,
0000
0000
0100
0000
0000
0000
0000
0000
0010
0000
0000
0010
0000
0000
0000
0000
,
0001
1000
1010
0000
,
0000
0000
0100
0000
0000
0000
0000
0000
0001
0000
0000
0001
0000
0000
0001
0000
,
0000
0000
0010
0000
0000
0000
0000
0000
0100
0000
0000
0100
0000
0000
0100
0000
,
0000
0000
1000
0000
0000
0000
0000
0000
0001
0000
0000
0001
0000
0000
0000
0000
,
1000
0010
0100
0001
,
2000
3000
0010
0100
,
0001
0000
1000
0100
,
0010
0000
0001
0000
1000
0000
0010
0200
,
0000
0300
0000
0000
0000
0000
0000
0001
,
0000
0000
1000
0010
0000
0100
0000
0001
,
0000
1000
0001
0000
0000
0100
0000
0010
,
0000
0000
1000
0000
0100
0000
0010
0002
,
0000
0000
0000
0000
0000
0000
0000
0003
,
0000
0010
0100
1000
,
0010
0010
0010
0100
,
0001
0001
0001
0010
,
0100
1000
0010
1000
,
0100
0010
0001
1000
,
0100
0100
0100
0010
,
0001
1000
0100
0010
,
1000
1000
1000
0000
,
0001
0010
0100
1000
,
0001
0001
0001
0010
,
0100
0100
0100
0010
,
1000
0010
0100
0001
,
0100
0001
1000
0010
,
1000
1000
1000
0100
,
0010
0001
1000
0010
,
0100
0100
0100
0000
,
0001
0010
0100
1000
,
0000
0001
0000
0110
,
0000
1000
0000
0001
,
0000
1000
0100
0010
,
0010
0010
0001
0100
,
0001
0000
0000
1000
,
0010
0100
0001
1000
,
0001
0000
0100
0100
,
0001
0010
0100
1000
,
0020
0000
0000
0000
0000
1000
1000
1030
;

//---------------dance-single - ----------------
#NOTES:
     dance-single:
     :
     Easy:
     3:
     0.188,0.231,0.000,0.020,0.000:
0000
0000
0000
0000
,
0000
0000
0000
0000
,
0000
0000
0000
0000
,
0000
0000
0000
0000
,
0010
0000
1000
0000
,
0100
1000
0100
1000
,
0001
0000
0100
0000
,
0001
0001
0001
0001
,
1000
1000
0010
0100
,
0000
0000
0001
0000
1000
0000
0000
1000
,
0000
0000
0010
0000
0100
0000
0000
0100
,
0000
0001
0000
0000
0010
0000
0000
0000
,
0100
1000
0100
0000
,
0000
0010
0000
0000
0001
0000
0000
1000
,
0000
0100
0000
0000
0010
0000
0000
0001
,
0000
1000
0000
0000
0010
0000
0000
0000
,
0100
0001
1000
0010
,
0200
0300
0001
0001
,
0001
0000
1000
0010
,
1000
0001
0010
0100
,
0000
0000
1000
0000
0000
0000
0000
0010
,
0000
0000
0000
0100
0000
0000
0000
0001
,
0000
0000
0000
1000
0000
0000
0000
0010
,
0000
0000
0100
0000
0001
0000
0000
1000
,
0000
1000
0000
1000
,
0000
0010
0100
0010
,
1000
1000
1000
0000
,
0001
0001
0001
0000
,
0100
0000
0010
0000
,
1000
0001
1000
0010
,
0100
0100
0100
0000
,
1000
0000
0100
0000
,
0010
0000
0001
0000
,
1000
0010
1000
0000
,
0001
1000
0001
0000
,
0100
0001
1000
0000
,
0001
0000
0010
0000
,
0100
1000
0100
0000
,
0010
0010
0010
0000
,
0100
0000
0000
0001
0000
0000
0000
0000
,
1000
0010
0100
0000
,
0001
0000
0100
0000
,
0010
0000
0000
0000
1000
0000
0000
0001
,
0000
0000
0100
0000
,
0001
1000
0001
0000
,
0100
0010
0100
0001
,
1000
0000
0000
0010
,
0000
0100
0000
0001
,
0000
1000
0010
0100
,
0001
1000
0001
1000
,
0002
0000
0000
0000
0000
0000
0000
0003
;

//---------------dance-single - Copied from----------------
#NOTES:
     dance-single:
     Copied from:
     Beginner:
     1:
     0.066,0.076,0.000,0.000,0.000:
0000
0000
0000
0000
,
0000
0000
0000
0000
,
0000
0000
0000
0000
,
0000
0000
0000
0000
,
1000
0000
0000
0000
,
0010
0000
0000
0000
,
0100
0000
0000
0000
,
0001
0000
0000
0000
,
1000
0000
0000
0000
,
0010
0000
0000
0000
,
0010
0000
0000
0000
,
0100
0000
0000
0000
,
0100
0000
0000
0000
,
0001
0000
0000
0000
,
0001
0000
0000
0000
,
0001
0000
0000
0000
,
0001
0000
0000
0000
,
1000
0000
0000
0000
0000
0000
0000
1000
,
0000
0000
0000
0000
0000
0000
0000
1000
,
0000
0000
0000
1000
,
0000
0000
0000
0000
0000
0000
0000
0010
,
0000
0000
0000
0000
0000
0000
0000
0010
,
0000
0000
0000
0000
0000
0000
0000
0010
,
0000
0000
0000
0000
0000
0000
0000
0010
,
0000
0000
0000
0000
,
0000
0000
0000
0000
,
0100
0000
0000
0000
,
0100
0000
0000
0000
,
0100
0000
0000
0000
,
0100
0000
0000
0000
,
0001
0000
0000
0000
,
0001
0000
0000
0000
,
0001
0000
0000
0000
,
0001
0000
0000
0000
,
1000
0000
0000
0000
,
1000
0000
0000
0000
,
1000
0000
0000
0000
,
1000
0000
0000
0000
,
0010
0000
0000
0000
,
0010
0000
0000
0000
,
0010
0000
0000
0000
,
0100
0000
0000
0100
,
0000
0000
0000
0100
,
0000
0000
0000
0000
,
0100
0000
0000
0000
,
0100
0000
0000
0000
,
0001
0000
0000
0000
,
0001
0000
0000
0000
,
0001
0000
0000
0000
,
0001
0000
0000
0000
,
0001
0000
0000
0000
;
