#TITLE:Vampire Killer ~scar-ed Pf rmx~;
#SUBTITLE:;
#ARTIST:fu_mou;
#TITLETRANSLIT:;
#SUBTITLETRANSLIT:;
#ARTISTTRANSLIT:;
#GENRE:;
#CREDIT:SupremeX;
#BANNER:Vampire Killer.png;
#BACKGROUND:Vampire Killer-bg.png;
#LYRICSPATH:;
#CDTITLE:CDTitle.png;
#MUSIC:Vampire Killer scar-ed Pf rmx.ogg;
#OFFSET:-0.666344;
#SAMPLESTART:37.509998;
#SAMPLELENGTH:12.000000;
#SELECTABLE:YES;
#BPMS:0.000000=130.000000
;
#STOPS:
;
#BGCHANGES:16.000=tunnel9.avi=1.000=0=0=1=====,
32.000=12 Night.avi=1.000=0=0=1=====,
48.000=nyevtunnel.avi=1.000=0=0=1=====,
64.000=symbols2.avi=1.000=0=0=1=====,
80.000=blinds1.avi=1.000=0=0=1=====,
96.000=moon1.avi=1.000=0=0=1=====,
112.000=12 Night.avi=1.000=0=0=1=====,
128.000=nyevtunnel.avi=1.000=0=0=1=====,
144.000=tunnel9.avi=1.000=0=0=1=====,
160.000=symbols2.avi=1.000=0=0=1=====,
176.000=blinds1.avi=1.000=0=0=1=====,
192.000=nyevtunnel.avi=1.000=0=0=1=====,
224.000=Vampire Killer-bg.png=1.000=0=0=1=====,
99999=-nosongbg-=1.000=0=0=0 // don't automatically add -songbackground-
;
#KEYSOUNDS:;
#ATTACKS:;

//---------------dance-single - ----------------
#NOTES:
     dance-single:
     :
     Hard:
     8:
     0.448821,0.475508,0.037739,0.056608,0.471734,333.000000,329.000000,4.000000,6.000000,0.000000,0.000000,0.448821,0.475508,0.037739,0.056608,0.471734,333.000000,329.000000,4.000000,6.000000,0.000000,0.000000:
0000
0000
0000
0000
,
0000
0000
0000
0000
,
0000
0000
0000
0000
,
0000
0000
0000
0000
,
0001
0100
0010
1000
,
0001
1000
0001
1000
,
0010
1000
0001
0100
,
0001
1000
0010
1000
,
0001
0000
0000
0100
0000
0000
0002
0000
0000
0000
0000
0000
1003
0000
0000
0000
,
0001
1000
0001
0000
1000
0100
0010
0000
,
0001
0000
0000
0100
0000
0000
0020
0000
0000
0000
0000
0000
0130
0000
0000
0000
,
0010
0100
0010
0000
1000
0001
1000
0000
,
0001
0000
0010
0000
0100
0000
0000
0000
1000
0100
1000
0100
0000
0000
0000
0000
,
0000
0000
0010
0001
0000
0000
0001
0000
0000
1000
0100
1000
0100
0000
0010
0000
,
0001
0000
0100
0000
0001
0000
0000
0000
1000
0010
1000
0010
0000
0000
0000
0000
,
0000
0000
0100
0001
0000
0000
0100
0000
0010
0100
0010
0100
0000
0010
1000
0000
,
0001
0000
0000
1000
0000
0000
0001
0000
0100
0000
0000
0010
0000
0000
1000
0000
,
0001
0000
0000
0100
0000
0000
0010
0000
1000
0000
0000
0000
1001
0000
0000
0000
,
0001
0000
0000
0100
0000
0000
0010
0000
0010
0000
0000
1000
0000
0000
0001
0000
,
0001
0000
0000
1000
0000
0000
0100
0000
0010
0000
0001
0000
0100
0000
0000
0000
,
0010
0000
1000
0000
0000
1000
0000
0000
0000
0001
0000
0000
0000
0001
0000
0000
,
0000
0000
0100
0000
0010
0100
0000
0000
0000
0000
0001
0000
1000
0001
0000
0000
,
1000
0000
0010
0000
0000
0010
0000
0000
0000
0100
0000
0000
0000
0100
0000
0000
,
0000
0000
0001
0000
0000
0101
0000
0000
0000
0000
1000
0000
0000
1010
0000
0000
,
0001
0010
0100
0000
1000
0100
0010
0001
,
0100
0001
1000
0000
0010
1000
0010
1000
,
0100
0010
0001
0000
0100
0010
1000
0001
,
1000
0010
0100
0000
0001
0100
0001
0000
,
1000
0000
0100
0000
0010
0000
0000
0000
0001
0010
0001
0010
0000
0000
0000
0000
,
0000
0000
0100
1000
0000
0000
1000
0000
0000
0010
0100
0010
0100
0000
0100
0000
,
0001
0000
1000
0000
0001
0000
0000
0000
1000
0100
1000
0100
0000
0000
0000
0000
,
0010
0000
0001
0100
0000
0000
0000
0000
0000
0010
1000
0010
1000
0010
1000
0010
,
1000
0000
0000
0010
0000
0000
0200
0000
0000
0000
0000
0000
0301
0000
0000
0000
,
0001
1000
0000
1000
0000
0010
0000
0010
,
1000
0000
0000
0001
0000
0000
2000
0000
0000
0000
0000
0000
3001
0000
0000
0000
,
1000
0000
0000
0000
1000
0000
0000
0010
0000
0100
0010
0000
0100
0000
0001
0000
,
1000
0000
0100
0000
0010
0000
0000
0000
0001
0010
0001
0010
0000
0000
0000
0000
,
0000
0000
0100
1000
0000
0000
1000
0000
0000
0010
0100
0010
0100
0000
0010
0000
,
1000
0000
0001
0000
1000
0000
0000
0000
0001
0100
0001
0100
0000
0000
0000
0000
,
0000
0000
0010
1000
0000
0000
1000
0000
0010
0100
0010
1000
0000
0010
1000
0000
,
0001
0000
0000
0001
0000
0000
0100
0000
0010
0000
0000
0010
0000
0000
1000
0000
,
1000
0000
0000
0100
0000
0000
0100
0000
0010
0000
0000
0000
0011
0000
0000
0000
,
1000
0000
0000
0010
0000
0000
1000
0000
0001
0000
0000
0100
0000
0000
0001
0000
,
1000
0000
0000
0100
0000
0000
0010
0000
0002
0000
0000
0000
2003
0000
0000
0000
,
3100
0000
0000
0000
1000
0000
0010
0000
0000
0000
0010
0000
0000
0100
0000
0000
,
0000
0000
0001
0000
0000
0001
0000
0000
0000
0000
1000
0000
0000
1000
0000
0000
,
0001
0000
0100
0000
0000
0000
0010
0000
0000
0000
0010
0000
0000
1000
0000
0000
,
0000
0000
0100
0000
0000
0100
0000
0000
0000
0000
0010
0000
0000
0010
0000
0000
,
0001
0000
0010
0000
0100
0000
0000
0000
1000
0010
1000
0010
0000
0000
0000
0000
,
0000
0000
0100
0001
0000
1000
0000
0000
0010
0100
0010
0100
0000
0001
1000
0001
,
1000
0000
0001
0000
0010
0000
0000
0000
0100
1000
0100
1000
0000
0000
0000
0000
,
0000
0000
0001
0010
0000
0001
0000
0000
0100
0010
0100
0010
0000
1000
0001
1000
,
0001
0000
0010
0000
0100
0000
0000
0000
1000
0100
1000
0100
0000
0000
0000
0000
,
0000
0000
0010
0001
0000
0010
0000
0000
0100
1000
0100
1000
0000
0001
1000
0001
,
1000
0000
0100
0000
0010
0000
0000
0000
0001
0100
0001
0100
0000
0000
0000
0000
,
0000
0000
0010
1000
0000
0010
0000
0000
1000
0001
1000
0001
0000
0100
0010
0100
,
0010
0000
0000
0000
;

//---------------dance-single - ----------------
#NOTES:
     dance-single:
     :
     Medium:
     6:
     0.304605,0.317005,0.009435,0.009435,0.122651,226.000000,225.000000,1.000000,1.000000,0.000000,0.000000,0.304605,0.317005,0.009435,0.009435,0.122651,226.000000,225.000000,1.000000,1.000000,0.000000,0.000000:
0000
0000
0000
0000
,
0000
0000
0000
0000
,
0000
0000
0000
0000
,
0000
0000
0000
0000
,
1000
0010
1000
0010
,
0100
0001
0100
0001
,
1000
0010
1000
0010
,
0100
0001
0100
0001
,
1000
0000
0000
1000
0000
0000
1000
0000
0000
0000
0000
0000
0010
0000
0000
0000
,
1000
1000
0001
0001
,
0100
0000
0000
0100
0000
0000
0100
0000
0000
0000
0000
0000
0010
0000
0000
0000
,
1000
0001
1000
0010
,
0100
0000
0001
0000
1000
0010
1000
0000
,
0001
0000
0100
0000
0010
1000
0010
1000
,
0001
0000
0100
0000
0001
1000
0001
0000
,
0100
0010
1000
0001
,
0100
0000
0000
0001
0000
0000
0001
0000
1000
0000
0000
0100
0000
0000
0010
0000
,
0001
0000
0000
0010
0000
0000
0100
0000
1000
0000
0000
0000
0000
0000
0000
0000
,
0010
0000
0000
0100
0000
0000
0001
0000
1000
0000
0000
0010
0000
0000
1000
0000
,
0001
0000
0000
0010
0000
0000
0100
0000
1000
0000
0000
0000
0000
0000
0000
0000
,
0010
0100
0001
1000
,
0000
0000
0100
0000
0000
0100
0000
0000
0000
0000
0010
0000
0000
0010
0000
0000
,
0001
0010
0100
1000
,
0000
0000
0100
0000
0000
0100
0000
0000
0000
0000
0010
0000
0000
0010
0000
0000
,
0001
0100
0010
1000
,
0001
0010
0100
1000
,
0001
0100
0001
1000
,
0010
1000
0001
0100
,
0010
1000
0001
0010
,
0100
1000
0010
0100
,
0001
1000
0001
0100
,
0020
0000
0000
0000
0000
0000
0000
0030
,
1000
0000
0000
1000
0000
0000
1000
0000
0000
0000
0000
0000
0100
0000
0000
0000
,
0010
0001
1000
0100
,
0010
0000
0000
0001
0000
0000
0010
0000
0000
0000
0000
0000
0100
0000
0000
0000
,
1000
0001
0100
0010
,
1000
0001
0100
0100
,
0010
1000
0001
0001
,
0100
0010
1000
1000
,
0001
0010
0100
1000
,
0010
0000
0000
0100
0000
0000
0001
0000
1000
0000
0000
0010
0000
0000
1000
0000
,
0001
0000
0000
1000
0000
0000
0010
0000
0100
0000
0000
0000
0000
0000
0000
0000
,
0001
0000
0000
0001
0000
0000
0100
0000
0010
0000
0000
0010
0000
0000
1000
0000
,
0100
0000
0000
0100
0000
0000
0010
0000
0001
0000
0000
0000
0001
0000
0000
0000
,
1000
0000
0010
0000
0000
0000
0010
0000
0000
0000
0010
0000
0000
0010
0000
0000
,
0000
0000
0100
0000
0000
0100
0000
0000
0000
0000
0001
0000
0000
0001
0000
0000
,
1000
0000
0010
0000
0000
0000
0010
0000
0000
0000
0010
0000
0000
0010
0000
0000
,
0000
0000
0100
0000
0000
0100
0000
0000
0000
0000
0001
0000
0000
0001
0000
0000
,
1000
0010
1000
0001
,
0010
0000
0100
0000
1000
0100
1000
0000
,
0010
0100
0001
1000
,
0001
0000
0100
0000
0010
1000
0010
0000
,
0100
0000
0001
0000
1000
0001
1000
0000
,
0100
0010
0001
0010
,
0100
0000
1000
0000
0010
0100
0010
0000
,
0100
0001
1000
0001
,
1001
0000
0000
0000
;

//---------------dance-single - ----------------
#NOTES:
     dance-single:
     :
     Easy:
     4:
     0.273606,0.264171,0.084912,0.018869,0.018869,203.000000,194.000000,9.000000,2.000000,0.000000,0.000000,0.273606,0.264171,0.084912,0.018869,0.018869,203.000000,194.000000,9.000000,2.000000,0.000000,0.000000:
0000
0000
0000
0000
,
0000
0000
0000
0000
,
0000
0000
0000
0000
,
0000
0000
0000
0000
,
0001
0001
0100
0100
,
0010
0010
1000
1000
,
0001
0001
1000
1000
,
0010
0010
0100
0000
,
0001
0000
0000
0001
0000
0000
0002
0000
0000
0000
0000
0000
0000
0000
0003
0000
,
0000
1000
0000
0010
0000
1000
0000
0001
,
1000
0000
0000
1000
0000
0000
2000
0000
0000
0000
0000
0000
0000
0000
3000
0000
,
0000
0010
0000
0100
0000
0010
0000
1000
,
0001
1000
0010
1000
,
0010
0100
0001
0100
,
0010
1000
0010
1000
,
0001
0100
0010
1000
,
0001
0001
0100
0100
,
0010
0010
1000
1000
,
0001
0001
0100
0100
,
0010
0010
1000
1000
,
0001
0100
0001
0100
,
0000
1010
0000
0101
,
1000
0010
1000
0010
,
0000
0101
0000
1010
,
0001
0001
1000
1000
,
0010
0010
0100
0100
,
0001
1000
0001
1000
,
0010
0100
0010
0100
,
0001
1000
0010
0100
,
0000
0001
1000
0010
,
0100
0001
1000
1000
,
0010
0000
0000
0000
,
0100
0000
0000
0100
0000
0000
0100
0000
0000
0000
0000
0000
0001
0000
0000
0000
,
1000
0010
0100
0001
,
1000
0000
0000
1000
0000
0000
1000
0000
0000
0000
0000
0000
0010
0000
0000
0000
,
0100
0001
1000
0010
,
0100
0001
0100
0100
,
0010
1000
0010
0010
,
0100
0001
1000
1000
,
0010
0100
0001
0001
,
1000
0100
0010
0001
,
1000
0010
0100
0001
,
1000
0100
0010
0001
,
1000
0010
0100
0001
,
1000
1000
1000
1000
,
0000
1001
0000
0110
,
0001
0001
0001
0001
,
0000
0110
0000
1001
,
1000
0010
1000
0010
,
0100
0001
0100
0001
,
1000
1000
0010
0100
,
0001
0001
1000
0010
,
0100
0001
1000
1000
,
0010
0100
0001
0001
,
1000
0010
0100
0100
,
0001
1000
0010
0010
,
1001
0000
0000
0000
;

//---------------dance-single - Copied from----------------
#NOTES:
     dance-single:
     Copied from:
     Beginner:
     1:
     0.070086,0.077836,0.000000,0.000000,0.000000,52.000000,52.000000,0.000000,0.000000,0.000000,0.000000,0.070086,0.077836,0.000000,0.000000,0.000000,52.000000,52.000000,0.000000,0.000000,0.000000,0.000000:
0000
0000
0000
0000
,
0000
0000
0000
0000
,
0000
0000
0000
0000
,
0000
0000
0000
0000
,
0100
0000
0000
0000
,
0100
0000
0000
0000
,
0100
0000
0000
0000
,
0100
0000
0000
0000
,
0010
0000
0000
0000
,
0010
0000
0000
0000
,
0010
0000
0000
0000
,
0010
0000
0000
0000
,
1000
0000
0000
0000
,
1000
0000
0000
0000
,
1000
0000
0000
0000
,
1000
0000
0000
0000
,
0001
0000
0000
0000
,
0001
0000
0000
0000
,
0001
0000
0000
0000
,
0001
0000
0000
0000
,
0100
0000
0000
0000
,
0100
0000
0000
0000
,
0010
0000
0000
0000
,
0010
0000
0000
0000
,
1000
0000
0000
0000
,
1000
0000
0000
0000
,
1000
0000
0000
0000
,
1000
0000
0000
0000
,
0001
0000
0000
0000
,
0001
0000
0000
0000
,
0001
0000
0000
0000
,
0001
0000
0000
0000
,
0100
0000
0000
0000
,
0100
0000
0000
0000
,
0100
0000
0000
0000
,
0100
0000
0000
0000
,
0010
0000
0000
0000
,
0010
0000
0000
0000
,
0010
0000
0000
0000
,
0010
0000
0000
0000
,
1000
0000
0000
0000
,
1000
0000
0000
0000
,
1000
0000
0000
0000
,
1000
0000
0000
0000
,
0001
0000
0000
0000
,
0001
0000
0000
0000
,
0001
0000
0000
0000
,
0001
0000
0000
0000
,
0100
0000
0000
0000
,
0100
0000
0000
0000
,
0010
0000
0000
0000
,
0010
0000
0000
0000
,
1000
0000
0000
0000
,
1000
0000
0000
0000
,
0001
0000
0000
0000
,
0001
0000
0000
0000
;
