#TITLE:トレイス・エゴイズム;
#SUBTITLE:;
#ARTIST:暁Records;
#TITLETRANSLIT:Trays egoism;
#SUBTITLETRANSLIT:;
#ARTISTTRANSLIT:Dawn Records;
#GENRE:;
#CREDIT:SupremeX;
#BANNER:Trays egoism.png;
#BACKGROUND:Trays egoism-bg.png;
#LYRICSPATH:;
#CDTITLE:CDTitle.png;
#MUSIC:Trays egoism.ogg;
#OFFSET:-0.933013;
#SAMPLESTART:54.830002;
#SAMPLELENGTH:12.000000;
#SELECTABLE:YES;
#BPMS:0.000000=140.000000
;
#STOPS:
;
#BGCHANGES:16.000=blizzard3.avi=1.000=0=0=1=====,
32.000=ninja1.avi=1.000=0=0=1=====,
48.000=ninja2.avi=1.000=0=0=1=====,
64.000=ninja4.avi=1.000=0=0=1=====,
80.000=ninja5.avi=1.000=0=0=1=====,
96.000=clash.avi=1.000=0=0=1=====,
128.000=sakura1.avi=1.000=0=0=1=====,
144.000=blizzard6.avi=1.000=0=0=1=====,
160.000=sakura1.avi=1.000=0=0=1=====,
176.000=blackhole1.avi=1.000=0=0=1=====,
188.000=Trays egoism-bg.png=1.000=0=0=1=====,
192.000=blizzard3.avi=1.000=0=0=1=====,
208.000=blizzard6.avi=1.000=0=0=1=====,
224.000=Trays egoism-bg.png=1.000=0=0=1=====,
99999=-nosongbg-=1.000=0=0=0 // don't automatically add -songbackground-
;
#KEYSOUNDS:;
#ATTACKS:;

//---------------dance-single - ----------------
#NOTES:
     dance-single:
     :
     Hard:
     7:
     0.407314,0.452190,0.200084,0.160067,0.005002,285.000000,265.000000,20.000000,16.000000,0.000000,0.000000,0.407314,0.452190,0.200084,0.160067,0.005002,285.000000,265.000000,20.000000,16.000000,0.000000,0.000000:
0000
0000
0000
0000
,
0000
0000
0000
0000
,
0000
0000
0000
0000
,
0000
0000
0000
0000
,
0020
0000
0000
0000
,
2030
0000
0000
0000
,
3002
0000
0000
0000
,
0103
0000
0000
0100
0000
0000
0000
0000
,
0010
0000
1000
0001
0000
0110
1000
0000
,
0001
0100
0010
1000
0001
1000
0010
0000
,
0000
1000
0100
0010
0001
0000
0100
0010
,
0000
1000
0001
1000
0010
0100
0001
0000
,
1000
0000
1000
0010
0000
0010
0000
0100
,
0001
0010
0100
1000
0001
0100
0100
0000
,
0000
0010
1000
0001
1000
0000
1001
0000
,
0010
0100
0010
1000
1001
0000
0000
0000
,
1000
0100
0010
0001
1000
0100
1000
0001
,
0100
0001
1000
0010
0100
0001
1000
0010
,
0000
0000
1010
0000
0101
0000
1000
0001
,
0000
0001
0100
0010
1000
0001
1000
0000
,
0010
0100
0010
1000
0100
0010
0001
1000
,
0010
0100
0001
1000
0001
0000
0100
0100
,
0000
1001
0110
1001
,
1000
0010
0100
0010
2000
0000
3000
0000
,
0001
0000
0000
1000
1000
0000
0000
0001
,
0100
0000
0000
0000
0100
0000
0010
0000
1000
0000
0000
1000
0000
0000
0010
0000
,
1000
0100
0010
0001
1000
0000
0001
0100
,
0020
0000
0000
0030
0000
0000
1000
0001
,
0100
0000
0000
0010
0010
0000
0000
1000
,
0100
1000
0100
0010
0001
0000
0110
0000
,
1000
0001
0100
0010
1000
0000
0001
1000
,
0020
0000
0030
0000
0100
0001
1000
0010
,
0200
0000
0000
0000
0000
0300
0001
0000
,
0011
0100
1100
1001
,
1000
0100
0010
0002
0000
0000
0000
0003
,
0000
1000
0010
1000
0001
0100
0010
1000
,
0001
0000
1000
0001
1000
0000
0000
0010
,
0100
0000
0100
0001
1000
0000
0000
0000
,
0010
0000
0100
0220
0000
0000
0000
0000
,
0000
0330
0000
0000
0001
0010
0100
1000
,
2200
0000
3300
0001
,
1001
0110
1010
0101
,
1000
0010
1000
0002
0000
0000
0000
0003
,
0000
1000
1000
0001
0010
0100
1000
0000
,
0200
0000
0310
0001
0010
0000
0100
1000
,
0100
0000
0010
0001
0000
0100
0000
0001
,
0000
1000
2000
0000
0000
0000
0000
0000
,
3020
0000
0000
0130
0001
1000
0000
1000
,
0010
0000
0010
0100
0000
1001
0000
0001
,
0010
0100
1000
0010
0100
0001
0100
0010
,
0000
1000
0100
0010
0001
0000
1000
1000
,
0000
0001
0100
0010
1000
0010
0100
0000
,
0001
0000
1000
0010
1000
0001
0100
0001
,
0010
0100
1000
0100
0010
0001
0010
0000
,
0100
1000
0100
0000
0010
0001
1000
0000
,
0100
1000
0001
0000
0100
0010
1000
0000
,
0001
0010
0100
1000
1100
0000
0000
0000
;

//---------------dance-single - ----------------
#NOTES:
     dance-single:
     :
     Medium:
     5:
     0.264397,0.339142,0.020008,0.080034,0.000000,185.000000,183.000000,2.000000,8.000000,0.000000,0.000000,0.264397,0.339142,0.020008,0.080034,0.000000,185.000000,183.000000,2.000000,8.000000,0.000000,0.000000:
0000
0000
0000
0000
,
0000
0000
0000
0000
,
0000
0000
0000
0000
,
0000
0000
0000
0000
,
1000
0000
0000
0000
,
0001
0000
0000
0000
,
0100
0000
0000
0000
,
0010
0000
0000
0000
,
1000
0001
0100
0010
,
1000
0001
0100
0100
,
0000
0010
1000
0000
0001
0000
1000
0010
,
0000
0010
0000
0100
0001
0100
0001
0000
,
1000
0000
0010
0100
0000
0100
0000
0001
,
0000
0001
0000
1000
0010
1000
0010
0000
,
0100
0001
0010
0100
,
1000
0000
0010
0100
0010
0000
0000
0000
,
1000
0001
1000
0010
,
0100
0000
0001
0000
1000
0000
1000
0010
,
0000
0000
0100
0000
0100
0000
0001
0010
,
0000
0010
0000
0100
1000
0100
0010
0000
,
0001
0100
0010
1000
,
0100
0000
0010
0000
0001
0000
0100
0010
,
0000
1000
0100
0010
,
0001
0000
1000
0010
1000
0000
0000
0000
,
0001
0000
0000
0100
0100
0000
0000
0000
,
0010
1000
0001
0100
,
0010
1000
0001
0010
,
0200
0000
0300
0000
,
1000
0000
0000
0010
0100
0000
0000
0000
,
0001
0010
0100
1000
,
0010
0100
0010
1000
,
1001
0000
0001
1000
,
0020
0000
0030
0100
,
0100
0001
0001
1000
,
0100
0000
0010
0002
0000
0000
0000
0003
,
0000
1000
0010
0100
,
0001
1000
1000
0000
,
0001
0001
0010
0000
,
0100
0000
1000
2000
0000
0000
0000
0000
,
0000
3000
0000
0000
0100
0000
0010
0000
,
0002
0000
0003
0010
,
0100
1000
0010
0100
,
0001
0000
1000
0020
0000
0000
0000
0030
,
0000
0100
0001
0010
,
0100
0000
1000
2000
0000
0000
3000
0000
,
0010
0000
0010
0100
0000
0100
0000
0001
,
0000
0001
0200
0000
0000
0000
0000
0300
,
0010
0000
0000
0000
,
0010
0000
0010
1000
0000
1000
0000
0001
,
0000
0001
0000
0100
0000
0100
0000
0001
,
0000
0000
1000
0000
1000
0000
0010
0100
,
0000
0100
0000
0000
0001
0000
1000
0000
,
0001
0000
0100
0001
0000
0001
0000
1000
,
0000
1000
0000
0010
0000
0010
0000
0000
,
0100
0001
1000
0010
,
0100
0001
0100
0000
0010
1000
0010
0000
,
0001
1000
1001
0000
;

//---------------dance-single - ----------------
#NOTES:
     dance-single:
     :
     Easy:
     3:
     0.210088,0.254357,0.030013,0.070029,0.000000,147.000000,144.000000,3.000000,7.000000,0.000000,0.000000,0.210088,0.254357,0.030013,0.070029,0.000000,147.000000,144.000000,3.000000,7.000000,0.000000,0.000000:
0000
0000
0000
0000
,
0000
0000
0000
0000
,
0000
0000
0000
0000
,
0000
0000
0000
0000
,
1000
0000
0000
0000
,
0010
0000
0000
0000
,
0100
0000
0000
0000
,
0001
0000
0000
0000
,
1000
0000
0000
1000
0000
0000
0000
1000
,
0000
0000
1000
0000
,
0000
0010
0100
0001
,
1000
0001
0001
0001
,
0100
0000
0000
0100
0000
0000
0000
0100
,
0000
0000
0100
0000
,
0010
1000
0001
0100
,
0001
0001
0001
0000
,
1000
0010
0100
0001
,
1000
0010
0100
0001
,
0000
0000
1000
0000
1000
0000
0000
0010
,
0000
0000
0100
0100
,
0001
1000
0010
0100
,
0001
0000
1000
0000
0010
0000
0000
0100
,
0000
0001
0001
0000
,
1000
1000
0001
0000
,
0100
0000
0010
0000
,
1000
0001
0010
0100
,
1000
1000
0010
0100
,
0001
0000
0000
0000
,
1000
0000
0010
0000
,
0100
0001
1000
0001
,
0100
0010
1000
0001
,
0002
0003
1000
1000
,
0020
0000
0030
0100
,
0001
1000
0001
0100
,
0010
0000
0000
0010
0000
0000
0000
0000
,
0000
1000
0001
0100
,
0010
0000
1010
0000
,
0001
0000
0101
0000
,
1000
0000
0000
2002
0000
0000
0000
0000
,
3003
0000
0001
0010
,
0200
0000
0000
0300
0000
0000
1000
0000
,
1000
1000
1000
1000
,
0010
0000
0000
0200
0000
0000
0000
0300
,
0000
0001
1000
0010
,
0100
0000
0000
0001
0000
0000
0000
0000
,
1000
0000
0000
0010
0000
0000
0000
0100
,
0000
0002
0000
0000
,
0003
0000
0000
0000
,
1000
0000
0000
0010
0000
0010
0000
0010
,
0000
0010
0000
0010
0000
0000
0100
0000
,
0001
0000
1000
0001
,
0100
0010
1000
0001
,
1000
0000
0000
0001
0000
0001
0000
0001
,
0000
0001
0000
0001
0000
0001
0000
0000
,
0100
0010
1000
0001
,
0100
0010
1000
0001
,
1000
0100
0010
0000
;

//---------------dance-single - Copied from----------------
#NOTES:
     dance-single:
     Copied from:
     Beginner:
     1:
     0.068600,0.084035,0.000000,0.000000,0.000000,48.000000,48.000000,0.000000,0.000000,0.000000,0.000000,0.068600,0.084035,0.000000,0.000000,0.000000,48.000000,48.000000,0.000000,0.000000,0.000000,0.000000:
0000
0000
0000
0000
,
0000
0000
0000
0000
,
0000
0000
0000
0000
,
0000
0000
0000
0000
,
0001
0000
0000
0000
,
1000
0000
0000
0000
,
0010
0000
0000
0000
,
0100
0000
0000
0000
,
0001
0000
0000
0000
,
0000
0000
0001
0000
,
0000
0000
0000
0000
,
0000
0000
0000
0000
,
1000
0000
0000
0000
,
0000
0000
0000
1000
,
0000
0000
0000
0000
,
0010
0000
0000
0000
,
0100
0000
0000
0000
,
0100
0000
0000
0000
,
0100
0000
0000
0000
,
0000
0000
0000
0000
,
0010
0000
0000
0000
,
0010
0000
0000
0000
,
0010
0000
0000
0000
,
0100
0000
0000
0000
,
0001
0000
0000
0000
,
0000
0000
0001
0000
,
1000
0000
0000
0000
,
1000
0000
0000
0000
,
0010
0000
0000
0000
,
0010
0000
0000
0000
,
0100
0000
0000
0000
,
0100
0000
0000
0000
,
0001
0000
0000
0000
,
1000
0000
0000
0000
,
0001
0000
0000
0000
,
0000
1000
0000
0000
,
0010
0000
0000
0000
,
0100
0000
0000
0000
,
0010
0000
0000
0000
,
0000
0000
0000
0000
,
1000
0000
0000
0000
,
0001
0000
0000
0000
,
1000
0000
0000
0000
,
0000
0001
0000
0000
,
0100
0000
0000
0000
,
0010
0000
0000
0000
0000
0000
0000
0100
,
0000
0000
0000
0000
,
0001
0000
0000
0000
,
1000
0000
0000
0000
,
1000
0000
0000
0000
,
0010
0000
0000
0000
,
0010
0000
0000
0000
,
0100
0000
0000
0000
,
0100
0000
0000
0000
,
0001
0000
0000
0000
,
0001
0000
0000
0000
,
1000
0000
0000
0000
;
