#TITLE:Time Is Ticking Away (Radio Edit);
#SUBTITLE:;
#ARTIST:MR.JOHN;
#TITLETRANSLIT:;
#SUBTITLETRANSLIT:;
#ARTISTTRANSLIT:;
#GENRE:;
#CREDIT:SupremeX;
#BANNER:Time Is Ticking Away (Radio Edit).png;
#BACKGROUND:Time Is Ticking Away (Radio Edit)-bg.png;
#LYRICSPATH:;
#CDTITLE:CDTitle.png;
#MUSIC:Time Is Ticking Away (Radio Edit).ogg;
#OFFSET:-0.062883;
#SAMPLESTART:45.009998;
#SAMPLELENGTH:12.000000;
#SELECTABLE:YES;
#BPMS:0.000000=136.000000
;
#STOPS:
;
#BGCHANGES:16.000=text9.avi=1.000=0=0=1=====,
32.000=text12.avi=1.000=0=0=1=====,
48.000=text3.avi=1.000=0=0=1=====,
64.000=text12.avi=1.000=0=0=1=====,
72.000=singer1.avi=1.000=0=0=1=====,
88.000=silhouette2.avi=1.000=0=0=1=====,
100.000=Time Is Ticking Away (Radio Edit)-bg.png=1.000=0=0=1=====,
104.000=silhouette2.avi=1.000=0=0=1=====,
120.000=silhouette1.avi=1.000=0=0=1=====,
135.500=text3.avi=1.000=0=0=1=====,
151.500=silhouette2.avi=1.000=0=0=1=====,
168.000=text9.avi=1.000=0=0=1=====,
184.000=text12.avi=1.000=0=0=1=====,
200.000=text3.avi=1.000=0=0=1=====,
216.000=text9.avi=1.000=0=0=1=====,
231.500=Time Is Ticking Away (Radio Edit)-bg.png=1.000=0=0=1=====,
99999=-nosongbg-=1.000=0=0=0 // don't automatically add -songbackground-
;
#KEYSOUNDS:;
#ATTACKS:;

//---------------dance-single - ----------------
#NOTES:
     dance-single:
     :
     Challenge:
     9:
     0.522748,0.563905,0.145641,0.245770,0.200257,402.000000,386.000000,16.000000,27.000000,0.000000,0.000000,0.522748,0.563905,0.145641,0.245770,0.200257,402.000000,386.000000,16.000000,27.000000,0.000000,0.000000:
0000
0000
0000
0000
,
0000
0000
0000
0000
,
0000
0000
0000
0000
,
0000
0000
0000
0000
,
0001
0000
0010
0000
0100
0000
1000
0100
0000
0000
0010
0000
0001
0000
1000
0000
,
0100
0000
0010
0000
0001
0000
0100
0010
0000
0000
1000
0000
0010
0000
1000
0000
,
0001
0000
0100
0000
0010
0000
1000
0001
0000
0000
1000
0000
1000
0000
1000
0000
,
0001
0000
0100
0000
0001
0000
1000
0010
0000
0000
0100
0000
0100
0000
0100
0000
,
0001
0000
0010
0000
0100
0000
1000
0100
0000
0000
0010
0000
0001
0000
1000
0000
,
0010
0000
0100
0000
0001
0000
1000
0001
0000
0000
0100
0000
0001
0000
0010
0000
,
0100
0000
1000
0000
0001
0000
1000
0100
0000
0000
1000
0000
1000
0000
1000
0000
,
0001
0000
0100
0000
0010
0000
1000
0010
0000
0000
0100
0000
0001
0000
1000
0000
,
0010
0000
1000
0000
0001
0000
0100
0001
0000
0000
1000
0000
0100
0000
1000
0000
,
0001
0000
0010
0000
0100
0000
1000
0100
0000
0000
0010
0000
0001
0000
0010
0000
,
0100
0000
1000
0000
0010
0000
1000
0010
0000
0000
1000
0000
0100
0000
0010
0000
,
0001
0000
0100
0000
0001
0000
0100
0001
0000
0000
1000
0000
0010
0000
0100
0000
,
0001
1001
1001
1001
,
0100
0000
0010
0000
0100
0000
0010
0000
1000
0001
1000
0001
1000
0001
1000
0000
,
0010
0100
0001
1000
0001
0010
0100
0000
,
1000
0100
1000
0001
0010
0100
1000
0000
,
1000
0100
0000
1000
0001
0000
0100
0000
0100
0010
0100
0010
0100
0000
0000
0000
,
2002
0000
0000
0000
3003
0000
0000
0000
1000
0000
0001
0000
0010
0000
0100
1000
,
0100
0000
1000
0100
1000
0000
0001
0000
1000
0000
0001
0100
0001
0000
0100
0001
,
0100
0000
0010
0000
1000
0000
0100
0000
1000
0000
0100
0000
0010
0000
0001
0100
,
0010
0000
0100
0010
0100
0000
0010
0000
1000
0000
0001
0000
1000
0000
0000
0000
,
1010
0000
0010
1000
0010
0000
0000
0000
2000
0000
0000
0000
3200
0000
0000
0000
,
0310
0001
0010
0100
0000
1001
0000
0000
,
1000
0100
1000
1000
0000
1100
0000
0000
,
0020
0000
0031
0001
0000
0011
0000
1100
,
0000
0000
0002
2003
,
3001
0010
0100
1000
0000
1100
0000
0000
,
1000
0001
0100
0010
0000
0110
0000
0000
,
0002
0000
1003
1000
0000
0110
0000
0011
,
0001
0010
0100
1000
0010
1000
0001
0100
,
0000
0010
1000
0010
1010
0000
0000
0200
,
0000
0301
0010
0100
1100
0000
0000
0002
,
0000
0023
0000
0230
0000
2300
0000
3002
,
0000
0203
0000
0320
0000
2030
0000
3002
,
0000
1003
0001
0010
0100
0000
0000
2000
,
0000
3100
0010
0001
0001
0000
0000
2000
,
0000
3200
0000
0320
0000
0032
0000
0203
,
0000
0000
0320
0000
0000
0000
2030
0000
0000
0000
3010
0000
0000
1000
0010
1000
,
0010
0000
0100
0000
0010
0000
0100
0010
0000
0000
1000
0000
0100
0000
0010
0000
,
0001
0000
1000
0000
0001
0000
1000
0001
0000
0000
0100
0000
0001
0000
0100
0000
,
0001
0000
0010
0000
0100
0000
1000
0100
0000
0000
1000
0000
0100
0000
0010
0000
,
0001
0000
0100
0000
0010
0000
0100
0010
0000
0000
1000
0000
0001
0000
1000
0000
,
0010
0000
1000
0000
0001
0000
1000
0100
0000
0000
1000
0000
1000
0000
1000
0000
,
0010
0000
0100
0000
0010
0000
1000
0001
0000
0000
0001
0000
0001
0000
0001
0000
,
0010
0000
0100
0000
1000
0000
0001
1000
0000
0000
0010
0000
0010
0000
0010
0000
,
0100
0000
0001
0000
1000
0000
0001
0100
0000
0000
0010
0000
1000
0000
0001
0000
,
0100
0000
0001
0000
1000
0000
0010
0100
0000
0000
0010
0000
1000
0000
0001
0000
,
1000
0000
0001
0000
0100
0000
0010
1000
0000
0000
0001
0000
0010
0000
0100
0000
,
1000
0000
0010
0000
1000
0000
0001
0100
0000
0000
0001
0000
0100
0000
0001
0000
,
1000
0000
0100
0000
0010
0000
0001
1000
0000
0000
0010
0000
1000
0000
0010
0000
,
0100
0000
0001
0000
1000
0000
0001
1000
0000
0000
0010
0000
0100
0000
0010
0000
,
1000
0000
0100
0000
0010
0000
0001
0010
0000
0000
0001
0000
0100
0000
0100
0000
,
0001
0000
0010
0000
0100
0000
1000
0010
0000
0000
0100
0000
0100
0000
0100
0000
,
0010
0000
1000
0000
0001
0000
1000
0010
0000
0000
1000
0000
1000
0000
1000
0000
,
0000
0010
1000
0001
2000
0000
0000
3000
,
1001
0000
0000
0000
;

//---------------dance-single - ----------------
#NOTES:
     dance-single:
     :
     Hard:
     8:
     0.413517,0.429642,0.245770,0.000000,0.004551,318.000000,291.000000,27.000000,0.000000,0.000000,0.000000,0.413517,0.429642,0.245770,0.000000,0.004551,318.000000,291.000000,27.000000,0.000000,0.000000,0.000000:
0000
0000
0000
0000
,
0000
0000
0000
0000
,
0000
0000
0000
0000
,
0000
0000
0000
0000
,
1000
0010
1000
0000
0010
0000
0100
0000
,
0001
0100
0001
0000
1000
0000
0100
0000
,
0010
0001
0010
0000
0100
0000
1000
0000
,
0100
1000
0100
0000
1000
0000
0010
0000
,
0100
0001
1000
0000
0001
0000
1001
0000
,
0001
0010
0100
0000
1000
0000
1100
0000
,
0010
0001
0010
0000
0100
0000
1001
0000
,
0001
0010
0100
0000
1000
0000
1001
0000
,
0100
0010
1000
0010
0100
0000
0101
0000
,
0010
1000
0100
0010
0001
0000
1100
0000
,
0001
0010
0100
1000
0010
0000
0101
0000
,
1000
0100
0010
0001
0100
0000
1010
0000
,
0001
0001
1000
1000
,
0010
0100
0001
1000
,
0010
1000
0001
0001
,
1000
0100
1000
0000
0100
0000
0010
0000
,
0001
0000
0000
0001
0000
0000
1000
0000
0100
0000
0010
0000
0001
0000
0000
0000
,
1001
0000
0000
0000
0100
0010
0100
0000
,
0001
0000
1000
0000
0010
1000
0010
0000
,
0100
0001
0100
0010
1000
0001
1000
0000
,
0001
0100
0010
1000
0001
0100
0010
0000
,
1001
0000
1000
0010
,
1000
0100
0010
0001
0000
1000
0000
0000
,
0001
0010
0100
1000
0000
0001
0000
0000
,
1000
0000
0010
1000
0000
1010
0000
0101
,
0000
0000
1000
0010
,
0100
0001
1000
0010
0000
0110
0000
0000
,
0001
1000
0001
0100
0000
0110
0000
0000
,
0001
0000
0100
0010
0000
0010
0000
1000
,
0100
0010
0001
1000
0010
1000
0001
0100
,
0000
0010
1000
0001
0001
0000
0000
0100
,
0000
0100
0010
1000
1000
0000
0000
0001
,
0000
0010
0000
0100
0000
1000
0000
0010
,
0000
1000
0000
0001
0000
0100
0000
0001
,
0000
1000
0100
1000
1000
0000
0000
0001
,
0000
1000
0001
0100
0100
0000
0000
0001
,
0000
1000
0000
0001
0000
0100
0000
0010
,
0000
1000
0000
0001
0000
1000
0000
0000
,
0001
0000
0110
0000
1000
0001
0100
0000
,
0010
0000
1001
0000
0100
0001
0100
0000
,
0010
0000
1010
0000
0100
0001
1000
0000
,
0001
0000
0101
0000
1000
0010
1000
0000
,
0010
0100
0001
0100
0010
0000
1001
0000
,
0100
0010
1000
0010
0100
0000
0101
0000
,
0010
1000
0001
1000
0010
0000
1001
0000
,
0100
0001
1000
0001
0100
0000
0110
0000
,
0001
0100
0010
1000
0010
0100
0100
0000
,
0001
0100
0010
1000
0001
1000
1000
0000
,
0100
0010
0001
1000
0100
0010
0010
0000
,
0001
0100
0010
1000
0010
0100
0001
0001
,
0010
0100
1000
0010
1000
0000
1001
0000
,
0010
0100
0001
0100
0010
0000
1010
0000
,
0100
0001
1000
0001
0100
0000
1001
0000
,
0010
0100
0001
1000
0010
0000
0101
0001
,
0000
1000
0100
0010
0001
0000
0000
0000
,
1001
0000
0000
0000
;

//---------------dance-single - ----------------
#NOTES:
     dance-single:
     :
     Medium:
     7:
     0.347198,0.375936,0.063718,0.000000,0.004551,267.000000,260.000000,7.000000,0.000000,0.000000,0.000000,0.347198,0.375936,0.063718,0.000000,0.004551,267.000000,260.000000,7.000000,0.000000,0.000000,0.000000:
0000
0000
0000
0000
,
0000
0000
0000
0000
,
0000
0000
0000
0000
,
0000
0000
0000
0000
,
1000
0010
1000
0001
,
0100
0001
1000
0100
,
1000
0001
1000
0001
,
0100
0010
0100
0010
,
1000
0100
1000
0000
0001
0000
1000
0000
,
0001
0010
0001
0000
0100
0000
0100
0000
,
0001
1000
0001
0000
0100
0000
0010
0000
,
1000
0001
1000
0000
0010
0000
0100
0000
,
0001
0010
0100
1000
0010
0000
0100
0000
,
0001
1000
0001
1000
0010
0000
0100
0000
,
0001
0010
0100
1000
0010
0000
0100
0000
,
0001
0010
0100
1000
0010
0000
0100
0000
,
0001
0001
1000
1000
,
0010
0100
0001
1000
,
0010
0100
0001
0001
,
1000
0100
1000
0000
0010
0000
0010
0000
,
0100
0000
0000
0100
0000
0000
0001
0000
0010
0000
0100
0000
1000
0000
0000
0000
,
0010
0000
0000
0000
0100
0001
0100
0000
,
0010
0000
1000
0000
0010
1000
0001
0000
,
0100
0000
0010
1000
0001
1000
0010
0000
,
0100
1000
1000
0001
,
1001
0000
0010
0100
,
0001
0000
1000
1000
0000
0010
0000
0000
,
0100
0000
0001
1000
0000
0001
0000
0000
,
0100
0000
0100
0010
0000
0010
0000
1000
,
0000
0000
0001
0001
,
0100
0000
0100
0010
0000
0010
0000
0000
,
1000
0000
1000
0001
0000
0001
0000
0000
,
0100
0000
0010
1000
0000
0001
0000
0001
,
1000
0000
1000
0000
0010
0000
1000
1000
,
0000
0001
0100
0001
0100
0000
0000
0010
,
0000
1000
0010
1000
0010
0000
0000
0100
,
0000
0010
0000
0100
0000
0001
0000
1000
,
0000
0001
0000
0100
0000
0010
0000
0100
,
0000
0001
0010
0100
1000
0000
0000
0010
,
0000
0100
0001
0100
0001
0000
0000
1000
,
0000
0100
0000
1000
0000
0010
0000
0100
,
0000
0010
0000
1000
0000
0001
0000
0000
,
0100
0100
0001
0001
,
1000
1000
0010
0010
,
0100
0100
0001
0001
,
1000
1001
1000
1010
,
0010
0000
0100
0001
0100
0000
1001
0000
,
0001
0000
0100
0010
0100
0000
0001
0000
,
0001
0000
0010
0100
1000
0000
1000
0000
,
0010
0000
0100
0001
0100
0000
0010
0000
,
1000
0000
1000
0100
0010
0001
0001
0000
,
0100
0000
0010
0100
0010
1000
1000
0000
,
0001
0000
0001
0100
0001
0100
0100
0000
,
0010
0000
1000
0010
0100
0001
1000
1000
,
0010
0010
0100
0101
,
0010
1000
0010
1010
,
0100
0001
0100
0001
1000
0000
1000
0000
,
0010
0100
0001
0100
0010
0000
1000
1000
,
0000
0001
0010
0100
1000
0000
0000
0000
,
1001
0000
0000
0000
;

//---------------dance-single - ----------------
#NOTES:
     dance-single:
     :
     Easy:
     3:
     0.275678,0.241673,0.009103,0.009103,0.000000,212.000000,211.000000,1.000000,1.000000,0.000000,0.000000,0.275678,0.241673,0.009103,0.009103,0.000000,212.000000,211.000000,1.000000,1.000000,0.000000,0.000000:
0000
0000
0000
0000
,
0000
0000
0000
0000
,
0000
0000
0000
0000
,
0000
0000
0000
0000
,
0010
1000
0010
0100
,
0001
0100
0010
1000
,
0010
0100
0001
0100
,
0010
1000
0010
0100
,
0001
0001
1000
0010
,
0100
0100
0001
1000
,
0010
0100
0001
1000
,
0010
0100
0001
1000
,
0010
0010
0100
0001
,
0010
0010
0100
1000
,
0001
0010
0100
1000
,
0010
0100
0001
1000
,
0010
0010
0100
0100
,
0001
1000
0001
1000
,
0010
0100
0010
0100
,
0001
1000
0001
1000
,
0010
0100
0001
1000
,
0010
0100
0001
0001
,
1000
0010
0100
0001
,
1000
0010
0100
0001
,
1000
1000
0010
0010
,
0200
0000
0000
0300
0000
0000
0000
0000
,
0001
0001
1000
1000
,
0010
0010
0100
0100
,
0001
1000
0010
0100
,
0001
0001
1000
1000
,
0010
0010
0100
0100
,
0001
0001
1000
1000
,
0010
0100
0001
1000
,
0010
0100
0010
0100
,
0001
1000
0010
0000
,
1000
0000
0001
0000
0100
0000
0000
0010
,
0000
0010
0000
1000
0000
1000
0000
0001
,
0000
0001
0000
0100
0000
0100
0000
0000
,
0010
1000
0010
0000
,
0100
0000
0001
0000
0100
0000
0000
0010
,
0000
1000
0000
0010
0000
0100
0000
0001
,
0000
1000
0000
0010
0000
0100
0000
0000
,
0001
0001
1000
1000
,
0010
0100
0010
0100
,
0001
1000
0001
1000
,
0010
0100
0001
1000
,
0100
0100
0010
0010
,
0001
1000
0001
1000
,
0010
0100
0001
1000
,
0010
0100
0001
1000
,
0010
0010
0100
0100
,
0001
0001
1000
1000
,
0010
0100
0010
0100
,
0001
1000
0001
1000
,
0010
0100
0001
1000
,
0010
0100
0001
1000
,
0010
0100
0001
1000
,
0010
0100
0001
1000
,
0001
0000
0000
0000
,
1001
0000
0000
0000
;

//---------------dance-single - Copied from----------------
#NOTES:
     dance-single:
     Copied from:
     Beginner:
     2:
     0.072821,0.080558,0.000000,0.000000,0.000000,56.000000,56.000000,0.000000,0.000000,0.000000,0.000000,0.072821,0.080558,0.000000,0.000000,0.000000,56.000000,56.000000,0.000000,0.000000,0.000000,0.000000:
0000
0000
0000
0000
,
0000
0000
0000
0000
,
0000
0000
0000
0000
,
0000
0000
0000
0000
,
0010
0000
0000
0000
,
0010
0000
0000
0000
,
0010
0000
0000
0000
,
0010
0000
0000
0000
,
0100
0000
0000
0000
,
0100
0000
0000
0000
,
0100
0000
0000
0000
,
0100
0000
0000
0000
,
0001
0000
0000
0000
,
0001
0000
0000
0000
,
0001
0000
0000
0000
,
0001
0000
0000
0000
,
1000
0000
0000
0000
,
1000
0000
0000
0000
,
0010
0000
0000
0000
,
0010
0000
0000
0000
,
0010
0000
0000
0000
,
0010
0000
0000
0000
,
1000
0000
0000
0000
,
1000
0000
0000
0000
,
1000
0000
0000
0000
,
1000
0000
0000
0000
,
0001
0000
0000
0000
,
0001
0000
0000
0000
,
0001
0000
0000
0000
,
0001
0000
0000
0000
,
0100
0000
0000
0000
,
0100
0000
0000
0000
,
0100
0000
0000
0000
,
0100
0000
0000
0000
,
0010
0000
0000
0000
,
0010
0000
0000
0000
,
1000
0000
0000
0000
0000
0000
0000
1000
,
0000
0000
0000
0000
,
0010
0000
0000
0000
,
0010
0000
0000
0000
,
0100
0000
0000
0000
0000
0000
0000
0100
,
0000
0000
0000
0000
,
0001
0000
0000
0000
,
0001
0000
0000
0000
,
0001
0000
0000
0000
,
0001
0000
0000
0000
,
1000
0000
0000
0000
,
1000
0000
0000
0000
,
1000
0000
0000
0000
,
1000
0000
0000
0000
,
0010
0000
0000
0000
,
0010
0000
0000
0000
,
0010
0000
0000
0000
,
0010
0000
0000
0000
,
0100
0000
0000
0000
,
0100
0000
0000
0000
,
0100
0000
0000
0000
,
0100
0000
0000
0000
,
0001
0000
0000
0000
,
1000
0000
0000
0000
;
