#TITLE:The Clear Blue Sky;
#SUBTITLE:;
#ARTIST:Tsukasa;
#TITLETRANSLIT:;
#SUBTITLETRANSLIT:;
#ARTISTTRANSLIT:;
#CREDIT:SupremeX;
#BANNER:The Clear Blue Sky.png;
#BACKGROUND:The Clear Blue Sky-bg.png;
#LYRICSPATH:;
#CDTITLE:CDTitle.png;
#MUSIC:The Clear Blue Sky.ogg;
#OFFSET:-1.660;
#SAMPLESTART:55.788;
#SAMPLELENGTH:19.000;
#SELECTABLE:YES;
#BPMS:0.000=178.000;
#STOPS:;
#BGCHANGES:-5.000=theclear.avi.AVI=1.000=1=0=1,
99999=-nosongbg-=1.000=0=0=0 // don't automatically add -songbackground-
;

//---------------dance-single - ----------------
#NOTES:
     dance-single:
     :
     Easy:
     3:
     0.221,0.321,0.011,0.022,0.000:
0000
0000
0000
0000
,
0000
0000
0000
0000
,
0000
0000
0000
0000
,
0000
0000
0000
0000
,
0000
0000
0000
0000
,
0000
0000
0000
0000
,
0000
0000
0000
0000
,
0000
0000
0000
0000
,
1000
0000
0000
1000
0000
0000
0000
0000
,
0000
0000
0001
0100
,
0001
0000
0000
0001
0000
0000
0000
0001
,
0000
0000
1000
0010
,
1000
0000
0000
1000
0000
0000
0000
1000
,
0000
0000
0000
0010
0000
0000
0000
0020
,
0000
0000
0000
0000
,
0030
0000
0000
0000
,
0100
0000
0010
0000
0100
0000
0000
0010
,
0000
0010
0000
0010
0000
0000
0000
0000
,
1000
0000
0001
0000
1000
0000
0000
0001
,
0000
0001
0000
0001
0000
0000
0000
0000
,
1000
0000
0010
0000
1000
0000
0000
1000
,
0000
1000
0000
1000
0000
0000
0000
0000
,
0000
0000
0010
0000
0100
0000
0000
0010
,
0000
0010
0000
0010
0000
0000
0000
0000
,
1000
0000
0000
0001
0000
0000
0000
0000
,
0000
0000
1000
0001
,
1000
0000
0000
1000
0000
0000
0000
0000
,
0000
0000
0010
0100
,
0010
0000
0000
0010
0000
0000
0000
0000
,
0000
0000
1000
0000
,
0001
0000
0000
0010
0000
0000
0100
0000
,
0000
0000
0000
0000
,
1000
0000
0010
0000
1000
0000
0000
0010
,
0000
0010
0000
0010
0000
0000
0000
0000
,
0100
0000
0001
0000
0100
0000
0000
0001
,
0000
0001
0000
0001
0000
0000
0000
0000
,
1000
1000
0010
0010
,
0100
0100
0001
0001
,
1000
0001
1000
0001
,
0100
0010
1000
0001
,
0000
0000
0000
0000
,
1000
0000
0010
0000
1000
0000
0000
0010
,
0000
0010
0000
0010
0000
0000
0000
0000
,
0100
0000
0001
0000
0100
0000
0000
0001
,
0000
0001
0000
0001
0000
0000
0000
0000
,
1000
0000
0010
0000
0100
0000
0000
0010
,
0000
0010
0000
0010
0000
0000
0000
0000
,
1000
0000
0000
0001
0000
0000
0000
1001
,
0000
0000
0000
0000
,
1000
0000
0010
0000
1000
0000
0000
0010
,
0000
0010
0000
0010
0000
0000
0000
0000
,
0100
0000
0001
0000
0100
0000
0000
0001
,
0000
0001
0000
0001
0000
0000
0000
0000
,
1000
0010
1000
0010
,
0000
0000
0000
0100
0000
0001
0000
0100
,
0000
0000
0000
0000
,
0010
0000
0000
0000
,
1000
0000
0000
0000
1000
0000
0000
0001
,
0000
0001
0000
0001
0000
0000
0000
0000
,
1000
0000
0000
0000
0010
0000
0000
0100
,
0000
0100
0000
0100
0000
0000
0000
0000
,
0001
0000
1000
0000
,
0010
0000
0100
0000
,
0001
1000
0010
0100
,
0020
0000
0000
0000
,
0000
0000
0030
0000
;

//---------------dance-single - ----------------
#NOTES:
     dance-single:
     :
     Medium:
     5:
     0.300,0.357,0.087,0.120,0.000:
0000
0000
0000
0000
,
0000
0000
0000
0000
,
0000
0000
0000
0000
,
0000
0000
0000
0000
,
0000
0000
0000
0000
,
0000
0000
0000
0000
,
0000
0000
0000
0000
,
0000
0000
0000
0000
,
1000
0000
0000
2002
0000
0000
0000
0000
,
3003
0000
0010
0100
,
0010
0000
1000
1000
0000
0000
0001
0001
,
0000
0000
1000
0010
,
0100
0000
0000
0001
0000
0001
0000
0001
,
0000
0000
0000
1000
0000
1000
0000
0020
,
0000
0000
0000
0000
,
0030
0000
0000
0000
,
1000
0000
0010
0000
0100
0000
0000
0001
,
0000
0001
0000
0001
0000
0000
0000
0000
,
1000
0000
0010
0000
0100
0000
0000
0100
,
0000
0100
0000
0100
0000
0000
0001
0000
,
1000
0000
0010
0000
0100
0000
0000
0001
,
0000
0001
0000
0001
0000
0000
0000
0000
,
1000
0000
0010
0000
0100
0000
0000
0001
,
0000
0010
0000
0100
0000
0000
0000
0000
,
1000
0000
0010
0010
0000
0000
1000
0000
,
0010
0100
0001
1000
,
0001
0000
1000
1000
0000
0000
0010
0000
,
0100
0010
0100
0001
,
1000
0000
0010
0010
0000
0000
0000
0000
,
0000
0000
1000
0000
,
1001
0000
0000
0110
0000
0000
1001
0000
,
0000
0000
0010
0100
,
0010
0000
1000
0010
1000
0010
0000
0100
,
0000
0100
0000
0001
0000
0000
0010
0000
,
0100
0000
1000
0010
0000
0100
0000
0100
,
0000
0000
0001
0010
,
0100
1000
0001
1000
,
0010
0100
0001
1000
,
0010
1000
0010
0000
0100
0010
0100
0000
,
0001
0001
0001
0001
,
0000
0000
0000
0000
,
1000
0000
0010
0000
0100
0010
0000
0100
,
0000
0100
0000
0100
0000
0000
0001
0000
,
0010
0100
1000
0010
,
0100
0001
1000
0010
,
0100
0010
0100
0100
,
0010
0100
0001
0010
,
0100
0000
0000
1000
0000
1000
0000
1000
,
0000
0000
0001
1000
,
2002
0000
0000
0000
,
3003
0000
0010
0100
,
0010
0000
0100
0100
0000
0000
0001
0001
,
0000
0000
1000
0010
,
1000
0000
0001
1000
0000
0010
0000
0010
,
0000
0000
1000
0001
0000
1000
0000
0202
,
0000
0000
0000
0303
,
2020
0000
0000
3030
,
0100
0000
0001
0000
0100
0000
0000
0010
,
0000
0010
0000
0010
0000
0000
0000
0000
,
1000
0001
0100
0000
,
0000
0000
0000
0000
,
0010
1000
0001
0100
,
0010
1000
0001
0100
,
0010
1000
0001
1000
,
0220
0000
0000
0000
,
0000
0000
0330
0000
;

//---------------dance-single - ----------------
#NOTES:
     dance-single:
     :
     Hard:
     8:
     0.413,0.570,0.120,0.087,0.000:
0000
0000
0000
0000
,
0000
0000
0000
0000
,
0000
0000
0000
0000
,
0000
0000
0000
0000
,
0000
0000
0000
0000
,
0000
0000
0000
0000
,
0000
0000
0000
0000
,
0000
0000
0000
0000
,
0010
0000
1000
1000
0000
0000
0000
0000
,
0000
0000
0010
0010
,
0100
0000
0100
0001
0000
0000
1000
1000
,
0000
0000
0001
0010
,
0100
0000
1000
0100
0000
0100
0000
1000
,
0000
0000
0010
0100
0000
0100
0000
0020
,
0000
0000
0000
0000
,
0000
0030
0000
0000
0000
0000
0000
0000
,
1000
0100
0010
0001
0010
0100
0000
1000
,
0000
1000
0000
0010
0000
0010
0100
0000
,
0100
0000
0001
0010
0100
1000
0000
0001
,
0000
1000
0000
0001
0000
0100
0010
0100
,
0001
1000
0010
0100
0010
1000
0000
0010
,
0000
0010
0000
1000
0000
0001
1000
0001
,
0100
0000
1000
0100
0010
0001
0000
1000
,
0000
0001
0000
0100
0000
1000
0010
1000
,
0001
0000
0100
0200
0000
0000
0000
0000
,
0300
0000
0000
0010
1000
0100
0010
0001
,
0100
0000
0010
0020
0000
0000
0000
0030
,
0000
0000
1000
0100
,
1000
0000
0001
0100
0000
0100
0000
0010
,
0000
0010
0000
0000
1000
0100
0000
0000
,
1100
0000
0000
0011
0000
0000
1001
0000
,
0000
0000
0000
1000
0100
0010
0001
0000
,
0100
0000
0001
0010
0100
1000
0000
0001
,
0000
1000
0000
0001
0000
1000
0100
0010
,
0001
0000
0100
0010
0000
0010
0000
1000
,
0000
0010
0100
0010
,
0100
0001
0010
0100
1000
0100
1000
0001
,
0100
0010
1000
0100
0010
0000
0001
1000
,
0001
0000
1000
0100
1000
0000
0010
0100
,
0001
1000
0001
0100
0010
1000
0001
1000
,
0000
0000
0000
0100
0000
0010
1000
0100
,
1000
0000
0001
0010
0100
1000
0000
0010
,
0000
0011
0000
1100
0000
0010
1000
0100
,
0010
0000
0001
0010
0100
1000
0000
0100
,
0000
1010
0000
0101
0000
0000
1000
2000
,
0000
0000
0000
0000
0000
0000
0000
3000
,
0000
0000
0000
0100
0000
0100
0000
1000
,
0010
0000
0010
1000
0000
1000
0000
0010
,
0000
0000
0000
0100
0000
0001
0010
0100
,
1000
0000
0010
1000
0010
0100
0000
1010
,
0000
0101
0000
0010
0100
0000
0100
0000
,
0010
0000
0010
1000
0000
0000
0001
0002
,
0000
0003
0000
0000
1000
0000
0100
0000
,
0010
0000
0001
0001
0000
1000
0000
0110
,
0000
0000
0001
0001
0000
1000
0000
0200
,
0000
1000
0000
0010
,
0000
1000
0000
0310
,
1000
0100
0010
0001
1000
0100
0000
1000
,
0000
1000
0000
0001
0000
1000
0100
0010
,
0001
1000
0100
1000
0010
0100
0000
0001
,
0000
1000
0000
0010
0000
0100
1000
0100
,
0010
0001
0000
1000
0000
0100
0000
1000
,
0000
0000
0000
0000
0000
0001
0010
0100
,
1000
0010
0000
1000
0000
0001
0000
2002
,
0000
0000
0000
0000
,
0000
0000
0000
3003
0000
0000
0000
0000
;

//---------------dance-single - Copied from----------------
#NOTES:
     dance-single:
     Copied from:
     Beginner:
     1:
     0.044,0.069,0.000,0.000,0.000: // measure 1
0000
0000
0000
0000
,  // measure 2
0000
0000
0000
0000
,  // measure 3
0000
0000
0000
0000
,  // measure 4
0000
0000
0000
0000
,  // measure 5
0000
0000
0000
0000
,  // measure 6
0000
0000
0000
0000
,  // measure 7
0000
0000
0000
0000
,  // measure 8
0000
0000
0000
0000
,  // measure 9
1000
0000
0000
0000
,  // measure 10
0000
0000
0000
0000
,  // measure 11
0001
0000
0000
0000
,  // measure 12
0000
0000
0000
0000
,  // measure 13
1000
0000
0000
0000
,  // measure 14
0000
0000
0000
0000
,  // measure 15
0001
0000
0000
0000
,  // measure 16
0000
0000
0000
0000
,  // measure 17
0100
0000
0000
0000
,  // measure 18
0000
0000
0000
0000
,  // measure 19
0100
0000
0000
0000
,  // measure 20
0000
0000
0000
0000
,  // measure 21
0100
0000
0000
0000
,  // measure 22
0000
0000
0000
0000
,  // measure 23
0100
0000
0000
0000
,  // measure 24
0000
0000
0000
0000
,  // measure 25
0010
0000
0000
0000
,  // measure 26
0000
0000
0000
0000
,  // measure 27
0010
0000
0000
0000
,  // measure 28
0000
0000
0000
0000
,  // measure 29
0010
0000
0000
0000
,  // measure 30
0000
0000
0000
0000
,  // measure 31
0010
0000
0000
0000
,  // measure 32
0000
0000
0000
0000
,  // measure 33
1000
0000
0000
0000
,  // measure 34
0000
0000
0000
0000
,  // measure 35
0001
0000
0000
0000
,  // measure 36
0000
0000
0000
0000
,  // measure 37
1000
0000
0000
0000
,  // measure 38
0000
0000
0000
0000
,  // measure 39
0001
0000
0000
0000
,  // measure 40
0000
0000
0000
0000
,  // measure 41
0000
0000
0000
0000
,  // measure 42
1000
0000
0000
0000
,  // measure 43
0000
0000
0000
0000
,  // measure 44
0100
0000
0000
0000
,  // measure 45
0000
0000
0000
0000
,  // measure 46
0010
0000
0000
0000
,  // measure 47
0000
0000
0000
0000
,  // measure 48
0001
0000
0000
0000
,  // measure 49
0000
0000
0000
0000
,  // measure 50
1000
0000
0000
0000
,  // measure 51
0000
0000
0000
0000
,  // measure 52
0100
0000
0000
0000
,  // measure 53
0000
0000
0000
0000
,  // measure 54
0010
0000
0000
0000
,  // measure 55
0000
0000
0000
0000
,  // measure 56
0001
0000
0000
0000
,  // measure 57
0000
0000
0000
0000
,  // measure 58
1000
0000
0000
0000
,  // measure 59
0000
0000
0000
0000
,  // measure 60
0010
0000
0000
0000
,  // measure 61
0000
0000
0000
0000
,  // measure 62
0100
0000
0000
0000
,  // measure 63
0000
0000
0000
0000
,  // measure 64
0001
0000
0000
0000
;
