#TITLE:TRIP MACHINE ~luv mix~ (Extra Special);
#SUBTITLE:;
#ARTIST:2MB;
#TITLETRANSLIT:;
#SUBTITLETRANSLIT:;
#ARTISTTRANSLIT:;
#CREDIT:SupremeX;
#BANNER:TRIP MACHINE~luv mix~.png;
#BACKGROUND:TRIP MACHINE~luv mix~-bg.png;
#LYRICSPATH:;
#CDTITLE:CDTitle.png;
#MUSIC:TRIP MACHINE~luv mix~.ogg;
#OFFSET:-0.050;
#SAMPLESTART:56.949;
#SAMPLELENGTH:15.000;
#SELECTABLE:YES;
#BPMS:0.000=160.178,16.000=160.142,139.000=80.071,147.000=160.142,184.000=320.284,248.000=160.142;
#STOPS:26.000=0.180
,27.000=0.180
,28.000=0.180
,32.500=0.195
,33.500=0.195
,34.500=0.195
,39.000=0.195
,40.000=0.195
,41.000=0.195
,45.500=0.195
,46.500=0.175
,47.500=0.170
,64.000=0.195
,64.500=0.195
,79.000=0.190
,79.500=0.190
,82.000=0.175
,83.000=0.175
,84.000=0.175
,88.500=0.195
,89.500=0.195
,90.500=0.195
,107.000=0.195
,107.500=0.195
,122.000=0.175
,122.500=0.175
,151.000=0.345
,152.000=0.350
,153.000=0.350
,154.000=0.400
,155.000=0.400
,160.000=0.195
,161.000=0.190
,162.000=0.190
,166.500=0.195
,167.500=0.195
,168.500=0.175
,173.000=0.195
,174.000=0.195
,175.000=0.195
,179.500=0.195
,180.500=0.175
,181.500=0.175
;
#BGCHANGES:24.000=helix1.avi=1.000=0=0=1,
37.000=lightning1.avi=1.000=0=0=1,
50.000=lines4.avi=1.000=0=0=1,
80.000=helix1.avi=1.000=0=0=1,
93.000=ring12.avi=1.000=0=0=1,
123.000=lightning1.avi=1.000=0=0=1,
139.000=line.avi=1.000=0=0=1,
147.000=ring12.avi=1.000=0=0=1,
157.000=TRIP MACHINE~luv mix~-bg.png=1.000=0=0=1,
158.000=spiral1.avi=1.000=0=0=1,
171.000=spiral2.avi=1.000=0=0=1,
184.000=lightning1.avi=1.000=0=0=1,
200.000=robot5.avi=1.000=0=0=1,
216.000=lines4.avi=1.000=0=0=1,
232.000=spiral2.avi=1.000=0=0=1,
248.000=line.avi=1.000=0=0=1,
265.000=TRIP MACHINE~luv mix~-bg.png=1.000=0=0=1,
99999=-nosongbg-=1.000=0=0=0 // don't automatically add -songbackground-
;

//---------------dance-single - ----------------
#NOTES:
     dance-single:
     :
     Challenge:
     9:
     0.563,0.733,0.676,0.076,0.048: // measure 1
0000
0000
0000
0000
,  // measure 2
0000
0000
0000
0000
,  // measure 3
0000
0000
0000
0000
,  // measure 4
0000
0000
0000
0000
,  // measure 5
0000
0000
0000
0000
,  // measure 6
0000
0000
0000
0000
,  // measure 7
1000
0000
0001
0010
0100
1000
0010
0100
,  // measure 8
0001
1000
0010
0110
0000
0001
0000
1000
,  // measure 9
0100
0010
0001
0100
0010
1000
0001
1000
,  // measure 10
1100
0000
0010
0000
0001
1000
0001
0010
,  // measure 11
0100
1000
0001
0100
0010
1010
0000
0001
,  // measure 12
0000
1000
0100
1000
0001
0010
0100
1000
,  // measure 13
0010
0100
0001
0000
1000
0010
1010
0000
,  // measure 14
0001
0100
0110
0000
1000
0100
1100
0000
,  // measure 15
0001
0100
0101
0000
1000
0001
1001
0000
,  // measure 16
0100
0010
0110
0000
1000
0001
1001
0000
,  // measure 17
0110
0110
1000
0100
1100
0000
0001
0100
,  // measure 18
0101
0000
0010
1000
1001
0000
0100
0010
,  // measure 19
0110
0000
0001
1000
1001
0000
0010
0100
,  // measure 20
0001
0000
0001
1000
0001
0000
1100
1100
,  // measure 21
0010
0000
0001
0010
0100
1000
0010
0100
,  // measure 22
0010
1000
0001
1000
0000
0001
0000
0100
,  // measure 23
0010
0100
0001
1000
0010
0100
0001
1000
,  // measure 24
0010
0000
0010
0100
0001
0000
0001
1000
,  // measure 25
0100
0000
0100
0010
0001
0000
0010
0100
,  // measure 26
1000
0000
0001
0100
0001
0000
1000
0100
,  // measure 27
1000
0000
0010
0100
0001
0000
0110
0110
,  // measure 28
1000
0100
1000
0000
0100
0001
0010
0000
,  // measure 29
0100
1000
0010
0000
0100
0001
1000
0000
,  // measure 30
1000
0010
0100
0000
0001
1000
0001
0000
,  // measure 31
0100
0010
0100
0000
0101
0101
0010
0000
,  // measure 32
0010
0000
1000
0000
1000
0001
0100
0000
,  // measure 33
0100
0010
0000
0010
0100
0000
1001
0000
,  // measure 34
1000
0000
0001
0000
0100
0010
1000
0001
,  // measure 35
0100
0110
0000
1000
1001
0000
1000
0010
,  // measure 36
1000
0000
0001
0000
0100
0000
0001
0010
0100
1000
0010
0100
0001
1000
0010
0100
,  // measure 37
0001
1001
1000
0100
0010
0001
1000
1001
0010
0100
1000
0000
1100
0000
0000
0000
,  // measure 38
1000
0000
0010
0010
0010
0000
0101
0000
,  // measure 39
1010
1001
1100
0011
,  // measure 40
0000
0000
0110
0000
1001
0000
0100
0010
,  // measure 41
0100
0001
0010
0100
1000
0010
0100
0001
,  // measure 42
0000
1001
0000
0100
0010
1000
0001
0100
,  // measure 43
0010
1000
0100
0010
0001
0000
1001
0000
,  // measure 44
0010
0100
0010
1000
0100
0010
0001
0100
,  // measure 45
0010
1000
0000
1001
0000
0010
0100
0001
,  // measure 46
1000
0100
0010
0001
1000
0010
1000
0000
,  // measure 47
0001
0010
0100
1000
,  // measure 48
0010
1000
0101
0101
,  // measure 49
1010
1010
1001
1001
,  // measure 50
0101
1010
0101
1010
,  // measure 51
0100
0001
2000
0000
,  // measure 52
3010
0100
0001
1000
,  // measure 53
0001
1000
0110
0110
,  // measure 54
0101
0101
1010
1010
,  // measure 55
0001
1000
0002
0000
,  // measure 56
0103
0001
0010
0100
,  // measure 57
1010
1010
0101
0101
,  // measure 58
1010
0101
1010
1001
,  // measure 59
0001
1000
0020
0000
,  // measure 60
0030
1000
0100
0010
,  // measure 61
0001
0100
0101
0101
,  // measure 62
1010
1010
0101
1010
,  // measure 63
0001
2000
0000
0000
3000
0000
0000
0000
,  // measure 64
0002
0000
0000
0000
0010
0013
0000
0000
,  // measure 65
0100
2000
0000
0000
0000
0000
0000
3000
,  // measure 66
0001
0010
0100
1000
0010
1000
0000
0000
,  // measure 67
1001
0000
2002
0000
0000
0000
0000
3003
;
