#TITLE:TRAGEDY (Almighty Definitive Mix);
#SUBTITLE:;
#ARTIST:OBSESSION;
#TITLETRANSLIT:;
#SUBTITLETRANSLIT:;
#ARTISTTRANSLIT:;
#GENRE:;
#CREDIT:SupremeX;
#BANNER:TRAGEDY.png;
#BACKGROUND:TRAGEDY-bg.png;
#LYRICSPATH:;
#CDTITLE:CDTitle.png;
#MUSIC:TRAGEDY.ogg;
#OFFSET:-0.147866;
#SAMPLESTART:47.080002;
#SAMPLELENGTH:12.000000;
#SELECTABLE:YES;
#BPMS:0.000000=130.000000
;
#STOPS:
;
#BGCHANGES:16.000=rain2.avi=1.000=0=0=1=====,
32.000=nyev3piano.avi=1.000=0=0=1=====,
64.000=6 JumpBack.avi=1.000=0=0=1=====,
80.000=circle11.avi=1.000=0=0=1=====,
102.000=rain3.avi=1.000=0=0=1=====,
118.000=rain1.avi=1.000=0=0=1=====,
134.000=rain3.avi=1.000=0=0=1=====,
150.000=rain1.avi=1.000=0=0=1=====,
166.000=nyev3piano.avi=1.000=0=0=1=====,
206.000=7 Bird.avi=1.000=0=0=1=====,
220.000=TRAGEDY-bg.png=1.000=0=0=1=====,
99999=-nosongbg-=1.000=0=0=0 // don't automatically add -songbackground-
;
#KEYSOUNDS:;
#ATTACKS:;

//---------------dance-single - ----------------
#NOTES:
     dance-single:
     :
     Hard:
     7:
     0.369292,0.432799,0.146877,0.254587,0.068543,264.000000,249.000000,15.000000,26.000000,0.000000,0.000000,0.369292,0.432799,0.146877,0.254587,0.068543,264.000000,249.000000,15.000000,26.000000,0.000000,0.000000:
0000
0000
0000
0000
,
0000
0000
0000
0000
,
0000
0000
0000
0000
,
0000
0000
0000
0000
,
1000
0000
0001
0100
0010
1000
0000
0001
,
1000
0010
0000
0010
1000
0001
0000
0100
,
0010
0000
0010
1000
0001
1000
0000
0001
,
0100
0001
0000
1000
0100
1000
0000
0001
,
0200
0000
0000
0000
0300
0000
0001
0000
1000
0000
0000
0000
0000
0000
0010
1000
,
0010
0101
1010
1001
,
0020
0000
0000
1030
1000
0000
0100
0000
,
0010
0000
0001
0000
0100
0001
0100
0000
,
0002
0000
0000
0000
0000
0000
1003
0000
1000
0000
0000
0000
0000
0000
0010
0100
,
0010
1001
0110
1001
,
0020
0000
0000
1030
1000
0000
0001
0000
,
0100
0010
1000
0000
0001
0100
0010
0000
,
2000
0000
3000
0001
0001
0000
0000
0100
,
0010
0110
1001
0110
,
0020
0000
0030
1000
0001
0000
0000
0001
,
1000
0100
0010
0001
,
2000
0000
3000
0010
0100
0000
0110
0000
,
0002
0000
0003
0100
0001
0000
1001
0000
,
0200
0000
0300
0010
0010
0000
1001
0000
,
2000
0000
3000
0010
0010
0000
1000
0000
,
0001
0010
0100
1000
,
0010
0000
0000
0000
1000
0000
0000
0000
0010
0000
0100
0010
0000
0000
1000
0000
,
0000
0000
0000
0100
0010
0001
1000
0010
,
1000
0000
0001
0000
0100
0000
0000
0000
0010
0000
1000
0010
0000
0000
0100
0000
,
0000
0010
0000
0001
1000
0100
1000
0000
,
0001
0000
1000
0000
0001
0000
0000
0000
0100
0000
0000
1010
0000
0000
0101
0000
,
0000
0000
1000
0000
0010
0000
0000
0000
0100
0000
0000
0100
0000
0000
0001
0000
,
1000
0000
0000
1000
0000
0000
0001
0000
0010
0000
0000
0010
0000
0000
0100
0000
,
2000
0000
3100
0020
0000
0030
0001
2000
,
0000
0000
3001
0000
0001
0000
0000
0000
1000
0000
0010
1000
0000
0000
0001
0000
,
0000
0010
0100
1000
0001
1000
0100
0010
,
0001
0000
0010
0000
0100
0000
1000
0000
0010
0000
1000
0010
0000
0000
0100
0000
,
0000
0000
0001
0000
1000
0100
1000
0000
,
0001
0000
0100
0000
0001
0000
0000
0000
1000
0000
0000
0100
0000
0000
1100
0000
,
0000
0000
0001
0000
0100
0000
0000
0000
0010
0000
0000
0010
0000
0000
1000
0000
,
0001
0000
0000
0001
0000
0000
1000
0000
0100
0000
0000
0100
0000
0000
0010
0000
,
0002
0000
1003
1000
0000
0000
0100
0100
,
0000
0010
0001
0000
0001
0000
1000
0010
,
0000
0010
1000
0000
0001
0000
0001
1000
,
0000
1000
0100
0000
0100
0000
0010
0001
,
0000
0001
1000
0000
1000
0000
0010
0100
,
0000
0100
0001
0000
2000
0000
0100
0000
,
0100
3100
0010
0001
,
0010
0000
0100
0000
1000
0000
0100
0020
,
0001
0001
0001
0031
,
2000
0000
3001
0000
0001
0000
0100
0200
,
0000
0310
0100
0010
1000
0001
0100
0010
,
1000
0001
1000
0000
0020
0000
0030
0000
,
2000
3000
0002
0003
,
0200
0300
0020
0030
,
2000
3000
0002
0003
,
2000
3000
0000
0000
;

//---------------dance-single - ----------------
#NOTES:
     dance-single:
     :
     Medium:
     7:
     0.306344,0.323130,0.039167,0.146877,0.058751,219.000000,215.000000,4.000000,15.000000,0.000000,0.000000,0.306344,0.323130,0.039167,0.146877,0.058751,219.000000,215.000000,4.000000,15.000000,0.000000,0.000000:
0000
0000
0000
0000
,
0000
0000
0000
0000
,
0000
0000
0000
0000
,
0000
0000
0000
0000
,
0100
0000
0001
0000
0001
0000
0000
1000
,
0010
1000
0000
0001
0100
0001
0000
1000
,
1000
0000
0010
0000
0010
0000
0000
0100
,
0001
0100
0000
0010
1000
0010
0000
0100
,
0200
0000
0300
0001
0001
0000
0000
1000
,
1000
0001
0010
0100
,
2000
0000
0000
3010
0010
0000
1000
0000
,
0001
0000
1000
0000
0010
0100
0010
0000
,
0200
0000
0000
0301
0001
0000
0000
1000
,
1000
0001
1000
1001
,
0002
0000
0000
0103
0100
0000
0010
0000
,
1000
1000
0010
0010
,
0200
0000
0300
0001
0001
0000
0000
1000
,
0010
1000
0001
1001
,
2000
0000
3000
0010
0100
0000
0000
0001
,
1000
0100
0010
0001
,
0200
0000
0300
0010
0010
0000
1000
0000
,
0002
0000
0003
0100
0100
0000
0010
0000
,
2000
0000
3000
0010
0010
0000
1000
0000
,
0002
0000
0003
0100
0100
0000
0010
0000
,
1000
0001
0100
0001
,
1000
0000
0000
0000
0010
0000
0000
0000
1000
0000
0000
1001
0000
0000
0001
0000
,
0000
0000
0000
0100
0010
0000
0010
0000
,
1000
0000
0000
0000
1000
0000
0000
0000
0001
0000
0000
0101
0000
0000
0100
0000
,
0000
0010
0000
1000
0001
0000
0001
0000
,
0100
0000
0000
0000
0100
0000
0000
0000
0010
0000
0000
1000
0000
0000
1000
0000
,
0000
0000
0001
0000
0001
0000
0000
0000
0100
0000
0000
0100
0000
0000
0010
0000
,
0010
0000
0000
1000
0000
0000
1000
0000
0001
0000
0000
0001
0000
0000
0100
0000
,
0010
0000
1000
0200
0000
0300
0010
0002
,
0000
0000
1003
0000
0000
0000
0000
0000
1000
0000
0000
1000
0000
0000
0000
0000
,
0000
0010
0100
0001
,
1000
0000
0000
0000
0010
0000
0000
0000
0100
0000
0000
0001
0000
0000
0100
0000
,
0000
0010
1000
1000
,
0001
0000
0000
0000
0001
0000
0000
0000
0100
0000
0000
0010
0000
0000
0100
0000
,
0000
0000
0001
0000
1000
0000
0000
0000
0010
0000
0000
0010
0000
0000
0100
0000
,
0100
0000
0000
0001
0000
0000
0001
0000
1000
0000
0000
1000
0000
0000
0001
0000
,
0100
0000
0010
0010
0000
0000
1000
1000
,
0000
0001
0100
0000
0100
0000
0010
1000
,
0000
1000
0001
0000
0100
0000
0001
0100
,
0000
0100
0001
0000
0001
0000
1000
0010
,
0000
0010
0100
0000
0100
0000
0010
1000
,
0000
1000
0001
0000
0100
0000
0010
0000
,
0100
0010
1000
0100
,
0010
0000
0001
0000
0100
0000
0010
1000
,
0010
1000
0010
0100
,
0002
0000
0003
0000
2000
0000
3000
0020
,
0000
0030
0100
0000
0001
0000
0100
0000
,
0010
1000
0010
0000
,
0100
0000
0001
0000
,
1000
0000
0010
0000
,
0100
0000
0001
0000
,
1000
0000
0000
0000
;

//---------------dance-single - ----------------
#NOTES:
     dance-single:
     :
     Easy:
     3:
     0.194438,0.242348,0.009792,0.019584,0.000000,139.000000,138.000000,1.000000,2.000000,0.000000,0.000000,0.194438,0.242348,0.009792,0.019584,0.000000,139.000000,138.000000,1.000000,2.000000,0.000000,0.000000:
0000
0000
0000
0000
,
0000
0000
0000
0000
,
0000
0000
0000
0000
,
0000
0000
0000
0000
,
0001
0001
1000
1000
,
0010
0010
0100
0100
,
0001
0001
1000
1000
,
0010
0010
0100
0100
,
0001
0000
1000
0000
,
0010
0100
0010
0100
,
0001
0000
1000
0010
,
0010
0100
0100
0001
,
0001
0000
1000
0000
,
0010
0100
0010
0100
,
0001
0000
1000
0010
,
0010
0100
0100
0001
,
0001
0000
1000
0000
,
0010
0100
0001
1000
,
0010
0000
0100
0000
,
0001
0100
0010
1000
,
0001
0000
0000
0100
0100
0000
0000
0000
,
0010
0000
0000
1000
1000
0000
0000
0000
,
0001
0000
0000
0100
0100
0000
0000
0000
,
0010
0000
0000
1000
0000
2000
0000
0000
,
0000
0000
0000
0000
,
0000
0000
3000
0000
0010
0000
0000
0100
,
0000
0000
0001
1000
,
0010
0000
0100
0000
0001
0000
0000
0001
,
0000
0000
1000
0010
,
0100
0000
0001
0000
1000
0000
0000
1000
,
0000
0000
0010
0100
,
0010
1000
0001
0000
,
0001
0000
0000
0100
0000
0000
0000
0010
,
0000
0000
0000
0000
1000
0000
0000
0001
,
0000
0000
0100
0010
,
1000
0000
0001
0000
0100
0000
0000
0010
,
0000
0000
1000
1000
,
0001
0000
0001
0000
0100
0000
0000
0010
,
0000
0000
1000
0001
,
0100
0010
1000
0000
,
1001
0000
0000
0010
0000
0000
0000
0100
,
0000
0000
0001
0001
,
0000
0000
1000
1000
,
0000
0000
0010
0010
,
0000
0000
0100
0100
,
0000
0001
2000
0000
,
0000
0000
0000
3000
,
0010
0000
0100
0000
0001
0000
0010
0010
,
0000
0000
0000
0000
,
0100
0000
0000
0000
1000
0000
0000
1000
,
0000
0000
0001
0000
,
1000
0000
0010
0000
,
0100
0000
0001
0000
,
1000
0000
0010
0000
,
0100
0000
0001
0000
,
1000
0000
0000
0000
;

//---------------dance-single - Copied from----------------
#NOTES:
     dance-single:
     Copied from:
     Beginner:
     1:
     0.058751,0.075642,0.009792,0.000000,0.000000,42.000000,41.000000,1.000000,0.000000,0.000000,0.000000,0.058751,0.075642,0.009792,0.000000,0.000000,42.000000,41.000000,1.000000,0.000000,0.000000,0.000000:
0000
0000
0000
0000
,
0000
0000
0000
0000
,
0000
0000
0000
0000
,
0000
0000
0000
0000
,
0001
0000
0000
0000
,
0001
0000
0000
0000
,
0001
0000
0000
0000
,
0001
0000
0000
0000
,
0100
0000
0000
0000
,
0100
0000
0000
0000
,
0100
0000
0000
0000
,
0000
0000
0000
0000
,
0010
0000
0000
0000
,
0010
0000
0000
0000
,
0010
0000
0000
0000
,
0000
0000
0000
0000
,
1000
0000
0000
0000
,
1000
0000
0000
0000
,
1000
0000
0000
0000
,
0010
0000
0000
0000
,
0010
0000
0000
0000
,
0100
0000
0000
0000
,
0100
0000
0000
0000
,
0001
0000
0000
0000
,
0000
0000
0000
0000
,
0000
0000
1000
0000
,
0000
0000
1000
0000
,
0000
0000
0010
0000
,
0000
0000
0010
0000
,
0000
0000
0100
0000
,
0000
0000
0100
0000
,
0000
0000
0100
0000
,
0000
0000
0000
0000
,
0000
0000
0001
0000
,
0000
0000
0001
0000
,
0000
0000
0010
0000
,
0000
0000
0010
0000
,
0000
0000
0100
0000
,
0000
0000
0100
0000
,
0000
0000
1000
0000
,
0000
1000
0000
0000
,
0000
0000
0010
0000
,
0000
0000
0010
0000
,
0000
0000
0010
0000
,
0000
0000
0010
0000
,
0000
0000
0100
0000
,
0000
0000
0000
0000
,
0100
0000
0000
0000
,
0000
0000
0000
0000
,
0100
0000
0000
0000
,
0000
0000
0000
0000
,
0000
0000
0110
0000
;
