#TITLE:THE SUN;
#SUBTITLE:;
#ARTIST:Tatsh;
#TITLETRANSLIT:;
#SUBTITLETRANSLIT:;
#ARTISTTRANSLIT:;
#GENRE:;
#CREDIT:SupremeX;
#BANNER:THE SUN.png;
#BACKGROUND:THE SUN-bg.png;
#LYRICSPATH:;
#CDTITLE:CDTitle.png;
#MUSIC:THE SUN.ogg;
#OFFSET:-1.123;
#SAMPLESTART:55.490002;
#SAMPLELENGTH:12.000000;
#SELECTABLE:YES;
#BPMS:0.000000=172.039993
,116.000000=86.019997
,132.000000=172.039993
;
#STOPS:132.000000=1.220000,
135.000000=0.180000
;
#BGCHANGES:16.000=numbers3.avi=1.000=0=0=1=====,
32.000=text15.avi=1.000=0=0=1=====,
48.000=warp.avi=1.000=0=0=1=====,
80.000=wave145.avi=1.000=0=0=1=====,
116.000=space1.avi=1.000=0=0=1=====,
132.000=THE SUN-bg.png=1.000=0=0=1=====,
136.000=wave3.avi=1.000=0=0=1=====,
168.000=wave145.avi=1.000=0=0=1=====,
200.000=warp.avi=1.000=0=0=1=====,
216.000=wave3.avi=1.000=0=0=1=====,
232.000=mirrorb_a.avi=1.000=0=0=1=====,
264.000=text15.avi=1.000=0=0=1=====,
280.000=numbers3.avi=1.000=0=0=1=====,
296.000=wave145.avi=1.000=0=0=1=====,
304.000=THE SUN-bg.png=1.000=0=0=1=====,
99999=-nosongbg-=1.000=0=0=0 // don't automatically add -songbackground-
;
#KEYSOUNDS:;
#ATTACKS:;

//---------------dance-single - ----------------
#NOTES:
     dance-single:
     :
     Hard:
     10:
     0.580749,0.659454,0.183646,0.191993,0.129387,487.000000,465.000000,22.000000,23.000000,0.000000,0.000000,0.580749,0.659454,0.183646,0.191993,0.129387,487.000000,465.000000,22.000000,23.000000,0.000000,0.000000:
0000
0000
0000
0000
,
0000
0000
0000
0000
,
0000
0000
0000
0000
,
0000
0000
0000
0000
,
0000
1000
0100
0010
,
0001
1000
0010
1000
,
0001
0100
0010
1000
,
2002
0000
0000
0000
0000
0000
0000
3003
,
1000
0010
0100
0001
1000
0010
0100
0001
,
0010
0100
1000
0010
0100
0010
1000
0001
,
1000
0010
0100
0001
0100
0010
1000
0100
,
0010
0001
1000
0010
1000
0001
0100
0010
,
0110
0000
1000
0000
0001
0010
0100
1000
,
1100
0000
0011
0000
0001
0100
0010
1000
,
1010
0000
0100
0001
0100
0010
1000
0010
,
0100
0001
0010
0100
1000
0100
0010
0001
,
0011
1000
0100
0010
0001
0100
0001
0100
,
0101
1000
0100
1000
0100
0010
0001
0100
,
0110
1000
0100
1000
0100
1000
0010
0000
,
1000
0100
0010
0001
1000
0100
1000
0100
,
0020
0001
0001
0031
,
0002
1000
1000
1003
,
2000
0100
0100
3100
,
0100
1000
0010
1000
0001
0100
0001
0010
,
0100
1000
0100
1000
0010
0100
0001
1000
,
0001
0100
0010
1000
0001
0100
0001
1000
,
0010
1000
0100
0010
0001
0100
0010
1000
,
0001
1000
0010
0100
0001
0010
0100
1000
,
2000
0000
0000
0000
0000
0000
0000
3000
,
0020
0230
0302
2003
,
3200
0320
0032
0000
,
0023
0230
2300
3020
,
0230
0000
0302
0000
,
1003
0000
0000
0000
,
1000
0000
0000
0010
0000
0000
1000
0000
0000
0010
0000
0000
1000
0000
1000
0000
,
0001
0000
0000
0100
0000
0000
0001
0000
0000
0100
0000
0000
0001
0000
0001
0000
,
1000
0000
0000
0100
0000
0000
0010
0000
0000
0001
0000
0000
0100
0000
0100
0000
,
0010
0000
0000
1000
0000
0000
0100
0000
0000
0010
0000
0000
0001
0000
0001
0000
,
1000
0000
0000
0010
0100
0000
0010
0100
0000
0010
0100
0000
0001
0000
0010
0000
,
0100
0000
0000
1000
0100
0000
1000
0100
0000
1000
0100
0000
0010
0000
0001
0000
,
1000
0000
0000
0010
0100
0000
0010
0100
0000
0010
1000
0000
0001
0000
1000
0000
,
0001
0100
0010
1000
0001
0100
0001
0000
,
1000
0101
1010
1001
,
0001
0000
1000
0010
1000
0000
1010
0000
,
0100
0101
1010
1001
,
0010
1000
0100
0010
0001
0010
0100
0000
,
1000
0100
1000
0100
0010
0001
0010
0000
,
0100
1000
0010
0100
0001
1000
0010
0000
,
1000
0100
0010
0001
1000
0000
1001
0000
,
0001
0100
0001
1000
0100
1000
0100
0000
,
0010
0001
0010
0100
1000
0010
1000
1000
,
0001
0100
0001
1000
0001
0100
0010
0010
,
1000
0100
0010
0001
0010
0100
1000
1000
,
0010
0100
0001
1000
0010
0100
0001
0001
,
1000
0000
0000
0100
1000
0000
0100
1000
0000
0100
1000
0000
0010
0000
0010
0000
,
0100
0000
0000
0001
0100
0000
0001
0100
0000
0001
0100
0000
0010
0000
0010
0000
,
1000
0000
0000
0010
1000
0000
0010
1000
0000
0010
1000
0000
0100
0000
0100
0000
,
0010
0000
0000
0001
0010
0000
0001
0010
0000
0001
0010
0000
0001
0000
0001
0000
,
1000
0100
0010
0001
1000
0010
1000
0001
,
0100
0001
1000
0100
0010
0001
1000
0010
,
0100
0001
1000
0100
1000
0010
1000
0010
,
0100
0001
0100
0010
1000
0000
0001
0000
,
1002
1000
1000
1000
,
1000
1003
0001
0100
,
0001
1000
0100
1000
0100
0010
0001
0010
,
0001
1000
0010
1000
0100
0010
0001
0100
,
0001
1000
1001
0001
,
0101
1000
1010
0001
,
0110
1000
0100
0010
0001
0100
0001
1000
,
0020
1000
1000
1030
,
0001
0010
0100
1000
0010
1000
0001
0000
,
0100
0010
1000
0001
0100
0010
1000
0000
,
0001
0010
0100
1000
0100
1000
0001
0100
,
0010
0000
1000
0000
0001
0000
0100
0000
0010
0000
1000
0000
0001
0000
0100
0001
,
0100
0000
0001
0000
1000
0000
0010
0000
0100
0000
0001
0000
1000
0000
0010
0100
,
0010
0100
0001
1000
0100
0010
0001
1000
,
2002
0000
0000
0000
,
0000
0000
0000
0000
,
0000
0000
0000
0000
,
3003
0000
0000
0000
;

//---------------dance-single - ----------------
#NOTES:
     dance-single:
     :
     Challenge:
     11:
     0.722657,1.088100,0.308858,0.233731,0.438245,606.000000,569.000000,37.000000,28.000000,0.000000,0.000000,0.722657,1.088100,0.308858,0.233731,0.438245,606.000000,569.000000,37.000000,28.000000,0.000000,0.000000:
0000
0000
0000
0000
,
0000
0000
0000
0000
,
0000
0000
0000
0000
,
0000
0000
0000
0000
,
0000
0000
1000
0100
1000
0000
0100
0000
0010
0000
0001
0010
0001
0000
0010
0000
,
0001
0000
0100
0010
0100
0000
0010
0000
1000
0000
0010
0100
0010
0000
1000
0000
,
0100
0000
0010
0001
0010
0000
0001
0000
0010
0000
0100
1000
0100
0000
1000
0000
,
0020
0000
0000
0000
0000
0000
0000
0030
,
0100
0001
0100
0000
0001
0000
0010
0000
0100
0000
1000
0010
1000
0000
0001
0000
,
0010
0000
0100
1000
0100
0000
0010
0000
0001
0000
1000
0010
1000
0000
0001
0000
,
0010
0000
0100
1000
0100
0000
1000
0000
0001
0000
0100
0001
0100
0000
0001
0000
,
1000
0000
0010
1000
0010
0000
1000
0000
0100
0000
0010
0001
0010
0000
0001
0000
,
0110
1000
0100
0010
0001
0010
0100
1000
,
1100
0010
0001
0010
0100
1000
0010
1000
,
1010
0100
0001
0010
0100
1000
0100
0010
,
0011
0100
1000
0010
1000
0001
0100
0001
,
0101
1000
0100
0010
0001
0100
0010
1000
,
1100
0010
0001
0010
1000
0100
0010
0001
,
0101
1000
0100
1000
0100
1000
0001
0100
,
0110
0001
1000
0010
0100
0001
1000
0100
,
0020
0000
0000
0000
0001
0000
0000
0000
0001
0000
0000
0000
0031
0000
0001
0010
,
0002
0000
0000
0000
1000
0000
0000
0000
1000
0000
0000
0000
1003
0000
1000
0010
,
2000
0100
0100
3100
,
1000
0100
0010
0001
0100
0010
1000
0010
,
1010
0100
0001
0100
0010
1000
0010
1000
,
1100
0010
0001
0010
0100
1000
0100
0010
,
0011
0100
1000
0100
0010
0001
1000
0001
,
1001
1000
0100
1000
0001
0010
0100
1000
,
2000
0000
0000
0000
0000
0000
0000
3000
,
0120
0100
0230
0001
0302
1000
2003
0000
,
3200
0000
0320
0000
0032
0010
0010
0010
,
0023
0000
0230
0000
2300
0010
3020
0000
,
0230
0001
0001
0001
0302
0000
0000
0000
,
1003
0000
0000
0000
,
1000
0000
0000
1000
0000
0000
0010
0000
0000
0100
0000
0000
0001
0000
0101
0000
,
0010
0000
0000
0010
0000
0000
1000
0000
0000
0001
0000
0000
1000
0000
1010
0000
,
0001
0000
0000
0010
0000
0000
0100
0000
0000
1000
0000
0000
0100
0000
1100
0000
,
0010
0000
0000
0001
0000
0000
0010
0000
0000
0100
0000
0000
1000
0000
1010
0000
,
0100
0000
0000
0001
0010
0000
0100
1000
0000
0001
1000
0000
0001
0000
0011
0000
,
0100
0000
0000
1000
0100
0000
0010
0001
0000
1000
0001
0000
1000
0000
1100
0000
,
0010
0000
0000
0001
0100
0000
0010
1000
0000
0001
1000
0000
0010
0000
1010
0000
,
1000
0100
0010
0001
0100
0001
0100
0001
,
0110
1100
0011
1010
,
1001
0000
0010
0100
1000
0000
1100
0000
,
0011
0110
1100
1001
,
0010
1000
0100
0010
0001
1000
0101
0000
,
1000
0100
1000
0001
0010
0100
1100
0000
,
0010
0001
0010
0100
1000
0100
1100
0000
,
0010
0001
0010
0100
1000
0000
0101
0000
,
0010
0100
0010
1000
0001
1000
1001
0000
,
0100
0000
0010
0100
0010
0000
0010
0100
0010
0000
1000
0000
0100
0000
0010
0000
,
0001
0100
0001
0000
0001
0100
0001
0000
1000
0000
0100
0000
0010
0000
0001
0000
,
1000
0100
1000
0000
1000
0100
1000
0000
0001
0000
0100
0000
0010
0000
1000
0000
,
0100
0010
0100
0000
0100
0010
0100
0000
0001
0000
0010
0000
0100
0000
1000
0000
,
0001
0000
0000
0001
0100
0000
0010
1000
0000
0010
0100
0000
0001
0000
0001
0000
,
1000
0000
0000
1000
0010
0000
0100
0001
0000
1000
0001
0000
1000
0000
1000
0000
,
0010
0000
0000
0100
1000
0000
0001
0010
0000
0100
1000
0000
0010
0000
0010
0000
,
0100
0000
0000
0001
0010
0000
0100
1000
0000
0001
1000
0000
0100
0000
0100
0000
,
0010
0001
0010
0100
1000
0010
0100
0001
,
1000
0000
0001
0000
1000
0000
0100
0000
0010
0000
0001
0100
0001
0000
1000
0010
,
1000
0001
1000
0001
0010
0100
1000
0010
,
0100
0001
1000
0010
1000
0000
1001
0000
,
1000
0010
1000
0010
0100
0001
0100
0001
,
1000
0010
1000
0000
0002
0000
0013
0000
,
1100
0000
1000
0100
1000
0100
1000
0000
0010
1000
0010
1000
0010
0000
0100
0001
,
0100
0001
0100
0000
0010
1000
0010
1000
0010
0000
0100
0001
0100
0001
0100
0001
,
2000
3020
0130
0200
,
0301
0002
1003
2000
,
3010
1000
0100
0010
0001
0100
0010
1000
,
0020
0230
0302
1003
,
0001
0100
0000
0001
0100
0000
0010
1000
0000
0010
1000
0000
0001
0100
0000
0001
,
0100
0000
0010
1000
0000
0010
1000
0000
0001
0100
0000
0001
0100
0000
0000
0000
,
0010
1000
0001
0100
0010
1000
0001
0100
0010
1000
0001
0100
0010
1000
0000
0000
,
0001
0100
0001
0100
0001
0100
0010
1000
0010
1000
0010
1000
0010
0000
0000
0000
,
1000
0100
1000
0100
1000
0010
0100
0010
0100
0010
1000
0001
1000
0010
0100
0001
,
1000
0001
1000
0010
1000
0001
0100
0010
1000
0001
0100
0010
1000
0001
0100
0010
,
2000
0000
0000
0000
,
0000
0000
0000
0000
,
0000
0000
0000
0000
,
3000
0000
0000
0000
;

//---------------dance-single - ----------------
#NOTES:
     dance-single:
     :
     Medium:
     8:
     0.431686,0.494591,0.075128,0.075128,0.100170,362.000000,353.000000,9.000000,9.000000,0.000000,0.000000,0.431686,0.494591,0.075128,0.075128,0.100170,362.000000,353.000000,9.000000,9.000000,0.000000,0.000000:
0000
0000
0000
0000
,
0000
0000
0000
0000
,
0000
0000
0000
0000
,
0000
0000
0000
0000
,
0010
0100
0001
1000
,
0001
0010
0100
1000
,
0010
0100
0001
1000
,
0001
0000
0000
0000
,
1000
0010
1000
0001
,
0100
0001
1000
0100
,
0010
0001
1000
0010
,
1000
0001
0100
0010
,
1000
0000
0001
0000
1000
0010
0100
0000
,
0100
0000
0001
0000
1000
0100
0010
0000
,
0001
0000
0001
0000
1000
0010
0100
0000
,
0100
0001
0010
0100
1000
0010
0100
0001
,
1000
0000
0001
0000
0100
0001
0100
0000
,
0001
0000
1000
0000
0010
1000
0010
0000
,
0100
0000
0100
0000
0001
0010
0100
0000
,
1000
0010
0100
0001
1000
0010
1000
0001
,
0100
0000
0001
0000
1000
0001
1000
0000
,
0001
0000
0010
0000
0100
1000
0100
0000
,
0010
0000
0001
0100
0001
0000
1000
0000
,
0001
0010
0100
0000
1000
0010
0100
0000
,
0001
1000
0001
0000
1000
0100
0010
0000
,
0001
0100
0001
0000
1000
0010
0100
0000
,
0001
0010
0100
0000
1000
0010
1000
0000
,
0001
0100
0010
1000
0010
0100
0001
1000
,
0020
0000
0000
0030
,
0100
0001
1000
0010
,
0100
0000
0001
0000
0020
0000
0000
0030
,
0100
1000
0001
1000
,
0020
0000
0230
0000
,
0301
0000
0000
0000
,
0001
0000
0000
0100
0000
0000
0001
0000
0000
1000
0000
0000
0010
0000
0010
0000
,
0100
0000
0000
0001
0000
0000
0100
0000
0000
0010
0000
0000
1000
0000
1000
0000
,
0100
0000
0000
0010
0000
0000
0001
0000
0000
0100
0000
0000
0001
0000
0001
0000
,
0010
0000
0000
0100
0000
0000
1000
0000
0000
0010
0000
0000
1000
0000
1000
0000
,
0001
0000
0000
0100
0000
0000
0001
0000
0000
1000
0000
0000
0010
0000
0010
0000
,
1000
0000
0000
0100
0000
0000
0010
0000
0000
0001
0000
0000
0100
0000
0100
0000
,
0010
0000
0000
1000
0000
0000
0001
0000
0000
1000
0000
0000
0001
0000
0001
0000
,
0100
0000
0000
0010
0000
0000
1000
0000
0000
0001
0000
0000
1000
0000
1000
0000
,
0010
0100
0001
1000
,
0010
0000
0100
0001
1000
0000
0101
0000
,
1000
0010
0100
0001
,
1000
0100
0010
0001
0100
0010
1000
0001
,
1000
0000
0010
0000
0100
0001
0100
0000
,
0010
0000
1000
0000
0001
1000
0001
0000
,
0100
0010
1000
1001
,
0010
0000
1000
0100
0010
0000
0001
0000
,
0100
0010
1000
0001
0100
0010
0000
0000
,
1000
0010
0100
0001
1000
0010
0100
0000
,
0001
0010
0100
1000
0010
0100
0001
0000
,
1000
0010
0100
0001
1000
0010
0100
0000
,
0001
0000
0000
1000
0000
0000
0001
0000
1000
0000
0000
0000
0010
0000
0010
0000
,
0100
0000
0000
0001
0000
0000
0100
0000
0010
0000
0000
0000
1000
0000
1000
0000
,
0001
0000
0000
0010
0000
0000
0100
0000
1000
0000
0000
0000
0001
0000
0001
0000
,
0100
0000
0010
1000
0010
0000
1010
0000
,
0001
0010
0100
1000
,
0010
0100
0001
1000
,
0000
0102
0100
0100
,
0100
0100
0103
0001
,
2000
0010
0010
0010
,
0010
3010
0001
0100
,
0002
1000
1000
1000
,
1000
1003
0010
0000
,
0100
0001
0101
1000
,
1001
0010
0100
0001
,
0110
1000
0100
0010
,
0011
0001
0010
0100
,
1000
0000
0000
0100
0000
0000
0010
0000
0000
0001
0000
0000
1000
0000
0000
0010
,
0000
0000
0100
0000
0000
0001
0000
0000
1000
0000
0000
0001
0000
0000
0100
0000
,
0001
1000
0100
0010
,
0001
0100
0001
0000
1000
0100
0010
0000
,
0001
0000
0001
0000
1000
0100
1000
0000
,
0001
0000
0100
0000
0010
1000
0010
0000
,
2002
0000
0000
0000
,
0000
0000
0000
0000
,
0000
0000
0000
0000
,
3003
0000
0000
0000
;

//---------------dance-single - ----------------
#NOTES:
     dance-single:
     :
     Easy:
     4:
     0.338671,0.395673,0.058433,0.075128,0.000000,284.000000,277.000000,7.000000,9.000000,0.000000,0.000000,0.338671,0.395673,0.058433,0.075128,0.000000,284.000000,277.000000,7.000000,9.000000,0.000000,0.000000:
0000
0000
0000
0000
,
0000
0000
0000
0000
,
0000
0000
0000
0000
,
0000
0000
0000
0000
,
0001
0010
0100
1000
,
0010
0100
0001
0010
,
0100
1000
0010
0100
,
0002
0000
0000
0000
,
1003
1000
0010
0010
,
0100
0100
0001
0001
,
1000
0010
0100
0001
,
1000
0010
0100
0001
,
1000
0010
1000
0010
,
0100
0001
0100
0001
,
0010
0100
1000
0010
,
0100
0001
1000
0010
,
1000
1000
0001
0001
,
0100
0100
0010
0010
,
1000
0001
0100
0010
,
1000
0010
0100
0001
,
1000
0010
1000
0010
,
0100
0001
0100
0001
,
0010
0100
1000
0010
,
0100
0001
1000
0010
,
0100
0001
0001
0001
,
1000
1000
1000
1000
,
0010
0010
0010
0010
,
0100
0100
0100
0100
,
0020
0000
0000
0000
,
1030
1000
0010
0100
,
0001
1000
0002
0000
,
0103
0010
0100
1000
,
0020
0000
2030
0000
,
3001
0000
0000
0000
,
1000
0010
0100
0100
,
0001
1000
0010
0010
,
1000
0001
0100
0010
,
1000
1000
0001
0001
,
0100
0010
1000
0001
,
0001
0010
0100
1000
,
0010
0100
1000
1000
,
0001
0100
0010
1000
,
0001
1000
1010
0001
,
0100
0010
1000
1001
,
0010
0100
0001
0101
,
0010
0100
1000
0001
,
0100
0010
1000
0010
,
0100
0010
0100
0001
,
1000
0010
0100
0001
,
0010
0100
1000
0010
,
0100
0010
0100
0110
,
0001
1000
0001
1001
,
0100
0010
1000
0011
,
0100
1000
0001
1100
,
0010
0010
0100
0100
,
0001
0001
1000
1000
,
0010
0100
0001
1000
,
0010
0010
0100
0100
,
0001
0001
0010
0100
,
1000
1000
0010
0100
,
0002
1000
1000
1000
,
1000
0000
1000
0003
0010
0000
0100
0000
,
2000
0010
0010
0010
,
0010
3010
0100
0001
,
0020
0100
0100
0100
,
0100
0100
0100
0130
,
1000
0010
0100
0001
,
1000
0010
0100
0001
,
1000
0010
0100
0001
,
1000
0100
0010
0001
,
1000
0010
1000
0010
,
0100
0001
0100
0001
,
0010
0100
1000
0010
,
0100
0001
0010
0100
,
1000
1000
1000
1000
,
0010
0010
0010
0010
,
0200
0000
0000
0000
,
0000
0000
0000
0000
,
0000
0000
0000
0000
,
0300
0000
0000
0000
;

//---------------dance-single - Copied from----------------
#NOTES:
     dance-single:
     Copied from:
     Beginner:
     2:
     0.088245,0.164864,0.000000,0.025043,0.000000,74.000000,74.000000,0.000000,3.000000,0.000000,0.000000,0.088245,0.164864,0.000000,0.025043,0.000000,74.000000,74.000000,0.000000,3.000000,0.000000,0.000000:
0000
0000
0000
0000
,
0000
0000
0000
0000
,
0000
0000
0000
0000
,
0000
0000
0000
0000
,
0001
0000
0000
0000
,
0001
0000
0000
0000
,
0001
0000
0000
0000
,
2000
0000
0000
0000
,
3000
0000
0000
0000
,
0000
1000
0000
0000
,
0000
1000
0000
0000
,
0000
1000
0000
0000
,
0010
0000
0000
0000
,
0100
0000
0000
0000
,
0010
0000
0000
0000
,
0100
0000
0000
0000
,
0001
0000
0000
0000
,
1000
0000
0000
0000
,
0001
0000
0000
0000
,
1000
0000
0000
0000
,
0010
0000
0000
0000
,
0100
0000
0000
0000
,
0010
0000
0000
0000
,
0100
0000
0000
0000
,
0001
0000
0000
0000
,
1000
0000
0000
0000
,
0001
0000
0000
0000
,
1000
0000
0000
0000
,
0020
0000
0000
0000
,
0030
0000
1000
0000
,
1000
0000
1000
0000
,
0001
0000
0001
0000
,
0001
0000
0100
0000
,
0100
0000
0000
0000
,
0010
0000
0000
0010
,
0000
0000
0000
0010
,
0000
0000
0000
0010
,
0000
0000
0000
0010
,
1000
0000
0000
1000
,
0000
0000
0000
1000
,
0000
0000
0000
1000
,
0000
0000
1000
0000
,
0001
0000
0000
0000
,
0001
0000
0000
0000
,
0001
0000
0000
0000
,
0001
0000
0000
0000
,
0100
0000
0000
0000
,
0010
0000
0000
0000
,
0100
0000
0000
0000
,
0010
0000
0000
0000
,
1000
0000
0000
0001
,
0000
0000
0000
1000
,
0000
0000
0000
0001
,
0000
0000
0000
1000
,
0010
0000
0000
0000
,
0100
0000
0000
0000
,
0010
0000
0000
0000
,
0100
0000
0000
0000
,
0001
0000
0000
0000
,
0000
0000
0001
0000
,
0000
0000
0000
0000
,
0000
0000
0001
0000
,
0000
0000
0000
0000
,
0000
0000
1000
0000
,
0000
0000
0000
0000
,
0000
0000
0000
0000
,
1000
0000
0000
0000
,
0010
0000
0000
0000
,
0100
0000
0000
0000
,
0010
0000
0000
0000
,
1000
0000
0000
0000
,
0001
0000
0000
0000
,
0100
0000
0000
0000
,
0010
0000
0000
0000
,
1000
0000
0000
0000
,
0001
0000
0000
0000
,
2000
0000
0000
0000
,
0000
0000
0000
0000
,
0000
0000
0000
0000
,
3000
0000
0000
0000
;
