#TITLE:So Deep (K.O.G G3 mix);
#SUBTITLE:;
#ARTIST:SILVERTEAR;
#TITLETRANSLIT:;
#SUBTITLETRANSLIT:;
#ARTISTTRANSLIT:;
#GENRE:;
#CREDIT:SupremeX;
#BANNER:So Deep (K.O.G G3 mix)-bn.png;
#BACKGROUND:So Deep (K.O.G G3 mix)-bg.png;
#LYRICSPATH:;
#CDTITLE:CDTitle.png;
#MUSIC:So Deep (K.O.G G3 mix).ogg;
#OFFSET:-0.165986;
#SAMPLESTART:50.139999;
#SAMPLELENGTH:12.000000;
#SELECTABLE:YES;
#BPMS:0.000000=170.000000
;
#STOPS:
;
#BGCHANGES:8.000=snow4.avi=1.000=0=0=1=====,
40.000=symbols2.avi=1.000=0=0=1=====,
72.000=wheel.avi=1.000=0=0=1=====,
104.000=blizzard1.avi=1.000=0=0=1=====,
136.000=So Deep (K.O.G G3 mix)-bg.png=1.000=0=0=1=====,
142.000=wave3.avi=1.000=0=0=1=====,
158.000=wave2.avi=1.000=0=0=1=====,
174.000=wave3.avi=1.000=0=0=1=====,
190.000=wave2.avi=1.000=0=0=1=====,
206.500=symbols2.avi=1.000=0=0=1=====,
222.000=wheel.avi=1.000=0=0=1=====,
238.000=symbols2.avi=1.000=0=0=1=====,
254.000=wave2.avi=1.000=0=0=1=====,
269.750=So Deep (K.O.G G3 mix)-bg.png=1.000=0=0=1=====,
99999=-nosongbg-=1.000=0=0=0 // don't automatically add -songbackground-
;
#KEYSOUNDS:;
#ATTACKS:;

//---------------dance-single - ----------------
#NOTES:
     dance-single:
     :
     Hard:
     9:
     0.599374,0.590911,0.092778,0.020617,0.340185,407.000000,398.000000,9.000000,2.000000,0.000000,0.000000,0.599374,0.590911,0.092778,0.020617,0.340185,407.000000,398.000000,9.000000,2.000000,0.000000,0.000000:
0000
0000
0000
0000
,
0000
0000
0000
0000
,
1000
0000
0000
0100
0000
0000
1000
0000
0010
0000
0000
0000
0110
0000
0000
0000
,
0001
0000
0000
1000
0000
0000
0001
0000
0100
0000
0000
0000
0110
0000
0000
0000
,
1000
0000
0000
0100
0000
0000
1000
0000
0001
0000
0000
0000
0101
0000
0000
0000
,
0001
0000
0000
0100
0000
0000
0010
0000
1000
0000
0000
0000
1100
0000
0000
0000
,
1000
0000
0000
0010
0000
0000
0100
0000
0001
0000
0000
0000
1001
0000
0000
0000
,
0100
0000
0000
0010
0000
0000
0100
0000
0001
0000
0000
0000
1010
0000
0000
0000
,
0010
0000
0000
0100
0000
0000
0010
0000
1000
0000
0000
0000
0101
0000
0000
0000
,
0200
0000
0001
0301
,
0001
1000
0010
1000
0010
0100
0001
0100
,
0001
1000
0100
1000
0100
0010
0001
0010
,
0001
1000
0100
0010
0001
0100
0010
0100
,
0010
1000
0001
1000
0001
0100
0010
0100
,
0010
1000
0100
1000
0100
0010
0001
0010
,
0001
1000
0001
1000
0001
0100
0010
0100
,
0010
1000
0010
1000
0010
0100
0001
0100
,
0001
0010
0100
1000
0010
1000
0100
0010
,
0001
1000
0001
1000
,
0010
0100
0010
1000
,
0010
1000
0001
0010
,
0100
1000
0010
0100
,
0001
0000
0000
0001
0000
0000
0100
0000
0100
0000
0000
0010
0000
0000
0010
0000
,
1000
0000
0100
1000
0000
0000
0010
0000
0010
0000
0100
0001
0000
0100
0001
0000
,
0000
0000
1000
0000
0000
1000
0000
0000
0100
0000
0000
0100
0000
0000
0010
0000
,
0000
0010
0000
0000
0001
0000
0000
0000
0100
0000
0000
0000
0001
0000
0000
0000
,
1000
0000
0000
0100
0000
0000
1000
0000
1000
0000
0000
0010
0000
0000
0100
0000
,
0010
0000
0100
0010
0000
0000
1000
0000
0001
0000
1000
0010
0000
1000
0010
0000
,
0000
0000
0100
0000
0000
0001
0000
0000
1000
0000
0000
0100
0000
0000
0010
0000
,
0000
0001
0000
0000
0100
0000
0000
0000
0001
0000
0000
0000
0100
0000
0000
0000
,
0010
0000
0000
0010
0000
0000
1000
0000
1000
0000
0000
0001
0000
0000
0001
0000
,
0100
0000
0001
0100
0000
0000
0010
0000
0010
0000
1000
0100
0000
1000
0100
0000
,
0000
0000
0010
0000
0000
0001
0000
0000
0010
0000
0000
0100
0000
0000
1000
0000
,
0000
1000
0000
0000
0010
0000
0000
0000
0100
0000
0000
0000
0001
0000
0000
0000
,
2000
0000
0000
0000
,
0000
0000
3010
0000
0010
0000
0000
0000
1000
0000
0000
0001
0000
0000
1000
0000
,
0000
0000
0010
0000
0100
0000
0010
0000
1000
0000
0000
0100
0000
0000
1000
0000
,
0000
0000
0010
0000
0100
0000
0010
0000
0100
0000
0000
0001
0000
0000
1000
0000
,
0000
0000
0010
0000
0100
0000
0010
0000
0100
0000
0000
0001
0000
0000
0001
0000
,
1000
0000
0010
0000
0100
0000
0001
0000
1000
0000
0000
0010
0000
0000
0100
0000
,
0000
0000
0001
0000
1000
0000
0010
0000
0100
0000
0000
0010
0000
0000
0001
0000
,
0000
0000
0100
0000
0010
0000
0100
0000
0001
0000
0000
0010
0000
0000
0100
0000
,
0000
1000
0000
0000
0010
0000
0000
0100
0000
0000
0010
0000
0000
0100
0000
0000
,
0001
0000
0010
0000
0100
0000
1000
0000
0010
0000
0000
0100
0000
0000
0001
0000
,
0000
0000
0100
0000
0010
0000
0100
0000
0001
0000
0000
0001
0000
0000
0001
0000
,
0000
0000
1000
0000
0010
0000
1000
0000
0010
0000
0100
0000
0000
0100
0000
0000
,
0100
0000
0001
0000
0000
0001
0000
0000
0001
0000
0000
0001
0000
0000
0001
0000
,
1000
0000
0100
0000
0010
0000
0001
0000
0100
0000
0000
0010
0000
0000
0100
0000
,
0000
0000
0001
0000
1000
0000
0001
0000
0000
0000
0100
0000
0000
0010
0000
0000
,
0010
0000
1000
0000
0100
0000
1000
0000
0000
0001
0000
0000
0001
0000
0000
0100
,
0000
0000
0100
0000
0000
0010
0000
0000
1000
0000
0000
0010
0000
0000
0100
0000
,
0000
0001
0010
0001
0010
0100
1000
0100
,
1000
0100
0010
0001
0100
0010
0100
0001
,
1000
0001
0100
0010
0100
0001
0010
0100
,
1000
0010
0100
0001
1000
0010
0100
0001
,
1000
0001
0010
0100
1000
0010
0100
0010
,
1000
0100
1000
0001
0100
0001
0100
0010
,
0100
0001
1000
0001
0100
0010
1000
0001
,
0100
0010
1000
0001
0100
0010
1000
0001
,
0100
0000
0000
0000
1010
0000
0000
0000
0001
0000
0000
0100
0000
0000
0001
0000
,
0000
0000
1000
0000
0100
0000
1000
0000
0010
0000
0000
0010
0000
0000
0100
0000
,
0000
0000
0001
0000
1000
0000
0001
0000
1000
0000
0000
0010
0000
0000
0010
0000
,
0000
0010
0000
0000
1000
0000
0000
1000
0000
0000
0010
0000
0000
0010
0000
0000
,
0100
0000
0001
0000
0100
0000
0001
0000
1000
0000
0000
1000
0000
0000
0010
0000
,
0000
0000
0100
0000
0001
0000
0100
0000
0000
0000
0001
0000
0000
1000
0000
0000
,
1000
0000
0010
0000
0100
0000
0001
0000
0000
0100
0000
0000
0001
0000
0000
0100
,
0000
0000
0010
0000
0000
0010
0000
0000
1000
0000
0000
1000
0000
0000
0001
0000
,
0000
0001
0000
0000
0000
0000
0000
1001
0000
0000
0000
0000
0000
0000
0000
0000
;

//---------------dance-single - ----------------
#NOTES:
     dance-single:
     :
     Easy:
     4:
     0.385838,0.346628,0.041235,0.010309,0.000000,262.000000,258.000000,4.000000,1.000000,0.000000,0.000000,0.385838,0.346628,0.041235,0.010309,0.000000,262.000000,258.000000,4.000000,1.000000,0.000000,0.000000:
0000
0000
0000
0000
,
0000
0000
0000
0000
,
1000
0010
0100
0001
,
1000
0010
0100
0001
,
1000
0010
0100
0001
,
1000
0010
0100
0001
,
1000
1000
0010
0010
,
0100
0100
0001
0001
,
1000
0010
1000
0001
,
0100
0001
1000
1000
,
0010
0010
0010
0010
,
0010
0010
0010
0010
,
0010
0010
0010
0010
,
0010
0010
0010
0010
,
0100
0100
0100
0100
,
0100
0100
0100
0100
,
0100
0100
0100
0100
,
0100
0100
0100
0100
,
0001
1000
0001
1000
,
0001
1000
0010
0100
,
0001
1000
0010
0100
,
0001
1000
0001
1001
,
0010
0100
0010
0100
,
0010
0100
0001
0010
,
0100
1000
0001
0100
,
0010
1000
0001
1001
,
1000
1000
1000
1000
,
0001
0001
0001
0001
,
0100
0010
0100
0010
,
1000
0001
0100
0110
,
0001
0010
0100
1000
,
0100
0010
0001
1000
,
0010
1000
0010
0100
,
0001
0100
0010
0110
,
2000
0000
0000
0000
,
3000
0001
0100
0010
,
0100
0010
1000
0010
,
0100
0001
0010
0010
,
0010
0100
0100
0100
,
1000
1000
0001
0010
,
0100
1000
0010
0100
,
0010
1000
0100
0010
,
0001
0010
0100
0010
,
1000
1000
0001
0100
,
0010
0100
0001
1000
,
0010
0100
0001
0001
,
1000
1000
0010
0010
,
0100
0100
0001
1000
,
0001
1000
0010
0100
,
0010
0100
0001
0001
,
1000
1000
0010
0100
,
0010
1000
0001
1000
,
0001
1000
0001
1000
,
0001
1000
0001
1000
,
0001
1000
0001
1000
,
0001
1000
0010
0100
,
0010
0100
0010
0100
,
0010
0100
0010
0100
,
0010
0100
0010
0100
,
0010
0010
1000
1000
,
0001
0001
0100
0010
,
0100
0001
0010
0100
,
1000
0010
0100
0001
,
0010
0100
1000
1000
,
1000
0010
0010
0010
,
0100
0100
0001
0001
,
0001
1000
0010
0100
,
0001
1000
0000
0000
;

//---------------dance-single - Copied from----------------
#NOTES:
     dance-single:
     Copied from:
     Beginner:
     2:
     0.097196,0.104278,0.000000,0.000000,0.005154,66.000000,66.000000,0.000000,0.000000,0.000000,0.000000,0.097196,0.104278,0.000000,0.000000,0.005154,66.000000,66.000000,0.000000,0.000000,0.000000,0.000000:
0000
0000
0000
0000
,
0000
0000
0000
0000
,
0010
0000
0000
0000
,
0010
0000
0000
0000
,
0010
0000
0000
0000
,
0010
0000
0000
0000
,
0010
0000
0000
0000
,
0010
0000
0000
0000
,
0010
0000
0000
0000
,
0010
0000
0000
0000
,
1000
0000
0000
0000
,
1000
0000
0000
0000
,
1000
0000
0000
0000
,
1000
0000
0000
0000
,
0001
0000
0000
0000
,
0001
0000
0000
0000
,
0001
0000
0000
0000
,
0001
0000
0000
0000
,
0100
0000
0000
0000
,
0100
0000
0000
0000
,
0100
0000
0000
0000
,
0100
0000
0000
0000
,
0010
0000
0000
0000
,
0010
0000
0000
0000
,
0010
0000
0000
0000
,
0010
0000
0000
0000
,
1000
0000
0000
0000
,
1000
0000
0000
0000
,
1000
0000
0000
0000
,
1000
0000
0000
0000
,
0001
0000
0000
0000
,
0001
0000
0000
0000
,
0001
0000
0000
0000
,
0001
0000
0000
0000
,
0100
0000
0000
0000
,
0010
0000
0000
0000
,
0000
0000
0100
0000
,
0000
0000
0010
0000
,
0000
0000
0100
0000
,
0000
0000
0010
0000
,
0000
0000
0100
0000
,
0000
0000
0010
0000
,
0000
0000
0100
0000
,
0000
0000
0001
0000
,
0000
0000
1000
0000
,
0000
0000
0001
0000
,
0000
0000
1000
0000
,
0000
0000
0001
0000
,
0000
0000
1000
0000
,
0000
0000
0001
0000
,
0000
0000
1000
0000
,
0000
0000
0010
0000
,
0000
0000
0100
0000
,
0000
0000
0010
0000
,
0000
0000
0100
0000
,
0000
0000
0010
0000
,
0000
0000
0100
0000
,
0000
0000
0010
0000
,
0000
0000
0100
0000
,
0000
0000
0010
0000
,
0000
0000
1000
0000
,
0000
0000
0001
0000
,
0000
0000
1000
0000
,
0000
0000
0001
0000
,
0000
0000
1000
0000
,
0000
0000
0001
0000
,
0000
0000
1000
0000
,
0000
0000
0000
0000
0000
0000
0000
0001
0000
0000
0000
0000
0000
0000
0000
0000
;

//---------------dance-single - ----------------
#NOTES:
     dance-single:
     :
     Medium:
     7:
     0.443272,0.417113,0.092778,0.020617,0.262870,301.000000,292.000000,9.000000,2.000000,0.000000,0.000000,0.443272,0.417113,0.092778,0.020617,0.262870,301.000000,292.000000,9.000000,2.000000,0.000000,0.000000:
0000
0000
0000
0000
,
0000
0000
0000
0000
,
1000
0010
0100
0110
,
0001
0100
0010
0110
,
1000
0001
1000
1010
,
0001
1000
0001
0101
,
1000
0001
1000
1001
,
0100
0010
0100
0110
,
0001
1000
0001
1001
,
0200
0000
0001
0301
,
0001
1000
1000
0001
,
0001
0100
0100
0010
,
0010
1000
1000
0001
,
0100
0001
1000
0010
,
1000
0010
0100
0010
,
1000
0100
1000
0001
,
0100
0001
1000
0010
,
1000
0001
0010
0001
,
1000
1000
0001
0001
,
0100
0100
0010
0010
,
1000
1000
0001
0010
,
0100
1000
0010
0100
,
0001
0000
0000
1000
0000
0000
0010
0000
0010
0000
0000
0000
1000
0000
0000
0000
,
0001
0000
0000
0001
0000
0000
0100
0000
0100
0000
0000
0010
0000
0000
0010
0000
,
0000
0000
1000
0000
0000
1000
0000
0000
0010
0000
0000
0010
0000
0000
0100
0000
,
0000
0100
0000
0000
0001
0000
0000
0000
0100
0000
0000
0000
0001
0000
0000
0000
,
1000
0000
0000
0010
0000
0000
1000
0000
1000
0000
0000
0000
0010
0000
0100
0000
,
0010
0000
0000
1000
0000
0000
1000
0000
0001
0000
0000
0100
0000
0000
0001
0000
,
0000
0000
1000
0000
0000
1000
0000
0000
1000
0000
0000
0010
0000
0000
0010
0000
,
0000
0010
0000
0000
0100
0000
0000
0000
0001
0000
0000
0000
0100
0000
0000
0000
,
0010
0000
0000
0010
0000
0000
1000
0000
1000
0000
0000
0000
0001
0000
0100
0000
,
0001
0000
0000
0001
0000
0000
1000
0000
1000
0000
0000
0010
0000
0000
0010
0000
,
0000
0000
0100
0000
0000
0001
0000
0000
0010
0000
0000
0100
0000
0000
1000
0000
,
0000
0010
0000
0000
0100
0000
0000
0000
0001
0000
0000
0000
1000
0000
0000
0000
,
2000
0000
0000
0000
,
0000
0000
3010
0000
0010
0000
0000
0000
1000
0000
0000
0001
0000
0000
0100
0000
,
0000
0000
0010
0000
0000
0000
0100
0000
0001
0000
0000
1000
0000
0000
0010
0000
,
0000
0000
0100
0000
0000
0000
0010
0000
0000
0000
0000
1000
0000
0000
1000
0000
,
0000
0000
0010
0000
0000
0000
0010
0000
0000
0000
0000
0100
0000
0000
0100
0000
,
0000
0000
0001
0000
1000
0000
0001
0000
0100
0000
0000
0010
0000
0000
0100
0000
,
0000
0000
0001
0000
0000
0000
0001
0000
1000
0000
0000
1000
0000
0000
1000
0000
,
0000
0000
0010
0000
0000
0000
0100
0000
0001
0000
0000
0010
0000
0000
0100
0000
,
0000
1000
0000
0000
0010
0000
0000
0100
0000
0000
0010
0000
0000
0100
0000
0000
,
0001
0000
0000
0000
0001
0000
0000
0000
1000
0000
0000
1000
0000
0000
1000
0000
,
0000
0000
0010
0000
0000
0000
0100
0000
0001
0000
0000
0001
0000
0000
0001
0000
,
0000
0000
1000
0000
0000
0000
0010
0000
0000
0000
0100
0000
0000
0100
0000
0000
,
0100
0000
0000
0000
0001
0000
0000
0000
0001
0000
0000
0001
0000
0000
0001
0000
,
0000
0000
0100
0000
0000
0000
0010
0000
1000
0000
0000
0100
0000
0000
1000
0000
,
0000
0000
0001
0000
0000
0000
0001
0000
0000
0000
0100
0000
0000
0010
0000
0000
,
0100
0000
0010
0000
0000
0000
1000
0000
0000
0001
0000
0000
0001
0000
0100
0000
,
0000
0000
0100
0000
0000
0010
0000
0000
1000
0000
0000
0010
0000
0000
0100
0000
,
0000
0001
0001
1000
,
1000
0010
0100
0010
,
1000
0001
1000
0010
,
0100
0010
1000
0100
,
1000
0010
0100
0010
,
1000
0001
0100
0010
,
0100
0001
1000
0001
,
0100
0010
0100
0001
,
1000
0000
0000
0000
1001
0000
0000
0000
0001
0000
0000
0100
0000
0000
0001
0000
,
0000
0000
1000
0000
0000
0000
1000
0000
0010
0000
0000
0010
0000
0000
0100
0000
,
0000
0000
0001
0000
0000
0000
1000
0000
0000
0000
0000
0010
0000
0000
0100
0000
,
0000
0010
0000
0000
1000
0000
0000
1000
0000
0000
0001
0000
0000
0001
0000
0000
,
0000
0000
0100
0000
0000
0000
0010
0000
1000
0000
0000
1000
0000
0000
0010
0000
,
0000
0000
0100
0000
0000
0000
0100
0000
0000
0000
0001
0000
0000
1000
0000
0000
,
1000
0000
0010
0000
0000
0000
0010
0000
0000
0100
0000
0000
0001
0000
0000
0100
,
0000
0000
0010
0000
0000
0010
0000
0000
1000
0000
0000
1000
0000
0000
0001
0000
,
0000
0001
0000
0000
0000
0000
0000
1001
0000
0000
0000
0000
0000
0000
0000
0000
;
