#TITLE:Smile:);
#SUBTITLE:;
#ARTIST:ドーリィドルチ;
#TITLETRANSLIT:Smile;
#SUBTITLETRANSLIT:;
#ARTISTTRANSLIT:DollyDolci;
#GENRE:;
#CREDIT:SupremeX;
#BANNER:Smile.png;
#BACKGROUND:Smile-bg.png;
#LYRICSPATH:;
#CDTITLE:CDTitle.png;
#MUSIC:Smile.ogg;
#OFFSET:-1.955;
#SAMPLESTART:60.919998;
#SAMPLELENGTH:12.000000;
#SELECTABLE:YES;
#BPMS:0.000000=129.979996
;
#STOPS:
;
#BGCHANGES:32.000=hana160.avi=1.000=0=0=1=====,
64.000=7 Bird.avi=1.000=0=0=1=====,
96.000=8 Moon.avi=1.000=0=0=1=====,
128.000=emi1.avi=1.000=0=0=1=====,
143.500=ring11.avi=1.000=0=0=1=====,
160.000=emi1.avi=1.000=0=0=1=====,
175.500=light1.avi=1.000=0=0=1=====,
192.000=hana160.avi=1.000=0=0=1=====,
212.500=Smile-bg.png=1.000=0=0=1=====,
99999=-nosongbg-=1.000=0=0=0 // don't automatically add -songbackground-
;
#KEYSOUNDS:;
#ATTACKS:;

//---------------dance-single - ----------------
#NOTES:
     dance-single:
     :
     Beginner:
     1:
     0.088418,0.122400,0.000000,0.018475,0.000000,67.000000,67.000000,0.000000,2.000000,0.000000,0.000000,0.088418,0.122400,0.000000,0.018475,0.000000,67.000000,67.000000,0.000000,2.000000,0.000000,0.000000:
0000
0000
0000
0000
,
0000
0000
0000
0000
,
0000
0000
0000
0000
,
0000
0000
0000
0000
,
0100
0000
0000
0000
,
0001
0000
0000
0000
,
1000
0000
0000
0000
,
0010
0000
0000
0000
,
0100
0000
0000
0000
,
0001
0000
0000
0000
,
1000
0000
0000
0000
,
0010
0000
0000
0000
,
0100
0000
0000
0000
,
0001
0000
0000
0000
,
1000
0000
0000
0000
,
0010
0000
0000
0000
,
1000
0000
0000
0000
,
1000
0000
0000
0000
,
1000
0000
0010
0000
,
0000
0000
0000
0000
,
0100
0000
0000
0000
,
0001
0000
0000
0000
,
0010
0000
0100
0000
,
1000
0000
0000
0000
,
0010
0000
1000
0000
,
0001
0000
0001
0000
,
1000
0000
0100
0000
,
1000
0000
0010
0000
,
0100
0000
0000
0000
,
0001
0000
0000
0000
,
1000
0000
0000
0000
,
0100
0000
0000
0000
,
0010
0000
0010
0000
,
0010
0000
0010
0000
,
0001
0000
0001
0000
,
0001
0000
0001
0000
,
0100
0000
0100
0000
,
0100
0000
0100
0000
,
0010
0000
0010
0000
,
0010
0000
0010
0000
,
1000
0000
1000
0000
,
1000
0000
1000
0000
,
0001
0000
0001
0000
,
0001
0000
0001
0000
,
0100
0000
0100
0000
,
0100
0000
0100
0000
,
0010
0000
1000
0000
,
0001
0000
1000
0000
,
0020
0000
0000
0000
,
0000
0000
0000
0030
,
0000
0000
0000
0000
,
0000
0000
0000
0000
,
0200
0000
0000
0000
,
0300
0000
0000
0000
;

//---------------dance-single - ----------------
#NOTES:
     dance-single:
     :
     Easy:
     3:
     0.215107,0.244799,0.009238,0.083139,0.000000,163.000000,162.000000,1.000000,9.000000,0.000000,0.000000,0.215107,0.244799,0.009238,0.083139,0.000000,163.000000,162.000000,1.000000,9.000000,0.000000,0.000000:
0000
0000
0000
0000
,
0000
0000
0000
0000
,
0000
0000
0000
0000
,
0000
0000
0000
0000
,
0100
1000
0100
1000
,
0001
0010
0001
0010
,
1000
0001
1000
0001
,
0100
0010
0100
0010
,
1000
0001
0010
0100
,
1000
0100
0010
0001
,
0010
0100
1000
0100
,
0010
0001
1000
0001
,
0100
0100
0100
0100
,
0010
0010
0010
0010
,
1000
1000
1000
1000
,
0001
0001
0001
0001
,
1000
0100
0010
0001
,
1000
0001
1000
0010
,
0200
0000
0000
0300
0020
0000
0000
0000
,
0000
0030
0000
0000
,
1000
0100
0010
0001
,
1000
0010
0100
0001
,
2000
0000
0000
3000
0020
0000
0000
0000
,
0000
0030
0000
0000
,
0100
0001
1000
0001
,
0100
0100
0010
0010
,
1000
1000
0001
0100
,
0001
1000
0001
0010
,
0100
0000
1000
0100
,
0010
0001
0000
1000
,
0010
0100
0001
1000
,
0000
0010
0010
0010
0010
0000
0100
0000
,
0001
0100
0010
1000
,
0100
0010
0001
1000
,
0010
1000
0001
0100
,
0010
0000
1000
0000
0002
0000
0000
0003
,
1000
0001
0100
0010
,
1000
0001
0001
0100
,
0010
0000
0000
0000
,
1000
0100
0010
0000
,
0001
0010
0100
1000
,
0010
1000
0001
0010
,
0100
1000
1000
0010
,
0010
0100
0200
0300
,
0001
0000
1000
0010
,
0100
0001
0001
1000
,
0001
0000
1000
0000
,
0010
0100
0001
1000
,
0020
0000
0000
0000
,
0000
0000
0000
0030
,
0000
0000
1000
0001
,
0100
0010
1000
0001
,
0220
0000
0000
0000
,
0330
0000
0000
0000
;

//---------------dance-single - Copied from----------------
#NOTES:
     dance-single:
     Copied from:
     Medium:
     5:
     0.303525,0.318239,0.073902,0.083139,0.000000,230.000000,222.000000,8.000000,9.000000,0.000000,0.000000,0.303525,0.318239,0.073902,0.083139,0.000000,230.000000,222.000000,8.000000,9.000000,0.000000,0.000000:
0000
0000
0000
0000
,
0000
0000
0000
0000
,
0000
0000
0000
0000
,
0000
0000
0000
0000
,
1000
0000
0010
0100
0001
0000
0001
0000
,
1000
0000
0010
0100
0001
0000
0001
0000
,
1000
0000
0010
0000
0100
0001
0100
0000
,
0010
0000
1000
0000
0001
0100
0001
0000
,
1000
0000
0010
0000
0100
0001
1000
0000
,
0010
0000
0100
0000
0001
1000
0010
0000
,
0100
0000
0001
0000
1000
0001
0100
0000
,
0001
0000
1000
0000
0010
0100
0001
0000
,
1000
0000
0010
0000
1000
0001
1000
0000
,
0010
0000
0001
0000
1000
0100
1000
0000
,
0010
0000
0100
0000
0001
0010
0001
0000
,
1000
0000
1000
0000
0001
0100
0001
0000
,
1000
1001
0001
0110
,
1000
1001
0010
0100
,
0002
0000
0000
0003
2000
0000
0000
0000
,
0000
3000
0010
1000
,
0001
0000
1000
0010
1000
0000
0001
0000
,
0010
0000
0100
1000
0100
0000
0010
0000
,
0002
0000
0000
0003
2000
0000
0000
3000
,
0010
0100
0001
1000
,
0001
0100
0010
0000
1000
1000
1000
0000
,
0010
0100
0001
0000
1000
0010
0100
0000
,
0001
0000
1000
0000
0010
0100
0010
0000
,
1000
0001
1000
0000
0001
0100
0010
1000
,
0001
0000
1000
1000
,
0001
0100
0010
0000
1000
0000
0001
0100
,
0000
0000
0010
0000
1000
0000
0001
0001
,
0000
1000
1000
1000
1000
0000
0010
0000
,
0100
0000
0001
0000
1000
0000
0010
0100
,
0000
0001
1000
0100
,
0010
0001
0100
0010
,
1000
0100
0010
0010
0000
0001
0001
0000
,
0010
0100
1000
0010
,
0100
0000
0001
0000
1000
0100
0010
0001
,
0100
0010
0100
0001
1000
0001
0000
0000
,
1000
0000
0010
0000
0100
0001
1000
0000
,
0010
0110
0001
1001
,
1000
0000
0001
0010
0100
0000
1000
0000
,
1000
0000
0001
0100
0000
0010
1000
0000
,
0001
0000
0100
0010
0000
1000
1000
0000
,
0001
0100
0010
1000
,
0001
0100
0010
1000
0001
0000
1000
0000
,
0010
1010
0101
0000
,
0010
1000
0010
0000
0100
0001
0100
0000
,
0020
1000
1030
0000
,
0200
0001
0301
0000
,
0020
1000
1030
0000
,
1000
0000
0001
0000
1000
0100
0010
0000
,
2002
0000
0000
0000
,
3003
0000
0000
0000
;

//---------------dance-single - Copied from----------------
#NOTES:
     dance-single:
     Copied from:
     Hard:
     8:
     0.434172,0.466215,0.184754,0.129328,0.036951,329.000000,309.000000,20.000000,14.000000,0.000000,0.000000,0.434172,0.466215,0.184754,0.129328,0.036951,329.000000,309.000000,20.000000,14.000000,0.000000,0.000000:
0000
0000
0000
0000
,
0000
0000
0000
0000
,
0000
0000
0000
0000
,
0000
0000
0000
0000
,
1000
0100
0010
0001
1000
0010
1000
0000
,
0001
0100
0001
1000
0100
0010
0001
0000
,
0100
0001
1000
1000
0010
0100
0001
0100
,
0100
0010
1000
0001
0100
0001
0100
0000
,
0011
0000
1100
0000
0001
0010
0100
0000
,
1010
0000
0100
0001
0010
0100
1000
0000
,
0110
0000
0011
1000
0100
0010
0001
0000
,
0101
0000
1010
0000
0100
0001
1000
0010
,
1000
1000
1000
0010
0100
0001
0100
0000
,
0001
0001
0001
0010
0100
1000
0010
0000
,
0100
0100
0100
0001
1000
0010
0100
0001
,
1000
1000
1000
0100
0010
0001
0100
0000
,
0011
0000
1000
0001
0100
0010
1000
0001
,
1000
1000
0001
0100
0100
0001
1000
0010
,
0200
0000
0000
0301
0002
0000
0100
0000
,
0100
0103
0100
0001
,
1000
0100
0010
0001
1000
0010
1000
0001
,
0010
0100
1000
0001
0100
0010
1000
0010
,
0020
0000
0000
1030
2000
0000
0010
3000
,
0010
0000
0000
0000
1000
0000
0000
0000
0001
0000
0100
0010
0100
0010
0100
0000
,
0002
0000
1003
0000
0010
1000
0001
0200
,
0000
0310
0000
0010
1000
0000
0110
0000
,
0001
1000
0001
1000
0000
0010
0000
1000
,
0010
0100
0001
1000
0000
0001
1000
0020
,
0000
0030
0000
0000
1000
1000
0001
0001
,
0000
2002
0000
0000
3003
0010
0100
0010
,
0200
0000
0310
0000
1000
0100
0010
0002
,
0000
1003
1000
1000
1100
0000
1001
0000
,
0100
0000
0001
0000
1000
0100
0010
0001
,
0000
0100
0100
0001
0001
0000
1010
0000
,
0001
0100
0001
1000
0000
1001
0000
0100
,
0010
1000
0001
0001
0000
0000
0000
0100
,
0010
0000
0000
1000
0001
0000
1001
0000
,
2000
3000
0002
0003
0100
0010
1000
0001
,
0100
0010
1000
0001
0100
0100
0000
0001
,
0010
0000
0100
0000
1000
0000
0010
0000
0100
0010
0100
0010
0100
0010
0100
0000
,
0001
0000
0110
0000
1000
0001
0100
0100
,
0000
0001
0010
0100
1000
0000
0101
0000
,
1000
0100
0010
0001
0000
1010
0000
0101
,
0000
1000
0100
2000
0000
3000
0000
0010
,
0100
0000
0000
0001
0100
0000
1010
0000
,
0001
0000
0100
0000
0010
1000
0001
0010
,
0100
1000
1000
0000
0001
0001
0000
1000
,
0010
0000
1000
0000
0010
0000
1000
0000
0001
0100
0001
0100
0001
0100
0001
0000
,
1000
1000
0000
0001
0010
0100
1000
0010
,
0100
0100
0000
0001
1000
0010
0100
0001
,
1000
1000
0000
0100
0010
0001
0100
0001
,
0010
0010
0000
0100
1000
0001
1000
0001
,
0001
0100
0000
0010
1000
0001
0010
0100
,
1000
1000
0000
0000
0000
0000
0000
0000
;
