#TITLE:Secret of Love;
#SUBTITLE:;
#ARTIST:D.J.SWAN;
#TITLETRANSLIT:;
#SUBTITLETRANSLIT:;
#ARTISTTRANSLIT:;
#GENRE:;
#CREDIT:SupremeX;
#BANNER:Secret of Love.png;
#BACKGROUND:Secret of Love-bg.png;
#LYRICSPATH:;
#CDTITLE:CDTitle.png;
#MUSIC:Secret of Love.ogg;
#OFFSET:-3.432;
#SAMPLESTART:62.639999;
#SAMPLELENGTH:12.000000;
#SELECTABLE:YES;
#BPMS:0.000000=162.01
;
#STOPS:
;
#BGCHANGES:16.000=4 JumpBack.avi=1.000=0=0=1=====,
32.000=clash.avi=1.000=0=0=1=====,
64.000=face2.avi=1.000=0=0=1=====,
96.000=heart2.avi=1.000=0=0=1=====,
112.000=face2.avi=1.000=0=0=1=====,
128.000=dance10.avi=1.000=0=0=1=====,
144.000=heart2.avi=1.000=0=0=1=====,
160.000=ferriswheel1.avi=1.000=0=0=1=====,
192.000=dance11.avi=1.000=0=0=1=====,
216.000=face2.avi=1.000=0=0=1=====,
232.000=heart2.avi=1.000=0=0=1=====,
240.000=dance10.avi=1.000=0=0=1=====,
272.000=ferriswheel1.avi=1.000=0=0=1=====,
296.000=heart2.avi=1.000=0=0=1=====,
304.000=dance11.avi=1.000=0=0=1=====,
316.000=Secret of Love-bg.png=1.000=0=0=1=====,
99999=-nosongbg-=1.000=0=0=0 // don't automatically add -songbackground-
;
#KEYSOUNDS:;
#ATTACKS:;

//---------------dance-single - ----------------
#NOTES:
     dance-single:
     :
     Hard:
     9:
     0.457530,0.552701,0.046641,0.233207,0.089396,412.000000,406.000000,6.000000,30.000000,0.000000,0.000000,0.457530,0.552701,0.046641,0.233207,0.089396,412.000000,406.000000,6.000000,30.000000,0.000000,0.000000:
0000
0000
0000
0000
,
0000
0000
0000
0000
,
0000
0000
0000
0000
,
0000
0000
0000
0000
,
1000
0000
0010
1000
0000
0010
1000
0000
0010
0000
0000
0000
0000
0000
0000
0000
,
0100
0000
0001
0100
0000
0001
0100
0000
0001
0000
0000
0000
0000
0000
0000
0000
,
1000
0000
0010
0100
0000
0010
0100
0000
0001
0000
0000
0000
0000
0000
0000
0000
,
1000
0000
0001
0100
0000
0010
1000
0000
0001
0000
0000
0000
0000
0000
0000
0000
,
2000
0000
0000
3020
0000
0000
0130
0200
,
0000
0000
0000
0000
0000
0000
0301
0002
,
0000
0000
0000
0000
0000
0000
1003
2000
,
0000
0000
0000
3000
0000
1010
0000
0000
,
0101
0000
0000
0020
0000
0000
0130
0200
,
0000
0000
0000
0000
0000
0000
0301
0002
,
0000
0000
0000
0000
0000
0000
1003
2000
,
0000
0000
3010
0100
,
0001
0000
1000
0100
0000
0100
1000
0001
,
0010
0100
1000
0010
0000
1000
0001
1000
,
0000
0010
0100
0000
0100
0000
0001
1000
,
0000
1000
0010
0000
0010
0100
0000
0000
,
1001
0000
0100
0010
0000
0000
1000
0001
,
0100
0100
0001
0001
,
1000
0010
0100
0001
1000
0001
0100
0010
,
1000
0100
0010
0001
0100
0000
1001
0000
,
1000
0100
0010
0001
0100
0010
1000
0001
,
1000
0010
0100
0010
1000
0001
0100
0010
,
0100
0001
1000
0001
0100
0010
1000
0010
,
0100
0001
1000
0001
0000
1100
0000
0000
,
0001
1000
0100
0010
0001
0100
0010
1000
,
0001
1000
0100
0010
0001
0100
0001
0010
,
0100
1000
0010
0100
0001
0100
0010
1000
,
0100
0010
0001
2000
0010
0000
3010
0000
,
1000
0001
1000
0100
,
0010
1000
0001
0100
0001
1000
0001
0000
,
1000
0100
1000
0001
0010
0100
1000
0000
,
0001
1000
0001
0010
0100
1000
0000
0000
,
1001
0000
0001
1000
0010
0100
0001
1000
,
0010
1000
0001
0100
0010
1000
0001
0010
,
0100
1000
0010
0100
0001
1000
0100
1000
,
0100
0010
0001
0010
0001
1000
0100
0000
,
2000
0000
0000
0000
,
3002
0000
0000
0000
0000
0000
0000
0000
1003
0000
0000
0000
0000
0000
0010
0100
,
0020
0000
0000
0000
,
0000
0000
0000
0000
0000
0000
0000
0000
1030
0000
0000
0000
0000
0000
1000
0001
,
2000
0000
0000
3020
0000
0000
0230
0000
,
0302
0000
0000
2003
0000
0000
3010
0000
,
0100
0001
1000
0010
1000
0001
0010
0100
,
1000
0000
0010
0000
1000
0000
0010
0000
0100
0000
0001
0000
0100
0000
0001
1000
,
0002
0000
0000
0000
,
0000
0000
0000
0000
0000
0000
0000
0000
2003
0000
0000
0000
3000
0000
0010
1000
,
0020
0000
0000
0000
,
0000
0000
0000
0000
0000
0000
0000
0000
0130
0000
0000
0000
0000
0000
0100
0010
,
0200
0000
0000
0302
0000
0000
0023
0000
,
0230
0000
0000
2300
0000
0000
3001
0000
,
0001
1000
0100
0010
0001
0100
0010
1000
,
0001
0100
0010
1000
0001
0100
0010
0000
,
1000
0001
0100
0010
1000
0100
0010
0001
,
0100
0010
1000
0010
0100
0001
0100
0010
,
1000
0100
0010
0001
0100
0010
1000
0001
,
0100
0000
0010
0000
1000
0000
0010
0000
0100
0000
0001
0000
0010
0000
0100
1000
,
0100
0000
1000
0000
0100
0000
0010
0001
,
0000
0000
1000
0000
0100
0000
1000
0000
0100
0000
0010
0000
0001
0000
1000
0010
,
1000
0000
0000
0000
0001
0000
0000
0000
0001
0000
0000
0000
0100
0010
0100
0000
,
0010
0000
0000
0000
1000
0000
0000
0000
0001
0000
0000
0000
1000
0000
0010
1000
,
0010
0000
0100
0001
0000
0001
1000
0000
,
0100
0000
1000
0001
0000
0000
0001
0000
,
1000
0100
0010
0001
0100
0010
1000
0001
,
0100
0000
0010
0000
1000
0000
0010
0000
1000
0000
0001
0000
0100
0000
0010
0100
,
0010
0000
1000
0000
1000
0000
0010
0100
,
0000
0000
0001
0000
1000
0000
0001
0000
0010
0000
0100
0000
1000
0000
0100
1000
,
0100
0000
0000
0000
0000
0000
0000
0000
0010
0000
0000
0000
0000
0000
0001
0100
,
0001
0000
0000
0000
0001
0000
0000
0000
1000
0000
0000
0000
0000
0000
0010
0100
,
0010
0000
1000
1000
0000
0000
0001
0000
,
1000
0000
0010
0010
0000
0100
0001
0000
,
1000
0100
0010
0001
0100
0010
1000
0001
,
0100
0000
0010
0000
1000
0000
0100
0000
0010
0000
0001
0000
0100
0000
0010
0100
,
0010
0000
1000
0000
0100
0000
1000
2000
,
0000
3020
0000
0230
,
0000
0000
0000
0000
0302
0000
0000
0000
1003
0000
0000
0000
0000
0000
0001
1000
,
0001
0000
0000
0000
;

//---------------dance-single - ----------------
#NOTES:
     dance-single:
     :
     Medium:
     7:
     0.347590,0.491290,0.015547,0.108830,0.019434,313.000000,311.000000,2.000000,14.000000,0.000000,0.000000,0.347590,0.491290,0.015547,0.108830,0.019434,313.000000,311.000000,2.000000,14.000000,0.000000,0.000000:
0000
0000
0000
0000
,
0000
0000
0000
0000
,
0000
0000
0000
0000
,
0000
0000
0000
0000
,
1000
0000
0000
0100
0000
0000
1000
0000
1000
0000
0000
0000
0000
0000
0000
0000
,
0001
0000
0000
0010
0000
0000
0001
0000
0001
0000
0000
0000
0000
0000
0000
0000
,
1000
0000
0000
0010
0000
0000
1000
0000
1000
0000
0000
0000
0000
0000
0000
0000
,
0001
0000
0000
0100
0000
0000
0001
0000
0001
0000
0000
0000
0000
0000
0000
0000
,
1000
0000
0000
1000
0000
0000
0010
0200
,
0000
0000
0000
0000
0000
0000
0300
0002
,
0000
0000
0000
0000
0000
0003
0010
0020
,
0000
0000
0000
0000
0030
0100
0000
0000
,
0100
0000
0000
1000
0000
0000
1000
2000
,
0000
0000
0000
0000
0000
0000
3010
0020
,
0000
0000
0000
0000
0000
0030
0100
0200
,
0000
0000
0301
0100
,
0001
0000
1000
1000
0000
0000
0010
0100
,
0000
0000
0001
0000
0001
0000
0100
0100
,
0000
0000
0010
0000
0010
0000
1000
1000
,
0000
0000
0001
0000
0100
0010
0000
0000
,
1000
0000
0000
1000
0000
0000
0010
0100
,
0000
0000
0001
0000
0001
0000
1000
0010
,
0000
0000
0100
0000
0010
0000
0100
0001
,
0000
1000
0001
0110
,
1000
0010
1000
0001
,
0010
0100
1000
0010
,
0100
0001
1000
0010
,
0100
0000
0001
0001
0000
1100
0000
0000
,
0001
0010
0100
1000
,
0010
0100
0001
1000
,
0010
0100
0001
1000
,
0010
0100
0001
1000
,
0010
0000
0010
0000
,
0100
0001
0100
0100
,
0010
1000
0010
1000
0001
0100
0001
0000
,
1000
0100
0010
0001
0100
0010
1000
0000
,
1000
0001
0001
0100
,
0010
1000
0010
0100
,
0001
0010
0001
0010
0100
1000
0100
1000
,
0010
0100
0001
0100
0001
1000
0010
0000
,
2000
0000
0000
0000
,
3002
0000
0000
0000
0103
0000
0000
0100
,
0200
0000
0000
0000
,
0000
0000
0000
0000
0310
0000
0000
0010
,
0020
0000
0000
1030
0000
0000
1000
0000
,
0001
0000
0000
0100
0000
0000
0100
0000
,
0001
0010
0100
1000
0010
0000
0010
0000
,
1000
0100
1000
0100
0010
0001
0010
0001
,
0002
0000
0000
0000
,
0000
0000
0000
0000
2003
0000
3000
0100
,
0200
0000
0000
0000
,
0000
0000
0300
0000
0010
0000
0000
0010
,
0002
0000
0000
1003
0000
0000
1000
0000
,
0010
0000
0000
0010
0000
0000
0100
0000
,
0001
1000
0010
1000
0010
0100
0001
0000
,
0001
0100
0010
1000
0001
0100
0010
0000
,
1000
0100
1000
0100
0010
0001
0010
0000
,
0100
1000
0100
0010
0001
1000
0010
0000
,
0010
1000
0001
1000
0010
0100
0010
0000
,
1000
0100
0010
0001
0100
0010
1000
0000
,
0001
0000
0001
0000
0100
0000
0100
0010
,
0000
1000
1000
0001
,
0100
0001
1000
0010
,
0100
0001
1000
0010
,
0100
0000
0001
1000
0000
1000
0001
0000
,
0100
0000
0100
0010
0000
0000
1000
0000
,
0001
0010
0100
1000
0010
0100
0001
0000
,
1000
0100
1000
0100
1000
0000
0001
0100
,
0100
0000
0010
0000
1000
0000
0001
0100
,
0001
1000
0010
0100
,
0100
0000
0000
0000
0001
0000
0000
1000
,
1000
0000
0010
0000
0100
0000
0000
0001
,
0001
0000
0100
0100
0000
0000
0010
0000
,
0010
0000
1000
0001
0000
0001
0100
0000
,
0100
0010
1000
0000
0001
0100
0001
0000
,
1000
0010
1000
0100
0010
0001
0100
0010
,
0100
0000
0001
0000
0001
0000
1000
1000
,
0000
0100
0000
0010
,
0000
0000
0000
0000
0001
0000
0000
0000
1000
0000
0000
0000
0000
0000
0010
0100
,
0010
0000
0000
0000
;

//---------------dance-single - ----------------
#NOTES:
     dance-single:
     :
     Easy:
     4:
     0.248754,0.307056,0.015547,0.093283,0.000000,224.000000,222.000000,2.000000,12.000000,0.000000,0.000000,0.248754,0.307056,0.015547,0.093283,0.000000,224.000000,222.000000,2.000000,12.000000,0.000000,0.000000:
0000
0000
0000
0000
,
0000
0000
0000
0000
,
0000
0000
0000
0000
,
0000
0000
0000
0000
,
1000
1000
0010
0000
,
0100
0100
0001
0000
,
0010
0010
0100
0000
,
1000
1000
0001
0000
,
0100
0000
0000
0010
0000
0000
1000
0010
,
0000
0000
0000
0000
0000
0000
0100
0001
,
0000
0000
0000
0000
0000
0000
1000
0010
,
0000
0000
0100
0000
,
0001
0000
0000
1000
0000
0000
0010
0100
,
0000
0000
0000
0000
0000
0000
0001
1000
,
0000
0000
0000
0000
0000
0000
0010
0100
,
0000
0000
0000
0000
,
0001
0000
0100
0000
0010
0000
1000
0001
,
0000
0000
0001
0000
1000
0000
0010
0100
,
0000
0000
0001
0000
1000
0000
0010
0100
,
0000
0000
0001
0000
0000
1000
0000
0000
,
0010
0000
0100
0000
0001
0000
1000
0001
,
0000
0000
0100
0000
0010
0000
1000
0001
,
0000
0000
0100
0000
0010
0000
1000
0001
,
0000
1000
0010
0100
,
0001
0001
0010
0010
,
0100
0100
1000
1000
,
0010
0010
0100
0100
,
0001
0001
1000
0000
,
1001
0001
0001
0100
,
0100
0010
0010
1000
,
1000
0001
0010
0100
,
1000
0010
0100
0001
,
1000
1000
0010
0010
,
0100
0100
0001
0001
,
1000
0010
1000
0001
,
0100
0001
1000
0001
,
1001
0010
0010
0100
,
0100
0001
0001
1000
,
1000
0010
0100
0001
,
1000
0010
0100
0001
,
2000
0000
0000
0000
,
3010
0000
0010
0000
,
0200
0000
0000
0000
,
0301
0000
0001
0000
,
0002
0000
0000
0003
,
0100
0000
0000
0010
0000
0000
1000
0000
,
0001
0100
0010
1000
,
0001
0100
0001
1000
,
0020
0000
0000
0000
,
0000
0000
1030
0000
,
2000
0000
0000
0000
,
0000
0000
3001
0000
,
0001
0000
0000
1000
0000
0000
0010
0000
,
1000
0000
0000
0001
0000
0000
0100
0000
,
0010
0010
1000
1000
,
0001
0001
0100
0010
,
1000
1000
0001
0001
,
0100
0010
1000
0001
,
0100
0010
1000
0001
,
0010
0100
1000
0010
,
0200
0000
0000
0000
0000
0000
0000
0301
,
0000
0000
0010
0000
,
2000
0000
3010
0000
,
0020
0000
0000
0030
,
0100
0000
0000
0001
0000
0000
1000
0000
,
0010
0000
0000
0100
0000
0000
0001
0000
,
1000
1000
0010
0100
,
0001
1000
0100
0010
,
0002
0000
0000
0000
0000
0000
0000
1000
,
0003
0000
0010
0000
,
0200
0000
0001
0000
,
0301
0000
0010
0000
,
1000
0000
0000
0001
0000
0000
0100
0000
,
0010
0000
0000
1000
0000
0000
0001
0000
,
0100
0010
1000
0001
,
1000
0100
0010
0001
,
2000
0000
0000
0000
0000
0000
0000
3001
,
0000
0000
0001
0000
,
0020
0000
0130
0000
,
0100
0000
0000
0000
;

//---------------dance-single - Copied from----------------
#NOTES:
     dance-single:
     Copied from:
     Beginner:
     2:
     0.073294,0.092123,0.000000,0.085509,0.000000,66.000000,66.000000,0.000000,11.000000,0.000000,0.000000,0.073294,0.092123,0.000000,0.085509,0.000000,66.000000,66.000000,0.000000,11.000000,0.000000,0.000000:
0000
0000
0000
0000
,
0000
0000
0000
0000
,
0000
0000
0000
0000
,
0000
0000
0000
0000
,
1000
0000
0000
0000
,
1000
0000
0000
0000
,
1000
0000
0000
0000
,
1000
0000
0000
0000
,
0010
0000
0000
0010
,
0000
0000
0000
0010
,
0000
0000
0000
0010
,
0000
0000
0000
0000
,
0100
0000
0000
0100
,
0000
0000
0000
0100
,
0000
0000
0000
0100
,
0000
0000
0000
0000
,
0001
0000
0000
0001
,
0000
0000
0000
0001
,
0000
0000
0000
0001
,
0000
0000
0000
0000
,
1000
0000
0000
1000
,
0000
0000
0000
1000
,
0000
0000
0000
1000
,
0000
0000
0000
0000
,
0010
0000
0000
0000
,
0010
0000
0000
0000
,
0010
0000
0000
0000
,
0010
0000
0000
0000
,
0100
0000
0000
0000
,
0100
0000
0000
0000
,
0100
0000
0000
0000
,
0100
0000
0000
0000
,
0001
0000
0000
0000
,
0001
0000
0000
0000
,
0001
0000
0000
0000
,
0001
0000
0000
0000
,
1000
0000
0000
0000
,
1000
0000
0000
0000
,
1000
0000
0000
0000
,
1000
0000
0000
0000
,
0020
0000
0000
0000
,
0000
0030
0000
0000
,
0200
0000
0000
0000
,
0000
0000
0300
0000
,
0001
0000
0000
0000
,
0001
0000
0000
0000
,
2000
0000
0000
0000
,
0000
0000
0000
3000
,
0020
0000
0000
0000
,
0000
0000
0030
0000
,
0200
0000
0000
0000
,
0000
0000
0000
0300
0000
0000
0000
0000
,
0001
0000
0000
0000
,
1000
0000
0000
0000
,
0010
0000
0000
0000
,
0100
0000
0000
0000
,
0001
0000
0000
0000
,
1000
0000
0000
0000
,
0010
0000
0000
0000
,
0100
0000
0000
0000
,
0002
0000
0000
0000
,
0000
0000
0000
0003
0000
0000
0000
0000
,
2000
0000
0000
0000
,
0000
0000
3000
0000
,
0010
0000
0000
0000
,
0010
0000
0000
0000
,
0100
0000
0000
0000
,
0100
0000
0000
0000
,
0002
0000
0000
0000
,
0000
0000
0000
0003
0000
0000
0000
0000
,
2000
0000
0000
0000
,
0000
0000
0000
3000
0000
0000
0000
0000
,
0010
0000
0000
0000
,
0100
0000
0000
0000
,
0001
0000
0000
0000
,
0001
0000
0000
0000
,
2000
0000
0000
0000
,
0000
3000
0010
0000
,
0200
0000
0000
0000
,
0000
0300
0000
0000
0000
0000
0000
0000
0000
0000
0000
0000
0000
0000
0000
0000
0000
0000
0000
0000
0000
0000
0000
0000
0000
0000
0000
0000
0000
0000
0000
0000
0000
0000
0000
0000
0000
0000
0000
0000
0000
0000
0000
0000
0000
0000
0000
0000
0000
0000
0000
0000
0000
0000
0000
0000
0000
0000
0000
0000
0000
0000
0000
0000
0000
0000
0000
0000
0000
0000
0000
0000
0000
0000
0000
0000
0000
0000
0000
0000
0000
0000
0000
0000
0000
0000
0000
0000
0000
0000
0000
0000
0000
0000
0000
0000
0000
0000
0000
0000
0000
0000
0000
0000
0000
0000
0000
0000
0000
0000
0000
0000
0000
0000
0000
0000
0000
0000
0000
0000
0000
0000
0000
0000
0000
0000
0000
0000
0000
0000
0000
0000
0000
0000
0000
0000
0000
0000
0000
0000
0000
0000
0000
0000
0000
0000
0000
0000
0000
0000
0000
0000
0000
0000
0000
0000
0000
0000
0000
0000
0000
0000
0000
0000
0000
0000
0000
0000
0000
0000
0000
0000
0000
0000
0000
0000
0000
0000
0000
0000
0000
0000
0000
0000
0000
0000
0000
0000
0000
0000
0000
0000
;
