#TITLE:SPLASH;
#SUBTITLE:;
#ARTIST:MAYA AKAI;
#TITLETRANSLIT:;
#SUBTITLETRANSLIT:;
#ARTISTTRANSLIT:;
#GENRE:;
#CREDIT:SupremeX;
#BANNER:SPLASH.png;
#BACKGROUND:SPLASH-bg.png;
#LYRICSPATH:;
#CDTITLE:CDTitle.png;
#MUSIC:SPLASH.ogg;
#OFFSET:-0.081;
#SAMPLESTART:72.750000;
#SAMPLELENGTH:14.800000;
#SELECTABLE:YES;
#BPMS:0.000000=132.000000
;
#STOPS:
;
#BGCHANGES:12.000=rain2.avi=1.000=0=0=1=====,
32.000=light5.avi=1.000=0=0=1=====,
48.000=spiral2.avi=1.000=0=0=1=====,
64.000=spiral1.avi=1.000=0=0=1=====,
96.000=sexy01.avi=1.000=0=0=1=====,
128.000=rain3.avi=1.000=0=0=1=====,
144.000=text15.avi=1.000=0=0=1=====,
160.000=rain2.avi=1.000=0=0=1=====,
192.000=light5.avi=1.000=0=0=1=====,
208.000=spiral2.avi=1.000=0=0=1=====,
224.000=SPLASH-bg.png=1.000=0=0=1=====,
99999=-nosongbg-=1.000=0=0=0 // don't automatically add -songbackground-
;
#KEYSOUNDS:;
#ATTACKS:;

//---------------dance-single - ----------------
#NOTES:
     dance-single:
     :
     Beginner:
     1:
     0.071328,0.105306,0.000000,0.009078,0.000000,55.000000,55.000000,0.000000,1.000000,0.000000,0.000000,0.071328,0.105306,0.000000,0.009078,0.000000,55.000000,55.000000,0.000000,1.000000,0.000000,0.000000:
0000
0000
0000
0000
,
0000
0000
0000
0000
,
0000
0000
0000
0000
,
0000
0000
0000
0000
,
0001
0000
0000
0000
0000
0000
0000
0001
,
0000
0000
0000
0000
0000
0000
0000
0001
,
0000
0000
0000
0000
0000
0000
0000
0001
,
0000
0000
0000
0000
,
0100
0000
0000
0000
,
0100
0000
0000
0000
,
0100
0000
0000
0000
,
0100
0000
0000
0000
,
0010
0000
0000
0000
,
0010
0000
0000
0000
,
0010
0000
0000
0000
,
0010
0000
0000
0000
,
1000
0000
0000
0000
,
1000
0000
0000
0000
,
1000
0000
0000
0000
,
1000
0000
0000
0000
,
0010
0000
0000
0000
,
0100
0000
0000
0000
,
0010
0000
0000
0000
,
0100
0000
0000
0000
,
0001
0000
0000
0000
,
0000
0000
0000
0000
,
1000
0000
0000
0000
,
0000
0000
0000
0000
,
0001
0000
0000
0000
,
1000
0000
0000
0000
,
0001
0000
0000
0000
,
1000
0000
0000
0000
,
0010
0000
0000
0000
,
0000
0000
0100
0000
,
0000
0000
0000
0000
0000
0000
0000
0010
,
0000
0000
0000
0000
,
0100
0000
0000
0000
,
0000
0000
0010
0000
,
0100
0000
0000
0000
,
0000
0000
0000
0000
,
0001
0000
0000
0000
,
0001
0000
0000
0000
,
0001
0000
0000
0001
,
0000
0001
0000
0000
,
0001
0000
0000
0001
,
0000
0000
0001
0000
,
0001
0000
0000
0001
,
0000
0000
0000
0000
,
1000
0000
0000
1000
,
0000
1000
0000
0000
,
1000
0000
1000
0000
,
0000
1000
0000
0000
,
0010
0000
0010
0000
,
0000
0010
0000
0000
,
0010
0000
0010
0000
,
0000
0010
0000
0000
,
0200
0000
0000
0000
,
0000
0000
0000
0000
,
0300
0000
0000
0000
;

//---------------dance-single - ----------------
#NOTES:
     dance-single:
     :
     Hard:
     7:
     0.390359,0.472856,0.118016,0.063547,0.099859,301.000000,288.000000,13.000000,7.000000,0.000000,0.000000,0.390359,0.472856,0.118016,0.063547,0.099859,301.000000,288.000000,13.000000,7.000000,0.000000,0.000000:
0000
0000
0000
0000
,
0000
0000
0000
0000
,
0000
0000
0000
0000
,
0001
0000
1000
0001
1000
0000
0001
0100
,
0010
0000
1000
0100
0010
0000
0001
1000
,
0001
0000
1000
0100
0010
0000
0001
1000
,
0010
0000
0100
0001
1000
0000
0001
0010
,
0100
0000
1000
0010
0100
0000
0001
1000
,
0001
0000
1000
0000
1000
0000
0010
0100
,
0010
0000
1000
0000
1001
0000
1000
0100
,
0010
0000
0001
0000
1000
0010
0100
0001
,
1000
0000
0001
0000
0110
0000
1000
0010
,
1000
0000
0001
0000
1000
0010
0100
0001
,
1000
0000
1001
0000
0100
0000
0010
0100
,
0010
0000
0010
0000
1000
0100
0010
0001
,
1000
0100
1000
0010
,
0110
0000
0001
0010
0100
1000
0010
1000
,
0001
0000
1000
0000
0101
0000
0010
1000
,
1010
0000
0001
0010
0100
1000
0010
0100
,
0110
0000
0001
1000
1001
0000
0001
0100
,
0101
0000
0010
1000
0001
0100
0010
1000
,
1010
0000
0001
0100
0110
0000
0001
1000
,
1100
0000
0001
0010
0100
1000
0010
0100
,
0101
0000
0000
0000
0010
0000
1000
0000
0010
0000
0000
0100
0000
0000
0001
0000
,
2000
0000
0000
0000
,
0000
0000
0000
3000
0000
0000
0000
0000
0001
0000
0000
1000
0000
0000
0001
0000
,
0002
0000
0000
0000
0000
0000
0000
1003
,
0000
0000
0000
0000
0000
0000
0000
0000
1000
0000
0000
0000
0000
0000
0010
1000
,
0020
0000
0000
0000
0000
0000
0000
0000
0000
0000
0000
0000
0030
0000
0100
0001
,
0100
0000
0000
0001
0000
0000
0010
0000
,
0200
0000
0000
0000
0000
0000
0000
1300
,
0000
0000
1000
0000
,
0001
0100
0010
0000
1000
0010
1000
0000
,
0100
0000
0010
0000
0001
0000
0000
0000
0100
0000
0000
0001
0000
0000
0100
0000
,
0001
1000
0001
0000
1000
0100
0010
0000
,
0001
0000
0100
0000
0010
0000
0000
0000
1000
0000
0000
1000
0000
0000
0001
0000
,
0010
0100
1000
0010
0100
0001
1000
0001
,
0100
0000
0010
0000
1000
0000
0001
0000
1000
0000
0000
0001
0000
0000
1000
0000
,
2000
0000
0000
0000
0010
0000
0000
0000
0010
0000
0000
0000
0010
3000
0000
0000
,
0020
0100
0100
0130
,
0100
0000
0000
0000
0001
0000
0010
0000
0100
0000
0000
1000
0000
0000
0010
0000
,
0000
0000
0100
0000
0001
0000
0100
0000
0010
0000
0000
1000
0000
0000
0010
0000
,
0100
0000
0001
0000
0010
0000
0100
0000
1000
0000
0000
0100
0000
0000
1000
0000
,
0000
0000
0001
0000
0100
0000
0010
0000
1000
0000
0000
0001
0000
0000
0100
0000
,
0001
0000
0000
0000
1000
0000
0010
0000
0100
0000
0000
0100
0000
0000
0100
0000
,
0000
0000
0001
0000
1000
0000
0100
0000
0010
0000
0000
0001
0000
0000
0001
0000
,
0001
0000
0000
0000
0010
0000
0100
0000
1000
0000
0000
0010
0000
0000
0010
0000
,
0000
0000
0100
0000
0001
0000
1000
0000
1000
0000
0000
1000
0000
0000
0000
0000
,
0010
0000
0000
0000
0100
0000
0001
0000
1000
0000
0000
0010
0000
0000
1000
0000
,
0001
0000
0000
0000
0100
0000
0010
0000
0100
0000
0000
0001
0000
0000
1000
0000
,
0010
0000
0000
0000
0100
0000
0001
0000
1000
0000
0000
1000
0000
0000
1000
0000
,
0000
0000
0001
0000
0100
0000
0010
0000
1000
0000
0000
0010
0000
0000
0010
0000
,
0100
0001
1000
0100
0010
0001
1000
0010
,
1000
0000
0001
0000
0100
0000
0001
0000
1000
0000
0000
0001
0000
0000
1000
0000
,
0010
0000
0000
0000
0100
0000
0010
0000
0100
0000
0000
0001
0000
0000
0001
0000
,
0000
0000
1000
0000
0100
0000
0010
0000
0001
0000
0000
1000
0000
0000
0010
0000
,
2000
0000
0000
0000
,
0000
0000
0000
0000
0000
0000
0000
3000
;

//---------------dance-single - ----------------
#NOTES:
     dance-single:
     :
     Challenge:
     9:
     0.551171,0.683015,0.254187,0.063547,0.490218,425.000000,397.000000,28.000000,7.000000,0.000000,0.000000,0.551171,0.683015,0.254187,0.063547,0.490218,425.000000,397.000000,28.000000,7.000000,0.000000,0.000000:
0000
0000
0000
0000
,
0000
0000
0000
0000
,
0000
0000
0000
0000
,
0001
0000
0100
0001
1000
0010
0100
0001
0000
0000
1000
0010
0100
0001
1000
0010
,
0000
0000
1000
0001
0100
0010
1000
0001
0000
0000
0100
0010
1000
0001
1000
0010
,
0000
0000
0100
0001
1000
0010
0100
0010
0000
0000
1000
0010
0100
0001
1000
0001
,
0000
0000
0100
0010
1000
0001
1000
0010
0000
0000
1000
0100
1000
0100
1000
0100
,
0000
0000
1000
0010
0100
0001
1000
0010
0000
0000
0100
0001
0100
0001
0100
0001
,
0100
0010
1000
0001
1000
0010
0100
0001
,
1000
0000
0000
1001
0000
0000
0000
0000
0001
0000
0000
0100
0001
0000
0100
0000
,
0001
0000
0000
0101
0000
0000
0000
0000
0000
0000
1000
0000
0010
0000
1000
0000
,
0010
0000
0000
1010
0000
0000
0000
0000
0100
0000
0000
0000
0001
0000
0010
0000
,
0100
0000
0000
1100
0000
0000
0000
0000
0000
0000
1000
0000
0100
0000
0010
0000
,
0001
0000
0000
0011
0000
0000
0000
0000
1000
0000
0000
0000
0010
1000
0010
0000
,
1000
0000
0000
0110
0000
0000
0000
0000
0000
0000
0001
0000
0010
0000
0100
0000
,
1000
0000
0000
1001
0000
0000
0000
0000
0100
0000
0000
0110
0000
0000
0000
0000
,
0101
0000
1000
0100
0010
0001
0100
0010
,
0110
0000
0000
0101
0000
0000
0000
0000
1010
0000
0000
0000
1000
0000
0001
0000
,
1001
0000
0000
1001
0000
0000
0000
0000
0001
0000
0100
0000
0010
0000
1000
0000
,
0001
0000
0000
1001
0000
0000
0100
0000
0110
0000
0000
0000
0001
0000
1000
0000
,
1100
0000
0000
1100
0000
0000
0010
0000
0001
0000
0010
0000
0100
0000
1000
0000
,
0011
0000
0000
0011
0000
0000
0100
0000
1100
0000
0000
0000
0001
0000
1000
0000
,
1001
0000
0000
1001
0000
0000
0001
0000
0100
0000
0010
0000
1000
0000
0100
0000
,
0101
0000
0000
0101
0000
0000
1000
0000
0010
0000
0000
0010
0000
0000
0100
0000
,
0001
1000
0100
0010
0001
0100
0010
1000
,
0001
0000
0100
0000
0001
0000
0000
0000
1000
0000
0000
1000
0000
0000
0010
0000
,
0100
0001
1000
0001
0100
0010
1000
0002
,
0000
0000
0000
0000
0000
0000
0000
0000
1003
0000
0000
0000
0000
0000
1000
0010
,
1000
0000
0010
0000
0100
0000
0001
0000
1000
0000
0010
0000
0100
0000
0001
1000
,
0002
0000
0000
2003
0000
0000
3010
0000
,
0100
0001
1000
0010
1000
0001
0100
0020
,
0000
0000
0230
0000
,
0310
0000
1000
0010
1000
0010
1000
0000
0001
0000
0100
0001
0100
0001
0100
0000
,
0010
0000
1000
0010
1000
0010
1000
0000
0001
0000
0000
0010
0000
0000
0100
0000
,
1000
0010
1000
0000
0001
0100
0010
0000
,
0010
0000
1000
0000
0001
0000
0000
0000
0001
0000
0000
1001
0000
0000
1000
0000
,
0100
0010
0001
1000
0010
0100
0001
1000
,
0010
0000
1000
0000
0001
0000
0100
0000
0001
0000
0000
1000
0000
0000
1001
0000
,
0010
0100
1000
0001
0100
0010
1000
0001
,
1000
0100
0010
0001
1000
0001
0100
0010
,
1000
0000
0000
0000
0001
1000
0001
1000
0001
0000
0000
1000
0000
0000
0001
0000
,
0000
0000
1000
0100
1000
0100
1000
0000
0001
0000
0000
0100
0000
0000
0001
0000
,
0100
0000
0010
1000
0010
1000
0010
0000
1000
0000
0000
0001
0000
0000
0010
0000
,
0000
0000
0100
1000
0100
1000
0100
0000
0010
0000
0000
0001
0000
0000
1000
0000
,
0001
0000
0000
0000
0100
0010
0100
0010
0100
0000
0000
0001
0000
0000
0001
0000
,
0000
0000
1000
0010
0100
0001
0100
0000
0010
0000
0000
1000
0000
0000
0001
0000
,
1000
0000
0000
0000
0001
0100
0001
0100
0001
0000
0000
1000
0000
0000
1000
0000
,
0000
0000
0010
0100
0010
0100
0010
0000
1000
0000
0000
0001
0000
0000
0000
0000
,
1000
0000
0000
0000
0001
0010
0001
0010
0001
0000
0000
0100
0000
0000
0100
0000
,
0001
0000
1000
0010
1000
0010
1000
0000
0001
0000
0000
0100
0000
0000
0001
0000
,
1000
0000
0000
0000
0010
0100
0001
1000
0001
0000
0000
0100
0000
0000
0010
0000
,
0000
0000
1000
0000
0010
0100
0001
0100
0001
0000
0000
0010
0000
0000
0100
0000
,
1000
0000
0100
0000
0010
0001
0010
0001
0010
0000
0000
0100
0000
0000
1000
0000
,
0010
0000
0100
0000
0001
0100
0001
0100
0001
0000
0000
1000
0000
0000
1000
0000
,
0010
0000
0000
0000
1000
0100
1000
0100
1000
0000
0000
0001
0000
0000
0001
0000
,
0000
0000
0100
0001
0100
0001
0100
0000
0010
0000
0000
1000
0000
0000
0001
0000
,
2002
0000
0000
0000
,
0000
0000
0000
0000
0000
0000
0000
3003
;

//---------------dance-single - ----------------
#NOTES:
     dance-single:
     :
     Medium:
     5:
     0.295687,0.342245,0.045391,0.090781,0.000000,228.000000,223.000000,5.000000,10.000000,0.000000,0.000000,0.295687,0.342245,0.045391,0.090781,0.000000,228.000000,223.000000,5.000000,10.000000,0.000000,0.000000:
0000
0000
0000
0000
,
0000
0000
0000
0000
,
0000
0000
0000
0000
,
0000
0000
0000
0000
,
1000
0010
1000
0001
,
0100
0001
1000
1000
,
0010
0010
0100
0100
,
0001
0001
1000
0010
,
0100
0000
0001
0000
1000
0100
0010
0001
,
0100
0000
0010
0000
1000
0000
0001
0010
,
0100
0000
1000
0000
0001
0100
0010
1000
,
0001
0100
0001
1000
,
0010
0000
1000
0000
0001
1000
0010
0100
,
0001
1000
0010
0100
,
0001
0000
0001
0000
1000
0010
0100
0001
,
1000
0010
0100
0001
,
1000
0000
0001
0000
1000
0010
0100
0001
,
1000
0010
0100
0010
,
1000
0000
0001
0000
0000
1000
0100
0010
,
0001
0000
0100
0000
0010
0000
0010
1000
,
0001
0000
0001
0000
1000
0000
0010
0100
,
0001
0000
1000
0000
0010
0100
0001
1000
,
0010
0000
1000
0000
0010
0100
0010
0100
,
0001
1000
0010
0100
,
2002
0000
0000
0000
,
0000
0000
3003
0000
0100
0000
0000
0010
,
0020
0000
0000
0000
0000
0000
0000
0230
,
0000
0000
0000
0000
0001
0000
0000
0001
,
0302
0000
0000
0000
,
2003
0000
0000
3010
,
0020
0000
0000
0000
0000
0000
0000
0230
,
0000
0000
0301
0000
,
1000
0000
0010
1000
0010
0000
0100
0000
,
0100
0000
0001
0000
1000
0000
0010
1000
,
0010
0000
1000
0000
0001
0000
0100
0001
,
0000
1000
0010
0000
0100
0000
0001
0000
,
1000
0010
1000
0000
0001
0100
0001
0000
,
1000
0010
1000
0000
0001
0100
0001
0000
,
1000
1010
0001
0101
,
1000
1010
0001
0100
,
0010
0000
1000
0001
1000
0000
0001
0000
,
1000
0000
0010
0100
0010
0000
1000
0000
,
0001
0000
0100
0001
0100
0000
0001
0000
,
1000
0010
0100
0000
0010
0000
1000
0000
,
0001
1000
0010
0100
,
0001
1000
0001
0000
0100
0000
0010
0000
,
1000
0000
0001
0100
0001
0000
1000
0000
,
1000
0010
0010
0000
,
0100
0000
0001
1000
0010
0000
0010
0000
,
0100
0000
0100
0000
0001
1000
0010
0000
,
0010
0000
0100
0001
0100
0000
0001
0000
,
1000
0100
0010
0001
,
0100
0100
0100
0100
,
0100
0010
1000
0001
,
0100
0001
1000
0010
,
1000
0001
0010
0100
,
2002
0000
0000
0000
,
0000
0000
0000
0000
,
3003
0000
0000
0000
;

//---------------dance-single - ----------------
#NOTES:
     dance-single:
     :
     Easy:
     3:
     0.224359,0.236939,0.027234,0.063547,0.000000,173.000000,170.000000,3.000000,7.000000,0.000000,0.000000,0.224359,0.236939,0.027234,0.063547,0.000000,173.000000,170.000000,3.000000,7.000000,0.000000,0.000000:
0000
0000
0000
0000
,
0000
0000
0000
0000
,
0000
0000
0000
0000
,
0000
0000
0000
0000
,
0010
1000
0010
0100
,
0001
0100
0010
1000
,
0010
0100
0001
0100
,
0010
1000
0010
0100
,
0001
0001
0001
0001
,
1000
1000
1000
1000
,
0010
0010
0010
0010
,
0100
0100
0100
0100
,
0001
1000
0001
1000
,
0001
1000
0010
0100
,
0010
0100
0010
0100
,
0010
0100
0010
0000
,
1000
0001
1000
0001
,
0001
0001
0100
0010
,
0100
0010
0100
0010
,
0010
0010
1000
1000
,
0001
0100
0001
0100
,
0100
0100
0010
1000
,
0010
1000
0010
0100
,
0001
1000
0010
0100
,
0002
0000
0000
0000
,
0000
0000
0000
0000
,
2003
0000
0000
0000
,
0000
0000
0000
0000
,
3020
0000
0000
0000
,
0000
0000
0000
0000
,
0230
0000
0000
0000
,
0301
0000
0001
0000
,
1000
0010
1000
0010
,
1000
0010
1000
0100
,
0010
0001
0001
0001
,
0100
0010
0100
0001
,
0100
0001
0010
0100
,
1000
0010
0100
0001
,
2000
0000
0000
0000
,
0000
0000
0000
3000
,
0010
0010
0010
0010
,
0100
0100
0100
0100
,
0001
0001
0001
0001
,
0001
0001
0100
0010
,
0100
0001
0100
0001
,
0100
0001
0100
0010
,
1000
0010
1000
0010
,
1000
0010
1000
0000
,
0001
0001
0100
0100
,
0010
0010
1000
1000
,
0001
0100
0010
1000
,
0001
0100
0010
1000
,
0001
1000
0001
1000
,
0001
1000
0010
0000
,
0110
0000
0001
0000
,
1001
0000
1000
0001
,
2002
0000
0000
0000
,
0000
0000
0000
0000
,
3003
0000
0000
0000
;
