#TITLE:SAKURA EXHAUST;
#SUBTITLE:;
#ARTIST:RIO HAMAMOTO(BNSI);
#TITLETRANSLIT:;
#SUBTITLETRANSLIT:;
#ARTISTTRANSLIT:;
#CREDIT:SupremeX;
#BANNER:SAKURA EXHAUST.png;
#BACKGROUND:SAKURA EXHAUST-bg.png;
#LYRICSPATH:;
#CDTITLE:CDTitle.png;
#MUSIC:SAKURA EXHAUST.ogg;
#OFFSET:-2.255;
#SAMPLESTART:91.540;
#SAMPLELENGTH:12.000;
#SELECTABLE:YES;
#BPMS:0.000=178.000;
#STOPS:101.000=1.180
;
#BGCHANGES:17.000=sphere4.avi=1.000=0=0=1,
33.000=SAKURA EXHAUST-bg.png=1.000=0=0=1,
37.000=4 JumpBack.avi=1.000=0=0=1,
53.000=beads3.avi=1.000=0=0=1,
69.000=sphere4.avi=1.000=0=0=1,
85.000=beads3.avi=1.000=0=0=1,
101.000=SAKURA EXHAUST-bg.png=1.000=0=0=1,
101.500=fabric1.avi=1.000=0=0=1,
117.500=spiral3.avi=1.000=0=0=1,
133.500=fabric1.avi=1.000=0=0=1,
149.000=spiral3.avi=1.000=0=0=1,
165.500=light6.avi=1.000=0=0=1,
197.500=wheel.avi=1.000=0=0=1,
227.500=4 JumpBack.avi=1.000=0=0=1,
261.500=oilan.avi=1.000=0=0=1,
293.500=wheel.avi=1.000=0=0=1,
325.500=sphere4.avi=1.000=0=0=1,
341.500=light6.avi=1.000=0=0=1,
357.250=SAKURA EXHAUST-bg.png=1.000=0=0=1,
99999=-nosongbg-=1.000=0=0=0 // don't automatically add -songbackground-
;

//---------------dance-single - ----------------
#NOTES:
     dance-single:
     :
     Hard:
     10:
     0.663,0.670,0.150,0.229,0.043: // measure 1
0000
0000
0000
0000
,  // measure 2
0000
0000
0000
0000
,  // measure 3
0000
0000
0000
0000
,  // measure 4
0000
0000
0000
0000
,  // measure 5
0000
0000
1000
0100
0010
0001
0000
1000
,  // measure 6
0010
1000
0001
0010
0100
1000
0000
0010
,  // measure 7
0100
0001
1000
0010
0100
0001
0000
1000
,  // measure 8
0100
0000
1000
0000
0001
0000
0100
0000
0001
0000
1000
0000
0010
0000
0100
0001
,  // measure 9
0000
1000
0010
0000
0100
0000
0000
0000
0000
0000
0000
0000
0000
0000
0000
0000
,  // measure 10
0000
0000
0001
0010
0100
1000
0010
0000
,  // measure 11
0010
1000
0001
1000
0010
0100
0010
0000
,  // measure 12
1000
0100
0010
0001
1000
0010
2000
0000
,  // measure 13
3200
0000
0320
0000
0000
0031
0000
0000
,  // measure 14
0001
1000
0100
1000
0010
0100
0001
0000
,  // measure 15
0001
1000
0010
1000
0001
0100
0001
0010
,  // measure 16
0100
1000
0200
0000
0000
0000
0000
0000
,  // measure 17
0310
2002
3003
1001
,  // measure 18
1000
0010
0100
0001
1000
0010
0100
0000
,  // measure 19
0100
0001
1000
0100
0010
0001
1000
0000
,  // measure 20
0010
0100
0020
0000
0000
0130
0001
0000
,  // measure 21
0002
0000
2003
0000
0000
3100
0000
0000
,  // measure 22
0100
0010
1000
0010
0100
0001
1000
0000
,  // measure 23
1000
0001
0010
0100
1000
0010
0100
0000
,  // measure 24
0001
1000
0002
0000
0100
0000
0100
0000
,  // measure 25
0103
0000
0001
0010
0100
1000
0001
1000
,  // measure 26
1001
0000
1010
0001
0010
0100
1000
0010
,  // measure 27
0100
0001
1000
0010
1000
0001
0100
0001
,  // measure 28
1000
0010
0000
0010
0000
1000
0100
0010
,  // measure 29
0001
0100
0010
1000
0010
0100
0001
0010
,  // measure 30
0100
1000
0000
0010
0100
0010
1000
0001
,  // measure 31
0100
0001
1000
0010
0100
0001
1000
0001
,  // measure 32
0100
0010
0100
0010
0000
1000
0100
0010
,  // measure 33
0001
1000
0010
0100
0220
0000
0000
0000
,  // measure 34
0000
0000
0330
0001
0010
0001
0010
0100
,  // measure 35
1000
0100
1000
0001
0100
0001
0100
0010
,  // measure 36
1000
0010
1000
0001
0100
0001
0010
0100
,  // measure 37
1000
0010
0100
0001
1000
0010
1000
0100
,  // measure 38
0010
0001
1000
0010
0100
0010
1000
0001
,  // measure 39
0100
0010
1000
0100
0010
0001
1000
0100
,  // measure 40
1000
0100
0010
0001
0010
0100
1000
0010
,  // measure 41
1000
0001
0010
0100
1000
0100
0100
0100
,  // measure 42
0100
0100
0000
0010
0001
0010
0100
1000
,  // measure 43
0001
0100
0001
1000
0010
1000
0010
0100
,  // measure 44
0000
1001
0000
0010
0100
1000
0001
0100
,  // measure 45
0010
1000
0001
0010
0100
1000
0010
0100
,  // measure 46
0000
0110
0000
0001
0100
0001
1000
0010
,  // measure 47
0100
0010
1000
0001
0100
0001
1000
0010
,  // measure 48
0000
1001
0000
1000
0010
0100
0001
1000
,  // measure 49
0100
0010
0001
1000
1000
1000
1000
1000
,  // measure 50
1000
1000
0000
0001
0100
0001
0010
0001
,  // measure 51
1000
0010
1000
0001
1000
0010
1000
0100
,  // measure 52
0010
0001
0000
0001
0010
0100
1000
0010
,  // measure 53
0100
0001
0100
0010
1000
0010
1000
0100
,  // measure 54
1100
0000
0000
0001
0010
0001
0010
0001
,  // measure 55
1000
0100
1000
0100
1000
0001
0100
0010
,  // measure 56
1000
0001
0000
0100
0010
1000
0001
0100
,  // measure 57
0001
0010
0100
1000
0100
1000
0000
0020
,  // measure 58
0000
2030
0000
3002
0000
0000
0000
0100
,  // measure 59
0000
0000
0000
1000
0000
0000
0000
0100
,  // measure 60
0000
1003
0000
0200
0000
0000
0000
0010
,  // measure 61
0000
0000
0000
0320
0000
0000
0000
1030
,  // measure 62
0000
0000
0000
2000
0000
0000
0000
0001
,  // measure 63
0000
0000
0000
0010
0000
0000
0000
0001
,  // measure 64
0000
3010
0000
0200
0000
0000
0000
0010
,  // measure 65
0000
0000
0000
0301
0000
0001
0010
0100
,  // measure 66
1000
0010
0100
0010
0000
1000
0001
1000
,  // measure 67
0010
0100
0001
1000
0000
1100
0000
0011
,  // measure 68
0000
1000
0000
1010
0000
0100
0000
0002
,  // measure 69
0000
0100
0000
1000
0003
0100
0000
0010
,  // measure 70
1000
0010
1000
0020
0000
0100
0000
0130
,  // measure 71
0000
0100
0001
0020
0000
0130
1000
0200
,  // measure 72
0000
0300
0010
0002
0000
0100
0000
0100
,  // measure 73
0000
0103
0000
2000
0000
0000
3000
0020
,  // measure 74
0000
0000
0030
0100
0001
0010
0100
1000
,  // measure 75
0010
0100
0010
0110
0001
0010
0100
1000
,  // measure 76
0001
1000
0001
1001
1000
0100
0010
0001
,  // measure 77
1000
0100
1000
1100
0010
0001
0010
0100
,  // measure 78
1000
0100
0010
0011
0100
1000
0100
0010
,  // measure 79
0001
1000
0010
0110
0001
0010
0100
1000
,  // measure 80
0010
0100
0001
1001
1000
0100
0010
0001
,  // measure 81
0100
0010
0100
0110
1000
0100
0010
0001
,  // measure 82
0010
0100
1000
0010
1000
0010
0200
0000
,  // measure 83
0300
0001
0100
0001
0100
0001
2000
0000
,  // measure 84
3000
0010
0100
0001
1000
0010
0200
0000
,  // measure 85
0310
0000
1000
0000
0100
0000
0010
0000
0001
0000
0100
0000
0010
0000
1000
0100
,  // measure 86
0000
1000
0100
0000
1000
0100
0000
0000
0010
0000
0001
0000
0010
0000
0100
0000
,  // measure 87
1000
0010
0100
0010
0100
0001
1000
0010
,  // measure 88
1000
0001
0100
0001
0010
0100
1000
0100
,  // measure 89
0010
0000
0000
0000
0001
0000
0000
0000
1000
0000
0000
0000
0000
0000
1000
0000
0000
0000
0000
0000
1000
0000
0000
0000
0010
0000
0000
0100
0000
0000
0010
0000
,  // measure 90
0000
0100
0000
0000
0010
0000
0000
0100
0000
0000
0010
0000
0000
0000
0000
0000
0000
0000
0000
0000
0000
0000
0000
0000
0000
0000
0000
0000
0000
0000
0000
0000
;

//---------------dance-single - ----------------
#NOTES:
     dance-single:
     :
     Medium:
     8:
     0.496,0.493,0.047,0.189,0.043:
0000
0000
0000
0000
,
0000
0000
0000
0000
,
0000
0000
0000
0000
,
0000
0000
0000
0000
,
0000
0000
1000
0000
0010
0100
0000
0100
,
0001
0000
1000
0100
0010
0001
0000
0100
,
0001
0000
1000
0000
1000
0010
0000
0010
,
0100
0000
0000
0000
0100
0000
0001
0000
0010
0000
0100
0000
1000
0000
0010
0100
,
0000
0001
1000
0000
0001
0000
0000
0000
0000
0000
0000
0000
0000
0000
0000
0000
,
0000
0000
1000
0000
0001
0010
0100
0000
,
1000
0000
1000
0000
0100
0010
0001
0000
,
1000
0010
0200
0000
0300
0001
2000
0000
,
3200
0000
0320
0000
0000
0031
0000
0000
,
0001
0000
1000
0000
0010
0100
0010
0000
,
1000
0000
1000
0000
0100
0010
0001
0100
,
0010
1000
0020
0000
0000
0000
0000
0000
,
0130
0100
0000
0001
,
1000
0000
0001
0000
1000
0100
0010
0000
,
0001
1000
0001
0000
0100
0000
0010
1000
,
0001
1000
0200
0000
0000
0310
0010
0000
,
0002
0000
2003
0000
0000
3100
0000
0000
,
0100
0000
0010
0000
0001
1000
0010
0000
,
0010
0100
0001
0000
0001
1000
0010
0000
,
0010
0100
0002
0000
1000
0000
1000
0000
,
1003
0000
0010
0100
0001
1000
0010
0100
,
0001
0000
1000
0010
0100
0001
1000
0010
,
0000
0100
0010
1000
0001
1000
0000
0010
,
0000
0010
0000
0100
0000
0001
0010
0100
,
1000
0010
0100
0001
1000
0001
0000
1000
,
0000
0010
0000
0010
0000
0100
0001
0010
,
0100
1000
0010
0100
0010
1000
0000
0001
,
0000
0100
0000
0001
0010
0100
1000
0010
,
0100
0001
1000
0010
0200
0000
0000
0000
,
0000
0000
0300
0001
0000
0001
0000
1000
,
0000
1000
0000
0001
0010
0100
1000
0010
,
0100
0001
1000
0010
0000
1000
0000
0001
,
0000
0001
0000
0100
0010
0100
0001
0010
,
0100
1000
0010
1000
0000
1000
0000
0001
,
0000
0001
0000
0100
0010
1000
0001
0010
,
0100
1000
0010
1000
0000
0001
0000
0100
,
0000
0100
0000
0010
0000
1000
1000
1000
,
1000
1000
0000
0001
0000
0001
0000
0100
,
0000
0100
0000
0010
1000
0001
1000
0010
,
0000
0110
0000
1000
0000
1000
0000
0001
,
0000
0001
1000
0100
0010
0001
1000
0010
,
0000
1010
0000
0001
0000
0001
0000
0100
,
0000
0100
0000
0010
0000
0010
1000
0001
,
0000
1001
0000
1000
0100
0010
0001
1000
,
0010
1000
0010
0100
0001
1000
0001
0100
,
0001
1000
0000
0010
0000
0100
0000
0001
,
0000
1000
0100
0010
0000
0001
0000
1000
,
0010
1000
0000
0001
0010
0100
0000
1000
,
0001
0100
0000
0010
1000
0010
0000
1000
,
0001
1000
0000
0010
0000
1000
0000
0001
,
0000
0100
0000
0010
0000
1001
0000
0110
,
0000
1001
0000
0100
0000
0100
0000
0100
,
0000
0010
0000
1000
0000
0001
0000
0200
,
0000
0320
0000
2030
0000
0000
0000
0000
,
0000
0000
0000
3002
0000
0000
0000
0000
,
0000
0003
0000
0200
0000
0000
0000
0000
,
0000
0000
0000
0320
0000
0000
0000
0030
,
0000
0000
0000
2000
0000
0000
0000
0000
,
0000
0000
0000
3020
0000
0000
0000
0000
,
0000
0000
0000
0230
0000
0000
0000
0000
,
0000
0000
0000
0301
0000
0001
0000
1000
,
0000
0010
0000
0010
0000
0100
0001
1000
,
0010
0100
0001
1000
0000
0100
0000
0010
,
0000
0001
0000
1000
0000
0010
0000
0100
,
0000
0001
0000
1000
0000
0010
0000
0100
,
0000
0100
0000
0100
0000
0001
0000
0001
,
0000
0001
1000
0100
0000
0000
0010
0001
,
0000
0000
1000
0001
0000
0100
0000
0010
,
0000
0100
0000
0002
0000
0000
0000
2003
,
0000
0000
0000
3010
0000
0010
0000
0100
,
0000
0001
1000
0001
1000
0100
0010
0001
,
0000
1000
0000
0010
0000
0100
0000
0001
,
0000
1000
0000
0010
0100
0001
1000
0010
,
0100
0001
0000
1000
0000
0001
0000
1000
,
0000
0001
0000
1000
0100
0010
0001
0100
,
0010
1000
0000
0001
0000
0100
0000
0001
,
0000
1000
0000
0010
0000
1000
0100
0010
,
0001
0100
0010
1000
0000
0010
2000
0000
,
3000
0001
0000
0001
1000
0001
0200
0000
,
0300
0010
0000
1000
0000
0100
0020
0000
,
0030
0000
0000
0000
0001
0000
0000
0000
1000
0000
0000
0000
0001
0000
1000
0010
,
0000
0100
0001
0000
1000
0001
0000
0000
1000
0000
0000
0000
0010
0000
0000
0000
,
0100
0001
0100
0010
,
1000
0010
1000
0100
,
0010
0000
0000
0000
0000
0000
0000
0000
0001
0000
0000
0000
0000
0000
1000
0000
0000
0000
0000
0000
0001
0000
0000
0000
0100
0000
0000
0010
0000
0000
0100
0000
,
0000
0010
0000
0000
0100
0000
0000
0010
0000
0000
0100
0000
0000
0000
0000
0000
0000
0000
0000
0000
0000
0000
0000
0000
0000
0000
0000
0000
0000
0000
0000
0000
;

//---------------dance-single - ----------------
#NOTES:
     dance-single:
     :
     Challenge:
     12:
     0.779,0.881,0.379,0.253,0.241:
0000
0000
0000
0000
,
0000
0000
0000
0000
,
0000
0000
0000
0000
,
0000
0000
0000
0000
,
0000
0000
1000
0100
0010
0022
0033
1000
,
0100
1000
0001
0010
0100
2200
3300
0001
,
0100
0001
1000
0010
0100
0220
0330
0001
,
0010
0000
0100
0000
1000
0000
0010
0000
1000
0000
1001
0000
0010
0000
0100
0010
,
0000
0100
0010
0100
0000
0000
0000
0000
0000
0000
0000
0000
0002
0000
0000
0000
,
0000
0000
1003
0010
0100
0001
1001
0000
,
1000
0100
0010
0001
0100
0010
0110
0000
,
1000
0100
0010
0001
0100
0010
2000
0000
,
3200
0000
0320
0000
0000
0031
0000
0000
,
0001
1000
0010
1000
0001
0010
0110
0000
,
1000
0100
0010
0001
0100
0010
1010
0000
,
1000
0100
0010
0001
0100
0001
1000
0001
,
0100
0210
0000
0310
,
0010
1000
0100
1000
0100
0010
0110
0000
,
0001
0010
0100
1000
0100
0010
0011
0000
,
0100
1000
0020
0000
0000
1030
1000
0000
,
0002
0000
2003
0000
0000
3100
0000
0000
,
0100
0010
1000
0010
0100
0001
1001
0000
,
1000
0001
0010
0100
1000
0010
0110
0000
,
0001
0100
0020
1000
1000
1000
1000
1000
,
1030
0000
0100
0010
0001
0100
0010
0100
,
0110
0000
1100
0001
0010
0100
1000
0010
,
0100
0001
0100
0010
1000
1010
0100
0001
,
0100
0010
0000
0110
0000
1000
0100
0010
,
0001
0100
0010
1000
0010
1010
0001
0010
,
0100
1000
0000
0010
0100
0010
1000
0001
,
0100
0001
1000
0010
0100
0101
1000
0001
,
0100
0010
1000
0010
0000
1000
0100
0010
,
0001
0000
1000
0000
0010
0000
1000
0000
1010
0000
0000
0000
0000
0000
0100
0010
,
0100
0010
0100
0010
0100
0000
0001
0000
0010
0000
0001
0000
0010
0000
0100
0000
,
1000
0100
1000
0010
0100
0110
0001
0010
,
0100
1000
0010
0100
0001
1000
0010
0100
,
0001
0000
0010
0000
0100
0000
1000
0000
0100
0000
0110
0000
0001
0100
0001
0100
,
0001
0100
0001
0000
0010
0000
0100
0000
1000
0000
0010
0000
0100
0000
0001
0000
,
0100
0010
1000
0100
0010
1001
0010
0100
,
1000
0100
0010
0001
0010
0100
1000
0010
,
1000
0100
0010
0001
0010
0100
0100
0100
,
0100
0100
0000
1000
0100
1000
0100
0010
,
0001
0010
0001
1000
0100
1000
0100
1100
,
0000
0011
0000
0001
0010
0100
1000
0010
,
1000
0001
0100
0010
1000
0001
1000
1010
,
0000
0101
0000
0010
1000
0010
0100
0010
,
1000
0010
0100
0001
1000
0001
0100
0110
,
0000
0101
0000
1000
0100
0010
0001
0010
,
0100
1000
0001
1000
1000
1000
1000
1000
,
1000
0000
1000
0000
0000
0000
0010
0000
0100
0000
0001
0000
0100
0000
0010
0100
,
0010
0000
1000
0000
0001
0000
1000
0000
0010
0000
0100
0000
0010
0000
1000
0001
,
1000
0001
1000
0001
0000
0000
0001
0000
0010
0000
0100
0000
1000
0010
0100
0000
,
0010
1000
0001
0100
0010
1000
0001
0100
,
0110
0000
0110
0000
0000
0000
0001
0100
0001
0100
0001
0100
0001
0100
0001
0000
,
1000
0010
1000
0010
1000
0010
1000
0000
0001
0000
0100
0000
0010
0000
1000
0000
,
0001
0000
1000
0000
0000
0000
0010
0100
0010
0100
0010
0000
1000
0010
1000
0010
,
1000
0000
0001
0100
0010
1000
0001
0100
0010
1000
0001
0100
0010
0000
2000
0000
,
0000
3200
0000
0320
0000
0000
0000
0100
,
0000
0000
0000
0001
0000
0000
0000
0100
,
0000
0031
0000
2001
0000
0000
0000
0010
,
0000
0000
0000
3002
0000
0000
0000
0103
,
0000
0000
0000
0210
0000
0000
0000
0001
,
0000
0000
0000
0010
0000
0000
0000
0001
,
0000
0310
0000
0020
0000
0000
0000
1000
,
0000
0000
0000
1030
0000
1000
0100
0010
,
0001
0010
0100
1100
0000
0001
1000
0001
,
0100
0010
0001
1000
0001
0100
0010
1000
,
0001
0100
0010
1000
0001
0010
0100
1002
,
0000
0100
1000
1003
0000
0100
0010
0010
,
0000
0001
1000
0020
0000
0100
0000
0130
,
0000
0100
0001
2000
0000
3100
0010
0002
,
0000
0003
1000
0200
0000
1000
0000
1000
,
0000
1300
0000
2000
0010
0000
3000
0020
,
0000
0000
0000
0000
0030
0000
0100
0000
0001
0000
0010
0000
0100
0000
1000
0010
,
1000
0010
1000
0000
0010
0000
1010
0000
0001
0000
0010
0000
0100
0000
1000
0001
,
1000
0001
1000
0000
0001
0000
1001
0000
1000
0000
0100
0010
0100
0010
0100
0010
,
1000
0000
0100
0000
1000
0000
1010
0000
0100
0000
0010
1000
0001
0100
0010
1000
,
0001
0100
0010
0000
1000
0000
1001
0000
0001
0000
0100
0001
0100
0001
0100
0000
,
0010
0000
1000
0000
0010
0000
1010
0000
0001
0000
0010
0000
0100
1000
0100
1000
,
0100
1000
0100
0000
0010
0000
0011
0000
1000
0001
0100
0010
1000
0001
0100
0000
,
0010
0000
0001
0000
0100
0000
0101
0000
0010
1000
0010
1000
0010
1000
0010
0000
,
0100
0010
0100
0001
1000
0010
0210
0000
,
0300
0001
0100
0010
0100
0001
2001
0000
,
3000
0010
0100
0001
1000
0010
0210
0000
,
0310
0000
1000
0000
0100
0000
0010
0000
0001
0000
0100
0000
0010
0000
1000
0001
,
0000
0100
0010
0000
1000
0001
0000
0000
1000
0000
0001
0000
1001
0000
0010
0000
,
0100
1000
0100
0010
0001
0100
0101
0010
,
1000
0010
0100
0001
0010
0100
1100
0100
,
0010
0000
0000
0000
0001
0000
0000
0000
1000
0000
0000
0000
0000
0000
0100
0000
0000
0000
0000
0000
1000
0000
0000
0000
0010
0000
0000
0100
0000
0000
0001
0000
,
0000
1000
0000
0000
0010
0000
0000
0100
0000
0000
0001
0000
0000
0000
0000
0000
0000
0000
0000
0000
0000
0000
0000
0000
0000
0000
0000
0000
0000
0000
0000
0000
;

//---------------dance-single - ----------------
#NOTES:
     dance-single:
     :
     Easy:
     4:
     0.362,0.352,0.055,0.071,0.000:
0000
0000
0000
0000
,
0000
0000
0000
0000
,
0000
0000
0000
0000
,
0000
0000
0000
0000
,
0000
1000
0010
0100
,
0001
1000
1000
0010
,
0010
0100
0001
1000
,
0010
0100
0001
0001
,
1000
0010
0000
0000
,
0000
1000
0010
0100
,
0001
1000
0010
0100
,
0001
0000
1000
0000
0010
0100
0010
0000
,
0100
0100
0100
0001
,
0001
0010
1000
0010
,
0100
0001
1000
0010
,
0100
0001
0100
0010
,
1000
0010
0000
1010
,
0001
0100
0010
1000
,
0001
0100
0010
1000
,
0001
0000
0100
0000
0010
1000
0010
0000
,
0100
0100
0001
0001
,
1000
0010
0100
0001
,
1000
0010
0100
0001
,
1000
0010
0010
0010
,
0010
0010
0000
0000
,
0000
0000
1001
1000
0000
0001
0000
1000
,
0000
0010
0000
0100
0000
0001
0000
1000
,
0000
0010
0000
0100
0000
0010
0000
1000
,
0000
0001
0000
0100
0000
0010
0000
1000
,
0000
0010
0000
0100
0000
0001
0000
1000
,
0000
0010
0000
0100
0000
0001
0000
1000
,
0000
0100
0000
0010
0000
0001
0000
1000
,
0000
0010
0000
1000
0010
0000
0000
0200
,
0000
0000
0000
0300
0000
0001
0000
1000
,
0000
0010
0000
0100
0000
0010
0000
0010
,
0000
1000
0000
0001
0000
0100
0000
0010
,
0000
1000
0000
0001
0000
0100
0000
0100
,
0000
0010
0000
1000
0000
0001
0000
0100
,
0000
0010
0000
1000
0000
0001
0000
0001
,
0000
0100
0000
0010
0000
1000
0000
0001
,
0000
0100
0000
0010
0000
1000
0000
0001
,
0000
1000
0000
0010
0000
0000
0000
0110
,
0000
0000
0000
1000
0000
0000
0000
1001
,
0000
0000
0000
0001
0000
0000
0000
0101
,
0000
0000
0000
1000
0000
0000
0000
1010
,
0000
0000
0000
0001
0000
0010
0000
0100
,
0000
1000
0000
0010
0000
0100
0000
0001
,
0000
1000
0000
0001
0000
0010
0000
0100
,
0000
1000
0000
0010
0000
0100
0000
0001
,
0000
1000
0000
0010
0000
0100
0000
0010
,
0000
0100
0000
0001
0000
1000
0000
0001
,
0000
1000
0000
0010
0000
0010
0000
0100
,
0000
0100
0000
0001
0000
0001
0000
1000
,
0000
1000
0000
0010
0000
0100
0000
0001
,
0000
1000
0000
0010
0000
0100
0000
0001
,
0000
1000
0000
0010
0000
0100
0000
0001
,
0000
1000
0000
0001
0000
0100
0000
0010
,
0000
1000
0000
0002
0000
0000
0000
0000
,
0000
0003
0000
0200
0000
0000
0000
0000
,
0000
0300
0000
0020
0000
0000
0000
0000
,
0000
0000
0030
2000
0000
0000
0000
0000
,
3000
0000
0000
0002
0000
0000
0000
0000
,
0000
0003
0000
0200
0000
0000
0000
0000
,
0000
0300
0000
0020
0000
0000
0000
0000
,
0000
0030
0000
2000
0000
0000
0000
0000
,
0000
3000
0000
0001
0000
0001
0000
0100
,
0000
0100
0000
0010
0000
1000
0000
0010
,
0000
1000
0000
0100
0000
0010
0000
0001
,
0000
1000
0000
0010
0000
0100
0000
0001
,
0000
0100
0000
0010
0000
0010
0000
0010
,
0000
0010
0000
1000
0000
1000
0000
1000
,
0000
1000
0000
0001
0000
0001
0000
0001
,
0000
0001
0000
0100
0000
0100
0000
0100
,
0000
0100
0000
0010
0000
1000
0000
0010
,
0000
0100
0000
0001
0100
0001
0000
0100
,
0001
0100
0000
0010
0000
0010
0000
1000
,
0000
1000
0000
0001
0000
0100
0000
0010
,
0000
1000
0000
0001
0000
1000
0000
0010
,
0000
1000
0000
0010
1000
0010
0000
1000
,
0010
1000
0000
0001
0000
0100
0000
0010
,
0000
1000
0000
0001
0000
0100
0000
0010
,
0000
1000
0000
0001
0000
0001
0000
0100
,
0000
0010
0000
0100
0000
0010
0000
0100
,
0000
0010
0000
1000
0000
1000
0000
0001
,
0000
0100
0000
0001
0000
1000
0000
0010
,
0000
0100
0000
0001
0000
0010
0000
0100
,
0000
1000
0000
0100
0000
0010
0000
0001
,
0000
1000
0000
0010
0000
0100
0000
0001
,
0000
1000
0000
0010
0000
0000
0000
0100
,
0000
1001
0000
0000
;

//---------------dance-single - Copied from----------------
#NOTES:
     dance-single:
     Copied from:
     Beginner:
     2:
     0.096,0.105,0.000,0.000,0.000:
0000
0000
0000
0000
,
0000
0000
0000
0000
,
0000
0000
0000
0000
,
0000
0000
0000
0000
,
0000
0010
0000
0000
,
0000
0010
0000
0000
,
0000
1000
0000
0000
,
0000
1000
0000
0000
,
0000
0000
0000
0000
,
0000
0001
0000
0000
,
0000
0001
0000
0000
,
0000
0100
0000
0000
,
0000
0100
0000
0000
,
0000
0010
0000
0000
,
0000
0010
0000
0000
,
0000
1000
0000
0000
,
0000
1000
0000
0000
,
0000
0001
0000
0000
,
0000
0001
0000
0000
,
0000
0100
0000
0000
,
0000
0100
0000
0000
,
0000
0010
0000
0000
,
0000
0010
0000
0000
,
0000
1000
0000
0000
,
0000
1000
0000
0000
,
0000
0000
0001
1000
0000
0000
0000
0000
,
0000
0000
0000
0000
0000
1000
0000
0000
,
0000
0000
0000
0000
0000
0001
0000
0000
,
0000
0000
0000
0000
0000
0001
0000
0000
,
0000
0000
0000
1000
0000
0000
0000
0000
,
0000
0000
0000
0000
0000
1000
0000
0000
,
0000
0000
0000
0000
0000
0001
0000
0000
,
0000
0000
0000
0000
0000
0001
0000
0000
,
0000
0000
0000
0000
0000
0100
0000
0000
,
0000
0000
0000
0000
0000
0100
0000
0000
,
0000
0000
0000
0000
0000
0010
0000
0000
,
0000
0000
0000
0000
0000
0010
0000
0000
,
0000
0000
0000
0000
0000
1000
0000
0000
,
0000
0000
0000
0000
0000
1000
0000
0000
,
0000
0000
0000
0000
0000
0001
0000
0000
,
0000
0000
0000
0001
0000
0000
0000
0000
,
0000
0000
0000
0100
0000
0000
0000
0000
,
0000
0000
0000
0100
0000
0000
0000
0000
,
0000
0000
0000
0010
0000
0000
0000
0000
,
0000
0000
0000
0010
0000
0000
0000
0000
,
0000
0000
0000
1000
0000
0000
0000
0000
,
0000
0000
0000
1000
0000
0000
0000
0000
,
0000
0000
0000
0001
0000
0000
0000
0000
,
0000
0000
0000
0001
0000
0000
0000
0000
,
0000
0000
0000
0100
0000
0000
0000
0000
,
0000
0000
0000
0010
0000
0000
0000
0000
,
0000
0000
0000
0100
0000
0000
0000
0000
,
0000
0000
0000
0010
0000
0000
0000
0000
,
0000
0000
0000
1000
0000
0000
0000
0000
,
0000
0000
0000
0001
0000
0000
0000
0000
,
0000
0000
0000
1000
0000
0000
0000
0000
,
0000
0000
0000
0001
0000
0000
0000
0000
,
0000
0000
0000
1000
0000
0000
0000
0000
,
0000
0000
0000
1000
0000
0000
0000
0000
,
0000
0000
0000
0010
0000
0000
0000
0000
,
0000
0000
0000
0010
0000
0000
0000
0000
,
0000
0000
0000
0100
0000
0000
0000
0000
,
0000
0000
0000
0100
0000
0000
0000
0000
,
0000
0000
0000
0001
0000
0000
0000
0000
,
0000
0000
0000
0001
0000
0000
0000
0000
,
0000
0000
0000
1000
0000
0000
0000
0000
,
0000
0000
0000
0100
0000
0000
0000
0000
,
0000
0000
0000
0010
0000
0000
0000
0000
,
0000
0000
0000
0001
0000
0000
0000
0000
,
0000
0000
0000
1000
0000
0000
0000
0000
,
0000
0000
0000
0100
0000
0000
0000
0000
,
0000
0000
0000
0010
0000
0000
0000
0000
,
0000
0000
0000
0001
0000
0000
0000
0000
,
0000
0000
0000
0100
0000
0000
0000
0000
,
0000
0000
0000
0010
0000
0000
0000
0000
,
0000
0000
0000
1000
0000
0000
0000
0000
,
0000
0000
0000
0001
0000
0000
0000
0000
,
0000
0000
0000
0100
0000
0000
0000
0000
,
0000
0000
0000
0010
0000
0000
0000
0000
,
0000
0000
0000
1000
0000
0000
0000
0000
,
0000
0000
0000
0001
0000
0000
0000
0000
,
0000
0000
0000
0100
0000
0000
0000
0000
,
0000
0000
0000
0100
0000
0000
0000
0000
,
0000
0000
0000
0010
0000
0000
0000
0000
,
0000
0000
0000
0010
0000
0000
0000
0000
,
0000
0000
0000
1000
0000
0000
0000
0000
,
0000
0000
0000
1000
0000
0000
0000
0000
,
0000
0000
0000
0001
0000
0000
0000
0000
,
0000
0000
0000
0001
0000
0000
0000
0000
;
