#TITLE:Resonance;
#SUBTITLE:;
#ARTIST:RAM;
#TITLETRANSLIT:;
#SUBTITLETRANSLIT:;
#ARTISTTRANSLIT:;
#GENRE:;
#CREDIT:SupremeX;
#BANNER:Resonance.png;
#BACKGROUND:Resonance-bg.png;
#LYRICSPATH:;
#CDTITLE:CDTitle.png;
#MUSIC:Resonance.ogg;
#OFFSET:-0.091163;
#SAMPLESTART:99.489998;
#SAMPLELENGTH:12.000000;
#SELECTABLE:YES;
#BPMS:0.000000=140.000000
;
#STOPS:
;
#BGCHANGES:16.000=nyev3piano.avi=1.000=0=0=1=====,
32.000=no.avi=1.000=0=0=1=====,
64.000=nyev2piano.avi=1.000=0=0=1=====,
112.500=rain1.avi=1.000=0=0=1=====,
128.000=no.avi=1.000=0=0=1=====,
160.000=people.avi=1.000=0=0=1=====,
176.000=rain1.avi=1.000=0=0=1=====,
192.000=nyev3piano.avi=1.000=0=0=1=====,
224.000=no.avi=1.000=0=0=1=====,
232.000=discoball1.avi=1.000=0=0=1=====,
255.000=Resonance-bg.png=1.000=0=0=1=====,
99999=-nosongbg-=1.000=0=0=0 // don't automatically add -songbackground-
;
#KEYSOUNDS:;
#ATTACKS:;

//---------------dance-single - ----------------
#NOTES:
     dance-single:
     :
     Hard:
     8:
     0.416874,0.546648,0.035479,0.239481,0.181828,329.000000,325.000000,4.000000,27.000000,0.000000,0.000000,0.416874,0.546648,0.035479,0.239481,0.181828,329.000000,325.000000,4.000000,27.000000,0.000000,0.000000:
0000
0000
0000
0000
,
0000
0000
0000
0000
,
0000
0000
0000
0000
,
0000
0000
0000
0000
,
2000
0000
0000
0000
3020
0000
0000
0030
,
0200
0000
0302
0000
,
2003
0000
0000
0000
3020
0000
0000
0030
,
0100
0000
0000
0100
0000
0000
0100
0000
0000
0100
0000
0000
0100
0000
0000
0000
,
0001
0000
0000
0001
0000
0000
0001
0000
0000
0001
0000
0000
2000
0000
0000
0000
,
0000
0000
0000
0000
0000
3100
0000
0000
,
0010
0000
0000
0010
0000
0000
0010
0000
0000
0010
0000
0000
0002
0000
0000
0000
,
0000
0103
0000
0000
0100
0000
0000
0000
,
0010
0000
1000
0000
0001
0000
0100
0000
0010
0000
1000
0000
0001
0000
0000
0010
,
0100
0000
0000
0100
1000
0000
0000
1000
0001
0000
0010
0000
0100
0000
0000
0000
,
0000
0000
1000
0000
0100
0000
1000
0000
0100
0000
0010
0000
0001
0000
0000
0001
,
0200
0000
0000
0300
,
0010
0000
0000
0010
0000
0000
0010
0000
0000
0010
0000
0000
2000
0000
0000
0000
,
3100
0000
0010
0001
0010
0000
1100
0000
,
1000
0000
0000
1000
0000
0000
1000
0000
0000
1000
0000
0000
0020
0000
0000
0000
,
0000
0130
0000
0000
0101
0000
0000
0000
,
1000
0100
0010
0001
1000
0010
1000
0000
,
0001
0010
0100
1000
0001
0100
0001
0000
,
1000
0010
1000
0001
0100
0001
1000
0000
,
0010
0000
1000
0000
0001
0100
0010
0010
,
1000
0000
0001
0100
0001
0000
1000
0000
0010
0000
1000
0000
0001
0000
0000
0000
,
1000
0000
1000
0100
0010
0001
0010
0000
,
0000
0000
0100
0000
1000
0000
0100
0000
0010
0000
0001
0000
1000
0000
0000
1000
,
0000
0010
1000
1000
,
0000
0000
0010
0000
0100
0000
0001
0000
1000
0000
0100
0000
0010
0000
0000
0001
,
0010
0000
0000
0010
0100
0000
0000
0100
1000
0000
0100
0000
1000
0000
0000
0000
,
0000
0000
0001
0000
0100
0000
0001
0000
0100
0000
0010
0000
1000
0000
0000
0001
,
1000
0010
0100
0001
1000
0001
0100
0010
,
2000
0000
3002
1000
,
0000
0203
0001
0000
,
0320
0000
2030
0000
,
3002
0203
0320
0000
,
1030
0000
0000
0000
0000
0000
1000
0100
1000
0000
0100
0000
0010
0000
0001
0000
,
0010
0000
0000
0100
1000
0100
1000
0000
,
1000
0000
0000
0000
0000
0000
0001
0010
0001
0000
0010
0000
0100
0000
1000
0000
,
0100
0000
0000
0010
0001
0010
0001
0000
,
1000
0010
1000
0001
0100
0010
0100
0001
,
1000
0001
0100
0001
1000
0001
0100
0000
,
0010
0100
0001
1000
0010
0100
0010
0000
,
0100
0001
1000
0010
1000
0001
0100
0000
,
0001
0010
0100
1000
0010
1000
0100
0010
,
0001
0000
0000
0000
0100
0000
0000
0000
0001
0000
0000
0000
1000
0000
0000
0000
0010
0000
0000
1000
0000
0010
0000
1000
0000
0000
0000
0000
0000
0000
0000
0000
,
0001
0100
0001
1000
0100
1000
0001
0100
,
0001
0000
0000
0001
0000
0000
0001
0000
0010
0000
0100
0000
1000
0000
0000
0000
,
1000
0000
0000
1000
0000
0000
1000
0000
0000
1000
0000
0000
0020
0000
0000
0000
,
0000
0000
0000
0000
0000
0130
0000
0000
,
0100
0000
0000
0100
0000
0000
0100
0000
0000
0100
0000
0000
0002
0000
0000
0000
,
0000
1003
0000
0000
1000
0000
0000
0000
,
0010
0000
0100
0000
0001
0000
1000
0000
0010
0000
0100
0000
0001
0000
0000
1000
,
0010
0000
0000
0010
0100
0000
0000
0100
0001
0000
0000
0000
1001
0000
0000
0000
,
1000
0000
0010
0000
1000
0000
0001
0000
0100
0000
0001
0000
1000
0000
0000
0010
,
2000
0000
0000
0000
0000
0000
0000
3000
,
0002
0000
0000
0203
0000
0000
0320
0000
,
0000
1030
1000
0100
,
0010
0001
0010
0100
1000
0100
0010
0000
,
0001
1000
0001
0100
0010
0100
0010
0000
,
1000
0001
1000
0001
0100
0010
0100
0010
,
1000
0001
0100
0010
1000
0001
0100
0001
,
1000
0010
1000
0010
0000
0010
0000
0000
0000
1000
0000
0100
1000
0100
1000
0000
,
0001
0000
0000
0001
0000
0000
0010
0000
0100
0000
1000
0000
0220
0000
0000
0000
,
0000
0000
0000
0000
0000
0000
0000
0330
;

//---------------dance-single - ----------------
#NOTES:
     dance-single:
     :
     Medium:
     6:
     0.291431,0.402793,0.017739,0.168523,0.097566,230.000000,228.000000,2.000000,19.000000,0.000000,0.000000,0.291431,0.402793,0.017739,0.168523,0.097566,230.000000,228.000000,2.000000,19.000000,0.000000,0.000000:
0000
0000
0000
0000
,
0000
0000
0000
0000
,
0000
0000
0000
0000
,
0000
0000
0000
0000
,
1000
0000
0010
0000
,
0100
0000
0001
0000
,
1000
0000
0010
0000
,
0100
0000
0000
0001
0000
0000
1000
0000
0000
0010
0000
0000
0100
0000
0000
0000
,
0001
0000
0000
1000
0000
0000
0010
0000
0000
0100
0000
0000
0002
0000
0000
0000
,
0000
0000
0000
0000
0000
0003
0000
0000
,
1000
0000
0000
0100
0000
0000
0010
0000
0000
0001
0000
0000
2000
0000
0000
0000
,
0000
3000
0000
0000
0001
0000
0000
0000
,
0100
0010
1000
0001
,
0100
0010
1000
0001
,
0000
0000
1000
0000
0010
0000
0100
0000
0001
0000
1000
0000
0001
0000
0000
0001
,
0000
0000
0000
0000
,
0010
0000
0000
0100
0000
0000
0010
0000
0000
0100
0000
0000
0002
0000
0000
0000
,
0003
1000
1000
0010
,
0100
0000
0000
0001
0000
0000
0100
0000
0000
0001
0000
0000
2000
0000
0000
0000
,
0000
3000
0000
0000
0010
0000
0000
0000
,
0100
0001
1000
0010
,
0100
0001
0100
0000
0010
1000
0010
0000
,
0100
0001
1000
0100
0010
0001
1000
0000
,
0010
0010
0100
0100
,
1000
0010
1000
0010
0100
0001
0100
0000
,
0010
0010
1000
1000
,
0000
0000
0000
0000
0001
0000
0000
0000
0100
0000
0000
0000
0010
0000
0000
0010
,
0000
1000
0001
1000
,
0000
0010
0100
0010
,
1000
0000
0001
0000
1000
0010
1000
0000
,
0000
0001
0100
0000
0100
0010
1000
0000
,
1000
0010
0100
0010
1000
0001
0100
0010
,
2000
0000
3002
0000
,
0000
0203
0000
0000
,
0320
0000
2030
0000
,
3002
0000
0203
0000
,
0300
0000
0000
0010
1000
0100
0010
0001
,
0100
0000
0010
1000
,
0010
0000
0000
0100
0100
0001
0010
0100
,
1000
0000
0001
0001
,
0100
0000
0100
0000
0100
0010
0100
0000
,
0001
0000
0001
0000
0001
1000
0001
0000
,
1000
0000
1000
0000
1000
0010
1000
0000
,
0010
0000
0010
0000
0010
0100
0010
0000
,
1000
0001
1000
0001
,
1000
0000
0000
0000
0000
0000
0000
0000
0001
0000
0000
0000
0000
0000
0000
0000
0200
0000
0000
0000
0000
0000
0000
0300
0000
0000
0000
0000
0000
0000
0000
0000
,
0010
0010
1000
0100
,
0010
0000
0000
0001
0000
0000
0010
0000
0100
0000
1000
0000
0010
0000
0000
0000
,
1000
0000
0000
0001
0000
0000
1000
0000
0000
0001
0000
0000
0200
0000
0000
0000
,
0000
0000
0000
0000
0000
0300
0000
0000
,
0001
0000
0000
1000
0000
0000
0001
0000
0000
1000
0000
0000
0020
0000
0000
0000
,
0000
0030
0000
0000
1000
0000
0000
0000
,
0001
0010
0100
1000
,
0001
1000
0001
1001
,
0100
0000
0000
0000
0100
0000
0000
0000
0010
0000
0000
0000
0010
0000
0000
0010
,
0000
0000
0000
0000
,
0002
0000
0000
0203
0000
0000
0320
0000
,
0000
1030
1000
0100
,
0010
0001
0010
1000
,
0001
0001
0100
0100
,
0010
0010
1000
1000
,
0100
0010
0001
0100
,
0010
0000
1000
0000
0010
0000
0000
0000
0000
0100
0000
0000
0001
0000
0000
1000
,
0000
0000
0000
0010
0000
0000
1000
0000
0000
0001
0000
0000
0220
0000
0000
0000
,
0000
0000
0000
0000
0000
0000
0000
0330
;

//---------------dance-single - ----------------
#NOTES:
     dance-single:
     :
     Easy:
     3:
     0.220474,0.254448,0.044348,0.070957,0.000000,174.000000,169.000000,5.000000,8.000000,0.000000,0.000000,0.220474,0.254448,0.044348,0.070957,0.000000,174.000000,169.000000,5.000000,8.000000,0.000000,0.000000:
0000
0000
0000
0000
,
0000
0000
0000
0000
,
0000
0000
0000
0000
,
0000
0000
0000
0000
,
0020
0000
0130
0000
,
2000
0000
3001
0000
,
0002
0000
1003
0000
,
0100
0000
0000
0000
,
0001
0000
0000
1000
0000
0000
1001
0000
,
0000
0000
0010
0000
,
0100
0000
0000
0010
0000
0000
0110
0000
,
0000
1000
0000
0000
0001
0000
0000
0000
,
0000
0100
0001
1000
,
0010
0100
0001
0001
,
0000
1000
0010
1000
,
0000
0000
0000
0000
,
0100
0100
0010
0002
,
0000
0000
0000
0000
0000
0003
0000
0000
,
1000
0001
0100
0010
,
1000
0001
0100
0000
,
0001
1000
0010
0100
,
0001
0001
1000
1000
,
0010
0100
0001
0000
,
1000
0010
0100
0100
,
0000
0001
0010
0100
,
1000
0010
1000
0100
,
0000
0010
0001
0010
,
0100
1000
1000
1000
,
0000
0001
0100
0010
,
1000
0001
0100
0100
,
0000
0010
1000
0002
,
0000
0000
0000
0000
0000
0000
0000
0003
,
2000
0000
3010
0000
,
0000
0100
0000
0000
,
0001
0000
0100
0000
,
0010
0000
1000
0000
,
0001
0000
0100
0010
,
0100
0000
0001
0001
,
1000
0000
0010
0100
,
0001
0000
1000
1000
,
0010
0010
0010
0010
,
0010
0010
0010
0010
,
0100
0100
0100
0100
,
0100
0100
0100
0100
,
0001
1000
0001
1000
,
0001
1000
0020
0030
,
0100
0001
1000
0010
,
0100
0100
0100
0100
,
0001
0000
0000
1000
0000
0000
1001
0000
,
0000
0000
0010
0000
,
1000
0000
0000
0001
0000
0000
0100
0000
,
0000
0000
0110
0000
,
0000
0001
1000
0010
,
0100
0100
0001
1000
,
0000
0010
0100
0001
,
0000
0000
0000
0000
,
1000
0000
0000
0001
0000
0000
0200
0000
,
0000
0000
0000
0300
,
0001
1000
0100
0010
,
0001
0010
0100
1000
,
0001
1000
0010
0100
,
0100
0001
0010
0100
,
1000
0000
0000
0000
0000
0001
0000
0000
,
1000
0001
1000
1001
;

//---------------dance-single - Copied from----------------
#NOTES:
     dance-single:
     Copied from:
     Beginner:
     1:
     0.082361,0.141360,0.000000,0.000000,0.000000,65.000000,65.000000,0.000000,0.000000,0.000000,0.000000,0.082361,0.141360,0.000000,0.000000,0.000000,65.000000,65.000000,0.000000,0.000000,0.000000,0.000000:
0000
0000
0000
0000
,
0000
0000
0000
0000
,
0000
0000
0000
0000
,
0000
0000
0000
0000
,
0010
0000
0010
0000
,
0010
0000
0010
0000
,
0010
0000
0010
0000
,
0000
0000
0000
0000
,
0100
0000
0000
0100
,
0000
0000
0100
0000
,
0100
0000
0000
0000
,
0000
0000
0100
0000
,
0000
0000
0001
0000
,
0000
0000
0001
0000
,
0000
1000
0000
1000
,
0000
0000
0000
0000
,
0001
0000
0000
0001
,
0000
0000
0000
0001
,
0000
0000
0000
0100
,
0000
0000
0100
0000
,
0010
0000
0000
0000
,
0010
0000
0000
0000
,
0010
0000
0000
0000
,
0000
0000
0000
0010
0000
0000
0000
0000
,
0000
1000
0000
0000
,
0000
0000
1000
0000
,
0000
1000
0000
0000
,
0000
0000
0000
0000
,
0001
0000
0000
0000
,
0001
0000
0000
0000
,
0100
0000
0000
0100
,
0000
0000
0000
0000
,
0010
0000
0000
0000
,
0010
0000
0000
0000
,
0010
0000
0000
0000
,
0010
0000
0000
0000
,
1000
0000
0000
0000
,
1000
0000
0000
0000
,
1000
0000
0000
0000
,
1000
0000
0000
0000
,
0010
0000
0000
0000
,
0010
0000
0000
0000
,
0010
0000
0000
0000
,
0010
0000
0000
0000
,
0100
0000
0000
0000
,
0100
0000
0000
0000
,
0100
0000
0000
0000
,
0100
0000
0000
0000
,
0001
0000
0000
0001
,
0000
0000
0000
0000
,
0001
0000
0000
0001
,
0000
0000
0001
0000
,
0000
0000
0100
0000
,
0000
0000
0100
0000
,
0000
0000
0010
0000
,
0000
0000
0000
0000
,
1000
0000
0000
1000
,
0000
0000
0000
0000
,
0001
0000
0000
0001
,
0000
0000
0000
0000
,
0001
0000
0000
0001
,
0000
0000
0000
0000
,
0100
0000
0010
0000
,
0100
0000
0000
0010
;
