#TITLE:Regeneration ray;
#SUBTITLE:;
#ARTIST:Tsukasa;
#TITLETRANSLIT:;
#SUBTITLETRANSLIT:;
#ARTISTTRANSLIT:;
#CREDIT:SupremeX;
#BANNER:Regeneration ray.png;
#BACKGROUND:Regeneration ray-bg.png;
#LYRICSPATH:;
#CDTITLE:CDTitle.png;
#MUSIC:Regeneration ray.ogg;
#OFFSET:-0.961;
#SAMPLESTART:76.540;
#SAMPLELENGTH:12.000;
#SELECTABLE:YES;
#BPMS:0.000=142.000;
#STOPS:;
#BGCHANGES:16.000=moon1.avi=1.000=0=0=1,
20.000=cloud00.avi=1.000=0=0=1,
36.000=highway1.avi=1.000=0=0=1,
52.000=twist.avi=1.000=0=0=1,
84.000=sun1.avi=1.000=0=0=1,
116.000=sea1.avi=1.000=0=0=1,
148.000=stairs1.avi=1.000=0=0=1,
164.000=moon1.avi=1.000=0=0=1,
180.000=cloud00.avi=1.000=0=0=1,
212.000=highway1.avi=1.000=0=0=1,
244.000=sea1.avi=1.000=0=0=1,
260.000=twist.avi=1.000=0=0=1,
276.000=Regeneration ray-bg.png=1.000=0=0=1,
99999=-nosongbg-=1.000=0=0=0 // don't automatically add -songbackground-
;

//---------------dance-single - ----------------
#NOTES:
     dance-single:
     :
     Hard:
     7:
     0.406,0.401,0.048,0.145,0.109: // measure 1
0000
0000
0000
0000
,  // measure 2
0000
0000
0000
0000
,  // measure 3
0000
0000
0000
0000
,  // measure 4
0000
0000
0000
0000
,  // measure 5
1000
0010
1000
0001
,  // measure 6
0100
0000
0000
0000
0010
1000
0000
0000
1000
0000
0000
0001
0000
0000
0002
0000
,  // measure 7
0000
0000
0000
0000
0003
0000
1000
0000
1000
0000
0000
0010
0000
0000
0010
0000
,  // measure 8
0000
0000
0000
0000
1000
0001
0000
0000
0100
0000
0000
0100
0000
0000
0020
0000
,  // measure 9
0000
0000
0000
0000
0030
0000
1000
0000
1000
0000
0000
0000
0010
0100
0000
0000
,  // measure 10
0100
0000
0000
0000
0010
1000
0000
0000
0010
0000
0000
1000
0000
0000
2000
0000
,  // measure 11
0000
0000
0000
0000
3010
0000
0100
0000
0100
0000
0000
0001
0000
0000
1000
0000
,  // measure 12
0000
0000
0000
0000
0010
0100
0000
0000
0100
0000
0000
0001
0000
0000
0001
0000
,  // measure 13
1000
0000
0000
0000
0010
0000
1000
0000
0001
0000
0000
0000
0100
0010
0000
0000
,  // measure 14
1000
0000
0001
0000
1000
0000
0001
0100
,  // measure 15
0001
0000
0010
0000
0100
0000
1000
0100
,  // measure 16
1000
0000
0010
0200
0001
0000
0001
0000
,  // measure 17
0001
0301
0010
0100
,  // measure 18
1000
0000
0100
0020
0001
0000
0001
0000
,  // measure 19
0001
0000
0031
1000
1000
0000
0010
0200
,  // measure 20
0000
0000
0000
0000
0301
0000
2000
0000
0001
0000
0000
0001
0000
0000
0001
0000
,  // measure 21
3001
0000
0000
0010
0000
0000
0100
0000
1000
0000
0000
0100
0000
0000
0010
0000
,  // measure 22
0001
0000
1001
0000
0110
0000
0001
1000
,  // measure 23
0010
0000
0000
0010
0000
0000
1000
0000
0100
0000
0000
0100
0000
0000
1000
0000
,  // measure 24
0001
0000
0000
0000
0010
0000
1000
0000
0010
0000
0000
0010
0000
0000
1000
0000
,  // measure 25
0001
0000
0000
0001
0000
0000
0100
0000
0100
0000
0000
0000
0001
0000
0000
0000
,  // measure 26
0100
0000
0000
0000
0010
0000
1000
0000
0100
0000
0000
0100
0000
0000
0010
0000
,  // measure 27
0001
0000
0000
0001
1000
0000
0000
0000
0010
0000
0000
0000
0100
0000
0001
0000
,  // measure 28
1000
0000
0000
0000
1000
0000
0020
0000
0100
0000
0000
0100
0000
0000
0100
0000
,  // measure 29
0130
0000
0000
0001
0000
0000
1000
0000
0001
0000
0000
1000
0000
0000
1000
0000
,  // measure 30
1002
0000
0000
0000
0000
0000
0103
0200
,  // measure 31
0000
0000
0320
0000
,  // measure 32
2030
0000
0000
3001
0000
0001
0100
0002
,  // measure 33
0000
0003
1000
0100
,  // measure 34
0010
0001
1000
0001
,  // measure 35
1000
0000
0010
0100
0010
0000
1000
0001
,  // measure 36
1000
0000
0001
0010
0100
0000
1000
0010
,  // measure 37
1000
0000
0001
0100
0001
0000
1000
0010
,  // measure 38
1000
0000
1000
0000
0001
0100
0000
0100
,  // measure 39
0000
0001
0010
0000
0100
1000
0000
1001
,  // measure 40
0000
0000
0010
0000
0010
0100
0000
0100
,  // measure 41
0000
0001
1000
0000
1000
0001
0000
1001
,  // measure 42
0000
0000
0100
0000
0100
0010
0000
0010
,  // measure 43
0000
1000
0001
0000
1000
0100
0000
0110
,  // measure 44
0000
0000
0001
0000
1000
0010
0000
0100
,  // measure 45
0000
0001
1000
0000
1000
0001
0000
0100
,  // measure 46
0010
0000
1000
0000
0001
0000
1000
0010
,  // measure 47
1000
0001
0100
0000
0010
0000
1000
0000
,  // measure 48
0001
0000
1000
0020
0100
0000
0100
0000
,  // measure 49
0130
0001
0010
0100
,  // measure 50
1000
0000
0010
0010
0000
0000
0100
0000
,  // measure 51
0001
0000
1000
1000
0000
0000
0001
0000
,  // measure 52
1000
0000
0001
0200
0010
0000
0010
0000
,  // measure 53
0310
0000
0000
1000
0000
0000
0001
0000
1000
0000
0100
0000
0010
0000
0001
0000
,  // measure 54
1000
0000
0010
0000
1000
0000
0001
0100
,  // measure 55
0000
0100
0010
0000
0010
0000
1000
0000
,  // measure 56
0001
0000
1000
2000
0010
0000
0010
0000
,  // measure 57
3010
0100
0001
0100
,  // measure 58
0010
0000
1000
0001
0000
0000
0100
0000
,  // measure 59
0100
0000
0010
1000
0000
0000
1000
0000
,  // measure 60
0001
0000
1000
0002
0100
0000
0100
0000
,  // measure 61
0103
0000
0000
0001
0000
0000
0010
0000
0000
0100
0000
0000
1000
0000
0100
0000
,  // measure 62
1000
0000
0100
0000
0010
0000
0001
0100
,  // measure 63
0001
0000
1000
0010
1000
0000
0001
0100
,  // measure 64
0010
0000
0010
1000
0001
0000
0001
1000
,  // measure 65
0010
0000
0100
0001
0100
0000
0010
1000
,  // measure 66
0010
0000
1000
0001
0100
0000
0100
0001
,  // measure 67
1000
0000
0010
0100
0010
0000
1000
0001
,  // measure 68
1000
0000
0001
0100
0010
0000
1000
0100
,  // measure 69
0010
0001
0100
0010
1000
0001
1000
0010
,  // measure 70
0200
0000
0000
0000
,  // measure 71
0000
0000
0000
0000
,  // measure 72
0300
0000
0000
0000
;

//---------------dance-single - ----------------
#NOTES:
     dance-single:
     :
     Medium:
     4:
     0.264,0.286,0.000,0.153,0.028:
0000
0000
0000
0000
,
0000
0000
0000
0000
,
0000
0000
0000
0000
,
0000
0000
0000
0000
,
1000
0010
0100
0001
,
1000
0000
0000
0000
0010
0000
0000
0000
0100
0000
0000
0100
0000
0000
0100
0000
,
0000
0000
0000
0000
0000
0000
0000
0000
0001
0000
0000
0001
0000
0000
0001
0000
,
0000
0000
0000
0000
1000
0000
0000
0000
0010
0000
0000
0010
0000
0000
0010
0000
,
0000
0000
0000
0000
0000
0000
0000
0000
1000
0000
0000
0000
0010
1000
0000
0000
,
0000
0000
0000
0000
0001
0000
0000
0000
0100
0000
0000
0100
0000
0000
0100
0000
,
0000
0000
0000
0000
0010
0000
0000
0000
1000
0000
0000
1000
0000
0000
1000
0000
,
0000
0000
0000
0000
0001
0000
0000
0000
0100
0000
0000
0010
0000
0000
0100
0000
,
0000
0000
0001
1000
,
0010
0000
0100
0000
0001
0000
1000
0020
,
0000
0000
0030
1000
,
0001
0000
0100
0200
0000
0000
0000
0000
,
0000
0300
0010
1000
,
0001
0000
1000
2000
0000
0000
0000
0000
,
0000
0000
0000
3000
0000
0000
0000
0000
0010
0000
0000
0000
0100
0000
0200
0000
,
0000
0000
0301
0002
0000
0000
0000
0000
,
0000
0000
0003
0000
,
0001
0000
0010
0000
0100
0000
1000
2000
,
0000
0000
3000
0010
,
0100
0000
0001
0002
0000
0000
0000
0000
,
0000
0003
0000
0000
1000
0000
0010
0000
,
1000
0000
0010
0200
0000
0000
0000
0000
,
0300
0001
0001
1000
,
0010
0000
1000
0020
0000
0000
0000
0000
,
0000
0000
0000
0030
0000
0000
0000
0000
1000
0000
0000
0000
0010
0000
0000
0000
,
0100
0000
0000
0000
0001
0000
1000
0020
,
0000
0000
0000
0000
0000
0030
0000
0000
0100
0000
0000
0000
0000
0000
0000
0000
,
0010
0000
0000
1000
0000
0010
0100
0002
,
0000
0000
0000
0003
0000
0000
0000
0000
1000
0000
0000
0000
0010
0000
0000
0000
,
0200
0000
0300
0002
0000
0000
0000
0000
,
0000
0003
1000
0010
,
0100
0001
2000
0000
,
0000
0000
0000
0000
0000
0000
0000
3000
,
0010
0100
0001
1000
,
0010
0000
0100
0000
0001
1000
0000
0010
,
0000
1000
0001
0100
,
0010
0000
1000
0000
0001
0001
0000
0100
,
0000
0010
1000
0001
,
0100
0000
0010
0000
1000
1000
0000
0001
,
0000
0100
0010
1000
,
0001
0000
0100
0000
0010
0010
0000
0000
,
1000
0000
0001
0000
0100
0000
0010
1000
,
0000
0001
0100
0000
0010
0000
1000
0000
,
0001
0000
1000
2000
0000
0000
0000
0000
,
0000
0000
0000
0000
0000
3000
0000
0000
0010
0000
0000
0000
0100
0000
0000
0000
,
0001
0000
1000
0010
0000
0000
0100
0000
,
0001
0000
1000
1000
0000
0000
0010
0000
,
0100
0000
0001
0002
0000
0000
0000
0000
,
0000
0000
0000
0000
0000
0003
0000
0000
0000
0000
0000
0000
1000
0000
0000
0000
,
0010
0000
0100
0000
0001
0000
1000
0010
,
0000
0100
0001
1000
,
0010
0000
0100
0200
0000
0000
0000
0000
,
0000
0000
0000
0300
0000
0000
0001
0000
,
1000
0000
0010
0100
0000
0000
0001
0000
,
1000
0000
0010
0100
0000
0000
0001
0000
,
1000
0000
0010
0020
0000
0000
0000
0000
,
0000
0000
0000
0030
0000
0000
1000
0000
,
0001
1000
1000
1000
,
0010
0000
0010
0000
0100
0000
0001
1000
,
0010
0100
0100
0100
,
0001
0000
1000
0000
0010
0000
0100
0001
,
0000
1000
0010
0000
0100
0000
0001
0000
,
1000
0010
0100
0001
,
1000
0010
0100
0001
,
0010
0100
1000
0100
,
0020
0000
0000
0000
,
0000
0000
0000
0000
,
0030
0000
0000
0000
;

//---------------dance-single - ----------------
#NOTES:
     dance-single:
     :
     Easy:
     3:
     0.174,0.223,0.008,0.032,0.000:
0000
0000
0000
0000
,
0000
0000
0000
0000
,
0000
0000
0000
0000
,
0000
0000
0000
0000
,
2000
0000
0000
3000
,
0010
0000
0100
0000
0001
0000
0000
0001
,
0000
0000
0000
0000
1000
0000
0000
0010
,
0000
0000
0100
0000
0001
0000
0000
1000
,
0000
0000
0010
0100
,
0000
0000
0001
0000
1000
0000
0000
1000
,
0000
0000
0000
0000
0010
0000
0000
0100
,
0000
0000
0001
0000
1000
0000
0000
0001
,
0000
0000
0100
0010
,
1000
1000
1000
0001
,
0001
0001
0001
0100
,
0010
0000
0000
1000
0000
0000
0000
0000
,
0001
0000
0100
0000
,
0010
0000
0000
1000
0000
0000
0000
0000
,
0001
0100
0010
1000
,
0000
0000
0001
0001
0000
0000
0000
0000
,
0000
0000
0000
0000
,
1000
0000
0010
0000
0100
0000
0000
0100
,
0000
0000
0000
0001
,
1000
0000
0000
0001
0000
0000
0000
0000
,
0000
0000
0100
0010
,
1000
0000
0000
0001
0000
0000
0000
0000
,
0000
1000
1000
0010
,
0100
0000
0000
0002
0000
0000
0000
0000
,
0000
0000
0000
0000
0000
0000
0000
0003
,
1000
0000
0010
0000
,
0100
0000
0001
0000
,
1000
0000
0000
0000
,
0010
0000
0100
0000
,
0001
0000
1000
0000
,
0010
0000
0100
0000
,
0001
0000
0000
1000
0000
0000
0000
0000
,
1000
0000
0000
1000
0000
0000
0010
0000
,
0100
0001
1000
0010
,
0100
0000
0001
0000
1000
0000
0000
1000
,
0000
0001
0100
0010
,
1000
0000
0001
0000
0001
0000
0000
0100
,
0000
0000
0010
0000
1000
0000
0000
0001
,
0000
0000
0100
0000
0001
0000
0000
0001
,
0000
0000
1000
0000
0010
0000
0000
0100
,
0000
0001
1000
0010
,
0100
0000
0000
0001
,
0000
1000
0010
0100
,
0001
0000
0000
0001
0000
0000
0000
0000
,
1000
0000
0000
0000
,
0010
0000
0000
0100
0000
0000
0000
0000
,
0001
0000
0000
1000
0000
0000
0000
0000
,
0001
0000
0000
0200
0000
0000
0000
0000
,
0000
0300
0000
0000
,
0010
0000
0000
1000
,
0000
0001
1000
0010
,
0100
0000
0000
0100
0000
0000
0000
0000
,
0000
0000
0000
0000
,
0001
0000
0000
0001
0000
0000
0000
0000
,
1000
0000
0000
1000
0000
0000
0010
0000
,
0010
0000
0000
0020
0000
0000
0000
0000
,
0000
0000
0030
0000
,
1000
0000
0001
0000
,
1000
0000
0010
0000
,
0100
0000
0001
0000
,
1000
0000
0010
0000
,
0100
0000
0001
0000
,
1000
0000
0001
0000
,
0100
0000
0010
0000
,
1000
0000
0001
0000
,
1001
0000
0000
0000
;

//---------------dance-single - Copied from----------------
#NOTES:
     dance-single:
     Copied from:
     Beginner:
     1:
     0.051,0.083,0.000,0.000,0.000:
0000
0000
0000
0000
,
0000
0000
0000
0000
,
0000
0000
0000
0000
,
0000
0000
0000
0000
,
1000
0000
0000
0000
,
0010
0000
0000
0000
,
0000
0000
0010
0000
,
0000
0000
0010
0000
,
0000
0000
0010
0000
,
0000
0100
0000
0000
,
0000
0000
0100
0000
,
0000
0000
0100
0000
,
0000
0000
0100
0000
,
0000
0001
0000
0000
,
0000
0000
0000
0000
,
0001
0000
0000
0000
,
0000
0000
0000
0000
,
1000
0000
0000
0000
,
0000
0000
0000
0000
,
1000
0000
0000
0000
,
0000
0000
0000
0000
,
0010
0000
0000
0000
,
0010
0000
0000
0000
,
0100
0000
0000
0000
,
0000
0000
0000
0000
,
0100
0000
0000
0000
,
0000
0000
0000
0000
,
0001
0000
0000
0000
,
0000
0000
0000
0000
,
1000
0000
0000
0000
,
0000
0000
1000
0000
,
0000
0000
0000
0010
0000
0000
0000
0000
,
0000
0000
0000
0000
,
0100
0000
0000
0000
,
0100
0000
0000
0000
,
0100
0000
0000
0000
,
0100
0000
0000
0000
,
0001
0000
0000
0000
,
0000
0000
0000
0000
,
0001
0000
0000
0000
,
0000
0000
0000
0000
,
1000
0000
0000
0000
,
0000
0000
0000
0000
,
1000
0000
0000
0000
,
0000
0000
0000
0000
,
0010
0000
0000
0000
,
0000
0000
0000
0000
,
0010
0000
0000
0000
,
0000
0000
0000
0000
,
0100
0000
0000
0000
,
0100
0000
0000
0000
,
0100
0000
0000
0000
,
0000
0000
0000
0000
,
0001
0000
0000
0000
,
0000
0000
0000
0000
,
0001
0000
0000
0000
,
0000
0000
0000
0000
,
1000
0000
0000
0000
,
1000
0000
0000
0000
,
1000
0000
0000
0000
,
0000
0000
0000
0000
,
0010
0000
0000
0000
,
0000
0000
0000
0010
,
0000
0000
0000
0000
,
0000
0000
0000
0000
,
0100
0000
0000
0000
,
0000
0000
0000
0000
,
0100
0000
0000
0000
,
0000
0000
0000
0000
,
0001
0000
0000
0000
;
