#TITLE:Pyromania;
#SUBTITLE:;
#ARTIST:KO3;
#TITLETRANSLIT:;
#SUBTITLETRANSLIT:;
#ARTISTTRANSLIT:;
#CREDIT:SupremeX;
#BANNER:Pyromania.png;
#BACKGROUND:Pyromania-bg.png;
#LYRICSPATH:;
#CDTITLE:CDTitle.png;
#MUSIC:Pyromania.ogg;
#OFFSET:-0.617;
#SAMPLESTART:15.560;
#SAMPLELENGTH:12.000;
#SELECTABLE:YES;
#BPMS:0.000=128.000;
#STOPS:;
#BGCHANGES:16.000=beads3.avi=1.000=0=0=1,
32.000=bubble1r.avi=1.000=0=0=1,
48.000=bottle1.avi=1.000=0=0=1,
64.000=beads3.avi=1.000=0=0=1,
80.000=blizzard6.avi=1.000=0=0=1,
96.000=bubble1r.avi=1.000=0=0=1,
112.000=ants.avi=1.000=0=0=1,
128.000=fire2.avi=1.000=0=0=1,
144.000=blizzard6.avi=1.000=0=0=1,
160.000=fire2.avi=1.000=0=0=1,
176.000=blizzard6.avi=1.000=0=0=1,
191.500=Pyromania-bg.png=1.000=0=0=1,
99999=-nosongbg-=1.000=0=0=0 // don't automatically add -songbackground-
;

//---------------dance-single - ----------------
#NOTES:
     dance-single:
     :
     Hard:
     7:
     0.504,0.485,0.021,0.000,0.597: // measure 1
0000
0000
0000
0000
,  // measure 2
0000
0000
0000
0000
,  // measure 3
0000
0000
0000
0000
,  // measure 4
0000
0000
0000
0000
,  // measure 5
1000
0000
0100
0000
1000
0100
0000
1000
0000
0000
0001
0000
0010
0001
0000
0010
,  // measure 6
0000
0000
0100
0000
1000
0100
0000
1000
0000
0000
0010
0000
1000
0000
0001
0000
,  // measure 7
1000
0000
0010
0000
0100
0010
0000
0100
0000
0000
0001
0000
1000
0001
0000
1000
,  // measure 8
0000
0000
0100
0000
0010
0000
0000
0001
0000
0100
0000
0010
0100
0000
0010
0000
,  // measure 9
1000
0000
0001
0000
1000
0001
0000
1000
0000
0000
0010
0000
0100
0001
0000
0001
,  // measure 10
0000
0000
1000
0000
0010
0100
0000
0100
0000
0000
0001
0000
1000
0100
1000
0100
,  // measure 11
1000
0000
0001
0000
0010
0001
0000
0010
0000
0000
0100
0000
1000
0100
0000
1000
,  // measure 12
0000
0000
0001
0000
0100
0001
0000
0100
0000
0010
0000
1000
0010
0000
1000
0000
,  // measure 13
0001
0000
1000
0000
0010
0100
0000
0100
0000
0000
0001
0000
1000
0010
0000
0010
,  // measure 14
0000
0000
0100
0000
0010
1000
0000
1000
0000
0000
0010
0000
0100
0001
0100
0001
,  // measure 15
0100
0000
0010
0000
1000
0001
0000
0001
0000
0000
1000
0000
0100
1000
0000
0010
,  // measure 16
0000
0000
1000
0000
0010
1000
0000
1000
0000
0001
0000
0100
0001
0000
0100
0000
,  // measure 17
0010
0000
1000
0000
0001
0000
1000
1000
,  // measure 18
1000
0000
0100
0000
0010
0000
0001
0001
,  // measure 19
0001
0000
1000
0000
1000
0000
0010
0010
,  // measure 20
0010
0000
1000
0000
1000
0000
0100
0100
,  // measure 21
0100
0000
0010
0000
0010
0000
0001
0001
,  // measure 22
0001
0000
1000
0000
0010
0000
1000
0100
,  // measure 23
0010
0001
0100
0010
1000
0001
0100
0010
,  // measure 24
0100
0001
1000
0001
,  // measure 25
0101
0000
1000
0010
1000
0000
0001
0100
,  // measure 26
0000
0100
0001
0000
0010
0000
0010
0000
,  // measure 27
1000
0001
0000
0000
1000
0000
0010
0100
,  // measure 28
0010
1000
0100
0010
0001
0100
0010
0100
,  // measure 29
0001
1000
0000
0000
1000
0000
0010
1000
,  // measure 30
0000
0001
0100
0000
0010
0000
1010
0000
,  // measure 31
1000
0000
0100
0000
0010
0000
0001
1000
,  // measure 32
0001
0000
0010
0000
0100
0000
0000
0100
0000
0010
0000
1000
0010
0000
1000
0000
,  // measure 33
0100
0000
0010
0000
0001
1000
0000
1000
0000
0000
0010
0000
1000
0010
0000
0010
,  // measure 34
0000
0000
0100
0000
0010
0100
0000
0100
0000
0000
0010
0000
1000
0001
1000
0001
,  // measure 35
1000
0000
0010
0000
1000
0010
0000
0010
0000
0000
0100
0000
0001
1000
0000
0001
,  // measure 36
0000
0000
0100
0000
0001
0100
0000
0010
0000
1000
0000
0100
1000
0000
0100
0000
,  // measure 37
0010
0000
0001
0000
0010
0001
0000
1000
0000
0000
1000
0000
0100
1000
0000
0010
,  // measure 38
0000
0000
0100
0000
0001
0100
0000
0010
0000
0000
1000
0000
0100
1000
0100
1000
,  // measure 39
0100
0000
0010
0000
0001
1000
0000
1000
0000
0000
0010
0000
0100
0010
0000
0100
,  // measure 40
0000
0000
0001
0000
1000
0010
0000
0010
0000
1000
0000
0001
1000
0000
0010
0000
,  // measure 41
0100
0000
1000
0000
0010
0100
0000
0010
0000
0000
1000
0000
0001
1000
0000
1000
,  // measure 42
0000
0000
0001
0000
0100
0010
0000
0010
0000
0000
1000
0000
0010
0100
0010
0100
,  // measure 43
0010
0000
1000
0000
0001
0100
0000
0100
0000
0000
0001
0000
1000
0010
0000
0010
,  // measure 44
0000
0000
1000
0000
0100
1000
0000
0100
0000
0010
0000
0001
0010
0000
0001
0000
,  // measure 45
0010
0000
0100
0000
1000
0010
0000
0100
0000
0000
0001
0000
1000
0100
0000
1000
,  // measure 46
0000
0000
0001
0000
0010
0001
0000
1000
0000
0000
0010
0000
0100
0001
0100
0001
,  // measure 47
0100
0000
0010
0000
1000
0010
0000
1000
0000
0000
0100
0000
0010
0100
0000
0001
,  // measure 48
0000
0000
1000
0000
0001
1000
0000
0010
0000
0100
0000
0001
1000
0000
0010
0000
;

//---------------dance-single - ----------------
#NOTES:
     dance-single:
     :
     Medium:
     5:
     0.286,0.333,0.011,0.000,0.203:
0000
0000
0000
0000
,
0000
0000
0000
0000
,
0000
0000
0000
0000
,
0000
0000
0000
0000
,
1000
0000
0000
0000
0010
0000
0000
0010
0000
0000
0000
0000
0100
0000
0000
0100
,
0000
0000
0000
0000
0001
0000
0000
0001
0000
0000
0000
0000
1000
0000
0000
0000
,
0010
0000
0000
0000
0100
0000
0000
0100
0000
0000
0000
0000
0001
0000
0000
0001
,
0000
1000
0010
0100
,
0001
0000
0000
0000
1000
0000
0000
1000
0000
0000
0000
0000
0010
0000
0000
0010
,
0000
0000
0000
0000
0100
0000
0000
0100
0000
0000
0000
0000
0001
0000
0000
0000
,
0001
0000
0000
0000
1000
0000
0000
1000
0000
0000
0000
0000
0010
0000
0000
0010
,
0000
0000
0000
0000
0100
0000
0000
0100
0000
0000
0000
0000
0001
0000
0000
0000
,
1000
0000
0000
0000
0010
0000
0000
0010
0000
0000
0000
0000
1000
0000
0000
1000
,
0000
0000
0000
0000
0001
0000
0000
0001
0000
0000
0000
0000
1000
0000
0000
0000
,
0010
0000
0000
0000
0100
0000
0000
0100
0000
0000
0000
0000
0001
0000
0000
0001
,
0000
1000
0010
0100
,
0001
0000
0010
0000
0100
0000
1000
1000
,
1000
0000
0001
0000
0100
0000
0010
0010
,
0010
0000
0100
0000
0100
0000
0001
0001
,
0001
1000
0010
0100
,
0100
0000
0001
0001
0001
0000
1000
1000
,
1000
0000
0010
0010
0010
0000
1000
1000
,
1000
0000
0001
0001
0001
0000
0100
0000
,
0010
1000
1000
1000
,
0001
0000
1000
0000
0010
0000
0100
0100
,
0000
0001
1000
0010
,
0100
0000
0001
0000
1000
0000
0001
0001
,
0000
0100
0010
0100
,
0010
0000
1000
0000
0001
0000
1000
1000
,
0000
0010
0100
0001
,
1000
0000
0010
0000
0100
0000
0001
0001
,
1000
0010
0100
0010
,
1000
0000
0000
0000
0001
0000
0000
0001
0000
0000
0000
0000
1000
0000
0000
1000
,
0000
0000
0000
0000
0010
0000
0000
0010
0000
0000
0000
0000
1000
0000
0000
0000
,
1000
0000
0000
0000
0100
0000
0000
0100
0000
0000
0000
0000
0010
0000
0000
0010
,
0000
0000
0000
0000
0001
0000
0000
0001
0000
0000
0000
0000
1000
0000
0000
0000
,
1000
0000
0000
0000
0010
0000
0000
0010
0000
0000
0000
0000
1000
0000
0000
1000
,
0000
0000
0000
0000
0100
0000
0000
0100
0000
0000
0000
0000
0010
0000
0000
0000
,
0010
0000
0000
0000
0001
0000
0000
0001
0000
0000
0000
0000
1000
0000
0000
1000
,
0000
0010
0100
0001
,
1000
0000
0000
0000
0010
0000
0000
0010
0000
0000
0000
0000
1000
0000
0000
1000
,
0000
0000
0000
0000
0001
0000
0000
0001
0000
0000
0000
0000
1000
0000
1000
0000
,
1000
0000
0000
0000
0100
0000
0000
0100
0000
0000
0000
0000
0010
0000
0000
0010
,
0000
0000
0000
0000
0001
0000
0000
0001
0000
0000
0000
0000
1000
0000
0000
0000
,
1000
0000
0000
0000
0010
0000
0000
0010
0000
0000
0000
0000
0100
0000
0000
0100
,
0000
0000
0000
0000
0001
0000
0000
0001
0000
0000
0000
0000
0010
0000
0000
0000
,
0100
0000
0000
0000
1000
0000
0000
1000
0000
0000
0000
0000
0010
0000
0000
0010
,
0000
0100
0001
1000
,
1001
0000
0000
0000
;

//---------------dance-single - ----------------
#NOTES:
     dance-single:
     :
     Easy:
     3:
     0.209,0.253,0.352,0.021,0.181:
0000
0000
0000
0000
,
0000
0000
0000
0000
,
0000
0000
0000
0000
,
0000
0000
0000
0000
,
0001
0100
0100
0010
,
0010
1000
1000
0001
,
0100
0010
0010
1000
,
2000
0000
0000
0000
,
3001
0000
0000
0000
0000
0000
0000
1001
0000
0000
0000
0000
0000
0000
0000
1001
,
0000
0000
0000
0000
0000
0000
0000
1001
0000
0000
0000
0000
0100
0000
0000
0000
,
0100
0000
0000
0000
0010
0000
0000
1010
0000
0000
0000
0000
0000
0000
0000
1010
,
0000
0000
0000
0000
0000
0000
0000
1010
0000
0000
0000
0000
0001
0000
0000
0000
,
0100
0000
0000
0000
0001
0000
0000
0101
0000
0000
0000
0000
0000
0000
0000
0101
,
0000
0000
0000
0000
0000
0000
0000
0101
0000
0000
0000
0000
1000
0000
0000
0000
,
0001
0000
0000
0000
1000
0000
0000
1010
0000
0000
0000
0000
0000
0000
0000
1010
,
0000
0000
0000
0000
,
0100
0000
0000
0000
,
0100
0000
0000
0001
,
0001
1000
1000
0010
,
0010
0000
0000
0000
,
0100
0000
0000
0000
,
0100
0000
0000
0000
,
0001
0001
0001
0001
,
2000
0000
0000
0000
0000
0000
0000
0000
0000
0000
0000
0000
0000
3000
0000
0000
,
0010
0000
0000
0100
,
0000
0001
1000
0001
,
0100
0000
0000
0010
,
0000
1000
0001
1000
,
0010
0000
0000
0100
,
0000
0001
1000
0001
,
0100
0000
0000
0000
,
0010
0010
0010
0010
,
1000
0000
0000
0000
0000
0000
0000
0001
0000
0000
0000
0000
0000
0000
0000
1000
,
0000
0000
0001
0000
,
1000
0000
0000
0000
0010
0000
0000
0110
0000
0000
0000
0000
0000
0000
0000
0110
,
0000
0000
0000
0000
0000
0000
0000
0110
0000
0000
0000
0000
0000
0000
0000
0000
,
1000
0000
0000
0000
0000
0000
0000
1001
0000
0000
0000
0000
0000
0000
0000
1001
,
0000
0000
0000
0000
0000
0000
0000
1001
0000
0000
0000
0000
0000
0000
0000
0000
,
0010
0000
0000
0000
0000
0000
0000
0110
0000
0000
0000
0000
0000
0000
0000
0110
,
0000
0000
0000
0000
0000
0000
0000
0110
0000
0000
0000
0000
0000
0000
0000
0000
,
1000
0000
0000
0000
0000
0000
0000
1001
0000
0000
0000
0000
0000
0000
0000
0101
,
0000
0000
0000
0000
0000
0000
0000
1010
0000
0000
0000
0000
0000
0000
0000
0000
,
0100
0000
0000
0000
0000
0000
0000
0011
0000
0000
0000
0000
0000
0000
0000
1100
,
0000
0000
0000
0000
0000
0000
0000
0011
0000
0000
0000
0000
0000
0000
0000
0000
,
1000
0000
0000
0000
0000
0000
0000
1010
0000
0000
0000
0000
0000
0000
0000
0101
,
0000
0000
0000
0000
0000
0000
0000
1010
0000
0000
0000
0000
0000
0000
0000
0000
,
1001
0000
0000
0000
0000
0000
0000
1010
0000
0000
0000
0000
0000
0000
0000
0101
,
0000
0000
0000
0000
0000
0000
0000
1010
0000
0000
0000
0000
0000
0000
0000
0000
;

//---------------dance-single - Copied from----------------
#NOTES:
     dance-single:
     Copied from:
     Beginner:
     2:
     0.102,0.127,0.000,0.000,0.245:
0000
0000
0000
0000
,
0000
0000
0000
0000
,
0000
0000
0000
0000
,
0000
0000
0000
0000
,
0010
0000
0000
0000
0000
0000
0000
0010
0000
0000
0000
0000
0000
0000
0000
0010
,
0000
0000
0000
0000
0000
0000
0000
0010
0000
0000
0000
0000
0000
0000
0000
0000
,
0000
0000
0000
0000
0000
0000
0000
0100
0000
0000
0000
0000
0000
0000
0000
0100
,
0000
0000
0000
0000
,
0000
0000
0000
0000
0000
0000
0000
0001
0000
0000
0000
0000
0000
0000
0000
0001
,
0000
0000
0000
0000
0000
0000
0000
0001
0000
0000
0000
0000
0000
0000
0000
0000
,
0000
0000
0000
0000
0000
0000
0000
1000
0000
0000
0000
0000
0000
0000
0000
1000
,
0000
0000
0000
0000
0000
0000
0000
1000
0000
0000
0000
0000
0000
0000
0000
0000
,
0000
0000
0000
0000
0000
0000
0000
0001
0000
0000
0000
0000
0000
0000
0000
0001
,
0000
0000
0000
0000
0000
0000
0000
0001
0000
0000
0000
0000
0000
0000
0000
0000
,
0000
0000
0000
0000
0000
0000
0000
1000
0000
0000
0000
0000
0000
0000
0000
1000
,
0000
0000
0000
0000
,
0010
0000
0000
0000
0000
0000
0000
0100
0000
0000
0000
0000
0000
0000
0000
0010
,
0000
0000
0000
0000
0000
0000
0000
0100
0000
0000
0000
0000
0000
0000
0000
0010
,
0000
0000
0000
0000
0000
0000
0000
0100
0000
0000
0000
0000
0000
0000
0000
0010
,
0000
0000
0000
0000
0000
0000
0000
0100
0000
0000
0000
0000
0000
0000
0000
0000
,
0001
0000
0001
0000
,
0001
0000
0001
0000
,
0001
0000
0001
0000
,
0001
0000
0000
0000
,
1000
0000
0000
1000
,
0000
0000
0000
0000
,
0010
0000
0000
0010
,
0000
0000
0000
0000
,
0100
0000
0000
0100
,
0000
0000
0000
0000
,
0001
0000
0000
0001
,
0000
0000
0000
0000
,
1000
0000
0000
0000
0000
0000
0000
1000
0000
0000
0000
0000
0000
0000
0000
1000
,
0000
0000
0000
0000
0000
0000
0000
1000
0000
0000
0000
0000
0000
0000
0000
0000
,
0000
0000
0000
0000
0000
0000
0000
0010
0000
0000
0000
0000
0000
0000
0000
0010
,
0000
0000
0000
0000
0000
0000
0000
0010
0000
0000
0000
0000
0000
0000
0000
0000
,
0000
0000
0000
0000
0000
0000
0000
0100
0000
0000
0000
0000
0000
0000
0000
0100
,
0000
0000
0000
0000
0000
0000
0000
0100
0000
0000
0000
0000
0000
0000
0000
0000
,
0000
0000
0000
0000
0000
0000
0000
0001
0000
0000
0000
0000
0000
0000
0000
0001
,
0000
0000
0000
0000
,
1000
0000
0000
0000
0000
0000
0000
1000
0000
0000
0000
0000
0000
0000
0000
1000
,
0000
0000
0000
0000
0000
0000
0000
1000
0000
0000
0000
0000
0000
0000
0000
0000
,
0000
0000
0000
0000
0000
0000
0000
0001
0000
0000
0000
0000
0000
0000
0000
0001
,
0000
0000
0000
0000
0000
0000
0000
0001
0000
0000
0000
0000
0000
0000
0000
0000
,
0100
0000
0000
0000
0000
0000
0000
0100
0000
0000
0000
0000
0000
0000
0000
0100
,
0000
0000
0000
0000
0000
0000
0000
0100
0000
0000
0000
0000
0000
0000
0000
0000
,
0010
0000
0000
0000
0000
0000
0000
0010
0000
0000
0000
0000
0000
0000
0000
0010
,
0000
0000
0000
0000
0000
0000
0000
0010
0000
0000
0000
0000
0000
0000
0000
0000
;
