#TITLE:Princess Fairy;
#SUBTITLE:;
#ARTIST:Gold Tiara;
#TITLETRANSLIT:;
#SUBTITLETRANSLIT:;
#ARTISTTRANSLIT:;
#GENRE:;
#CREDIT:SupremeX;
#BANNER:Princess Fairy-bn2.png;
#BACKGROUND:Princess Fairy-bg.png;
#LYRICSPATH:;
#CDTITLE:CDTitle.png;
#MUSIC:Princess Fairy.ogg;
#OFFSET:-0.020;
#SAMPLESTART:40.529999;
#SAMPLELENGTH:12.000000;
#SELECTABLE:YES;
#BPMS:0.000000=142.10;
#STOPS:
;
#BGCHANGES:16.000=heart6.avi=1.000=0=0=1=====,
32.000=snow6.avi=1.000=0=0=1=====,
48.000=flower2.avi=1.000=0=0=1=====,
64.000=flower1.avi=1.000=0=0=1=====,
80.000=dance10.avi=1.000=0=0=1=====,
96.000=snow1b.avi=1.000=0=0=1=====,
112.000=heart6.avi=1.000=0=0=1=====,
128.000=snow6.avi=1.000=0=0=1=====,
144.000=flower2.avi=1.000=0=0=1=====,
160.000=flower1.avi=1.000=0=0=1=====,
176.000=dance10.avi=1.000=0=0=1=====,
188.000=square2.avi=1.000=0=0=1=====,
192.000=snow1b.avi=1.000=0=0=1=====,
208.000=heart6.avi=1.000=0=0=1=====,
224.000=snow1b.avi=1.000=0=0=1=====,
240.000=heart6.avi=1.000=0=0=1=====,
256.000=Princess Fairy-bg.png=1.000=0=0=1=====,
99999=-nosongbg-=1.000=0=0=0 // don't automatically add -songbackground-
;
#KEYSOUNDS:;
#ATTACKS:;

//---------------dance-single - ----------------
#NOTES:
     dance-single:
     :
     Hard:
     8:
     0.503417,0.519125,0.549767,0.144201,0.072101,391.000000,330.000000,61.000000,16.000000,0.000000,0.000000,0.503417,0.519125,0.549767,0.144201,0.072101,391.000000,330.000000,61.000000,16.000000,0.000000,0.000000:
0000
0000
0000
0000
,
0000
0000
0000
0000
,
0000
0000
0000
0000
,
0000
0000
0000
0000
,
0100
0000
0010
0000
1001
0000
0001
0100
,
0001
0000
1000
0000
0110
0000
1000
0001
,
0001
0000
0100
0010
1000
0000
0001
0010
,
0100
0000
1000
0100
1000
0100
0010
0001
,
0100
0000
0000
0000
0010
0000
0000
1010
0000
0000
1000
0000
0100
0000
0010
0000
,
0001
0000
0000
0000
0100
0000
0000
0101
0000
0000
0001
0000
1000
0000
0001
0000
,
1000
0000
0000
0000
0100
0000
0000
1100
0000
0000
1000
0000
0100
0000
1000
0000
,
0100
0000
0000
0000
0010
0000
0000
0011
0000
0000
0001
0000
0010
0000
0001
0000
,
0010
0000
0000
0000
0100
0000
0010
1000
0000
0000
0100
0000
0010
0000
0001
0000
,
1000
0000
0000
0000
0001
0000
0100
0001
0000
0000
1000
0000
0010
0000
1000
0000
,
0001
0000
0000
0000
0100
0000
0000
0110
0000
0000
0001
0000
0010
0000
0100
0000
,
1000
0000
0000
0000
0001
0000
0000
1001
0000
0000
1000
0000
0001
0000
1000
0000
,
0220
0000
0000
0000
0000
0000
0000
0330
0000
0000
1000
0000
0001
0000
1000
0000
,
0000
0110
0000
2002
0000
0000
3003
0000
,
0100
0000
0100
0010
1000
0010
0100
0001
,
1000
0002
0000
0103
0000
0000
1010
0000
,
0202
0000
0303
0000
0000
1000
0010
1000
,
0000
0000
1100
0000
0000
0000
0022
0000
0000
0033
0000
0000
0000
0000
1000
0000
,
1000
0000
0110
0000
1001
0010
0100
0010
,
1000
0001
1000
0010
0100
0010
1000
0001
,
1000
0000
0101
0000
1010
0000
0001
0100
,
0001
0000
0010
0000
0100
1000
0100
0010
,
0001
0000
1010
0000
0101
0000
0010
0100
,
1000
0000
0010
0000
0100
0001
0100
0010
,
1000
0000
1100
0000
1001
0000
0100
0010
,
1000
0000
0011
0000
1100
0000
0001
0100
,
0001
0000
0010
1000
0100
0000
0010
0001
,
0100
0000
0010
1000
0001
0100
0010
1000
,
0001
0000
0000
0000
1000
0000
0000
1001
0000
0000
1000
0000
0100
0000
0010
0000
,
0001
0000
0000
0000
1000
0000
0000
0110
0000
0000
0001
0000
0010
0000
0100
0000
,
1000
0000
0000
0000
0100
0000
0000
1100
0000
0000
1000
0000
0100
0000
0010
0000
,
0001
0000
0000
0000
0010
0000
0000
0011
0000
0000
0001
0000
0010
0000
0100
0000
,
1000
0000
0000
0000
0010
0000
0000
1010
0000
0000
0100
0000
0001
0000
0100
0000
,
0010
0000
0000
0000
0100
0000
0000
0101
0000
0000
0010
0000
1000
0000
0010
0000
,
0100
0000
0000
0000
0001
0000
0000
0110
0000
0000
1000
0000
0001
0000
0100
0000
,
0010
0000
0000
0000
1000
0000
0000
1001
0000
0000
0001
0000
0100
0000
0010
0000
,
2000
0000
0000
3000
0000
0010
0100
0001
,
0000
0000
1001
0000
0000
0000
0220
0000
0000
0000
0000
0330
0000
0000
0000
0000
,
0000
0000
1000
0100
0010
0001
1000
0100
,
1000
0001
0000
1100
0000
0000
0110
0000
,
2002
0000
3003
0000
0000
1000
0100
0010
,
0000
0011
0000
2200
0000
3300
0000
0001
,
0010
0000
0110
0000
1000
0100
1000
0100
,
0010
0001
0010
0100
1000
0100
0010
0000
,
0001
0000
0110
0000
1001
0000
0001
1000
,
0100
0000
0110
0000
0001
0010
0100
1000
,
0100
0000
1100
0000
0011
0000
1000
0100
,
1000
0000
0001
0000
0100
0010
1000
0001
,
0100
0000
1010
0000
0101
0000
1000
0100
,
0010
0000
0011
0000
1100
0000
0010
0100
,
0010
0000
1000
0001
1000
0000
0010
0100
,
0001
0000
1000
0010
0100
0001
1000
0000
,
1001
0000
0101
0000
1000
0010
0100
0001
,
1000
0000
1001
0000
1000
0100
0010
0001
,
0100
0000
1010
0000
0101
0000
1000
0100
,
1000
0000
0110
0000
0001
0010
0100
1000
,
0100
0000
0011
0000
1100
0000
1000
0100
,
1000
0000
1001
0000
0110
0000
1000
0001
,
1000
0000
0010
0100
0010
0000
1000
0100
,
0010
0000
0001
0010
0100
1000
0001
0000
,
1001
0000
0000
0000
;

//---------------dance-single - ----------------
#NOTES:
     dance-single:
     :
     Easy:
     3:
     0.285828,0.344731,0.081113,0.090126,0.000000,222.000000,213.000000,9.000000,10.000000,0.000000,0.000000,0.285828,0.344731,0.081113,0.090126,0.000000,222.000000,213.000000,9.000000,10.000000,0.000000,0.000000:
0000
0000
0000
0000
,
0000
0000
0000
0000
,
0000
0000
0000
0000
,
0000
0000
0000
0000
,
0010
1000
0010
0100
,
0001
0100
0010
1000
,
0010
0100
0001
0100
,
0010
0010
1000
1000
,
0001
0100
0100
0010
,
1000
0001
0001
0100
,
0010
1000
1000
0001
,
0100
0010
0100
0100
,
0001
1000
0010
0010
,
0100
0001
1000
1000
,
0010
0100
0001
0001
,
0100
0010
1000
0001
,
0200
0000
0300
0000
0000
0000
0000
0010
,
0000
0010
0000
1010
0000
0000
0000
0000
,
0000
0100
0100
0001
,
0100
0010
1000
0001
,
0101
0000
0000
0000
0000
0000
0000
0010
,
0000
1000
0000
1010
0000
0000
0000
0000
,
0100
0100
0001
0001
,
1000
0010
0100
0001
,
1001
0010
0100
1000
,
0001
1000
0010
0100
,
0001
1000
0010
0100
,
0010
0100
1000
0001
,
0100
0010
0100
0001
,
0001
1000
0010
0100
,
0001
1000
0010
1000
,
0001
0100
0010
1000
,
0001
0001
0100
0100
,
0010
0010
1000
0001
,
1000
0010
0010
0100
,
0001
1000
0010
0100
,
0001
0100
0100
0010
,
1000
0001
0010
0100
,
1000
0010
0010
0100
,
0001
1000
0010
0100
,
0002
0000
0000
0003
0000
0000
0000
1000
,
0000
1000
0000
0010
0000
0000
0000
0000
,
0100
0001
1000
0010
,
0100
0000
0000
0001
0000
0000
1000
0000
,
1000
0000
0000
0000
0000
0000
0000
0010
,
0000
0100
0000
0001
0000
0000
0000
0000
,
1000
0010
0100
0001
,
1000
0100
0010
0001
,
1000
0010
0100
0001
,
1001
0010
0100
1000
,
0110
0001
0010
0100
,
1001
0010
0100
0001
,
1000
0010
1010
0001
,
0100
0001
0101
0000
,
0010
1000
0010
0100
,
0010
1000
0001
0100
,
0010
0100
0002
0003
,
1000
0010
0200
0300
,
0001
1000
0020
0030
,
0100
0001
2000
3000
,
0010
0100
0002
0003
,
1000
0010
0200
0300
,
0001
0100
0020
0030
,
0001
1000
2000
3000
;

//---------------dance-single - Copied from----------------
#NOTES:
     dance-single:
     Copied from:
     Beginner:
     2:
     0.078538,0.115361,0.000000,0.000000,0.000000,61.000000,61.000000,0.000000,0.000000,0.000000,0.000000,0.078538,0.115361,0.000000,0.000000,0.000000,61.000000,61.000000,0.000000,0.000000,0.000000,0.000000:
0000
0000
0000
0000
,
0000
0000
0000
0000
,
0000
0000
0000
0000
,
0000
0000
0000
0000
,
0001
0000
0000
0000
,
0001
0000
0000
0000
,
0001
0000
0000
0000
,
0001
0000
0000
0000
,
0100
0000
0000
0000
,
0100
0000
0000
0000
,
0100
0000
0000
0000
,
0100
0000
0000
0000
,
0010
0000
0000
0000
,
0010
0000
0000
0000
,
0010
0000
0000
0000
,
0010
0000
0000
0000
,
1000
0000
0000
0000
,
0000
0000
0000
1000
0000
0000
0000
0000
,
0000
0000
0000
0000
,
0010
0000
0000
0010
,
0010
0000
0000
0000
0000
0000
0000
0100
,
0000
0000
0000
0000
,
0100
0000
0000
0000
,
0100
0000
0000
0000
,
0001
0000
0000
0000
,
1000
0000
0000
0000
,
0001
0000
0000
0000
,
1000
0000
0000
0000
,
0001
0000
0000
0000
,
1000
0000
0000
0000
,
0001
0000
0000
0000
,
1000
0000
0000
0000
,
0010
0000
0000
0000
,
0010
0000
0000
0000
,
0010
0000
0000
0000
,
0010
0000
0000
0000
,
0100
0000
0000
0000
,
0100
0000
0000
0000
,
0100
0000
0000
0000
,
0100
0000
0000
0000
,
0001
0000
0000
0000
0000
0000
0000
0001
,
0000
0000
0000
0000
,
0001
0000
0000
0000
,
0001
0000
0000
0000
,
1000
0000
0000
0000
0000
0000
0000
1000
,
0000
0000
0000
0000
,
1000
0000
0000
0000
,
1000
0000
0000
0000
,
0010
0000
0000
0000
,
0010
0000
0000
0000
,
0010
0000
0000
0000
,
0010
0000
0000
0000
,
0100
0000
0000
0000
,
0100
0000
0000
0000
,
0100
0000
0000
0000
,
0100
0000
0000
0000
,
0001
0000
0000
0000
,
1000
0000
0000
0000
,
0001
0000
0000
0000
,
1000
0000
0000
0000
,
0001
0000
0000
0000
,
1000
0000
0000
0000
,
0001
0000
0000
0000
,
1000
0000
0000
0000
,
0001
0000
0000
0000
;

//---------------dance-single - ----------------
#NOTES:
     dance-single:
     :
     Medium:
     6:
     0.321878,0.346083,0.099138,0.036050,0.000000,250.000000,239.000000,11.000000,4.000000,0.000000,0.000000,0.321878,0.346083,0.099138,0.036050,0.000000,250.000000,239.000000,11.000000,4.000000,0.000000,0.000000:
0000
0000
0000
0000
,
0000
0000
0000
0000
,
0000
0000
0000
0000
,
0000
0000
0000
0000
,
1000
0000
0100
0000
0010
0000
0001
0100
,
0001
0000
1000
0000
0010
0000
1000
0100
,
1000
0000
0001
0000
0001
0000
0100
0010
,
0100
0001
1000
0001
,
0100
0010
1000
0001
,
1000
1000
0010
0100
,
0001
0000
0001
0000
1000
0000
0010
0100
,
0010
0000
1000
0000
1000
0000
0001
0100
,
0001
0010
0010
0100
,
1000
0000
0010
0000
0010
0000
0100
0001
,
0100
0010
1000
0010
,
0100
0000
0001
0010
0001
0000
1000
0000
,
0020
0000
0000
0030
0000
0000
0000
0100
,
0000
0001
0000
1001
0000
0000
0000
0000
,
1000
0010
0100
0001
,
1000
0010
0000
0010
0000
0000
0100
0000
,
0100
0000
0000
0000
0000
0001
1000
0001
,
0000
0100
0000
0100
0000
0000
0000
0010
,
1000
0000
1000
0000
0001
0000
0000
0200
,
0000
0000
0000
0300
,
0010
0000
0010
0000
1000
0000
0001
1000
,
0001
0100
0100
0010
,
1000
0000
1000
0000
0001
0000
0100
0001
,
0100
0010
0010
1000
,
0001
0000
1000
0000
0010
0000
0100
0010
,
0100
0000
0001
0000
1000
0000
0001
1000
,
0001
0000
0100
0000
0100
0000
0010
1000
,
0010
0100
0001
1000
,
0100
0100
0010
0001
,
1000
0100
0100
0010
,
0001
1000
0001
0100
,
0010
1000
1000
0100
,
0010
0000
0001
0100
0001
0000
0010
0000
,
0100
0000
1000
0010
1000
0000
0001
0000
,
0100
0000
0010
1000
0010
0000
0100
0000
,
0001
1000
0001
1000
,
0020
0000
0000
0000
0030
0000
0000
0100
,
0000
0001
0000
0100
0000
0000
0000
0000
,
0001
0010
0100
1000
,
0010
0000
0000
1000
0000
0000
0001
0000
,
1001
0000
0000
0000
0000
0000
0000
1000
,
0000
0010
0000
0100
0000
0000
0000
0000
,
0001
0000
0010
0000
0100
0000
0000
2000
,
0000
0000
0000
3000
,
0001
0000
0010
0000
0100
0000
1000
0100
,
1000
0100
0010
0001
,
0010
0000
0100
0000
1000
0000
0010
1000
,
0010
0100
0100
0001
,
0001
0000
1000
0000
1000
0000
0010
0100
,
0010
0000
1000
0000
0001
0000
0100
0001
,
0010
0000
1000
0000
0100
0000
0010
0001
,
0010
0100
1000
0100
,
0010
0001
1001
0010
,
0100
1000
1001
0010
,
0100
1000
1100
0010
,
0001
1000
1010
0100
,
0001
1000
0101
1000
,
0100
0010
0011
0001
,
0010
0100
1001
0010
,
0100
0010
0110
1000
,
1001
0000
0000
0000
;
