#TITLE:Phase Angel;
#SUBTITLE:;
#ARTIST:OCOT;
#TITLETRANSLIT:;
#SUBTITLETRANSLIT:;
#ARTISTTRANSLIT:;
#CREDIT:SupremeX;
#BANNER:Phase Angel.png;
#BACKGROUND:Phase Angel-bg.png;
#LYRICSPATH:;
#CDTITLE:CDTitle.png;
#MUSIC:Phase Angel.ogg;
#OFFSET:-0.408;
#SAMPLESTART:56.940;
#SAMPLELENGTH:12.000;
#SELECTABLE:YES;
#BPMS:0.000=140.000;
#STOPS:128.000=1.295
;
#BGCHANGES:32.000=DanceOff_P2.avi=1.000=0=0=1,
64.000=rain1.avi=1.000=0=0=1,
96.000=wheel.avi=1.000=0=0=1,
128.000=Phase Angel-bg.png=1.000=0=0=1,
129.000=ring131.avi=1.000=0=0=1,
145.000=dance6.avi=1.000=0=0=1,
161.000=cyber2.avi=1.000=0=0=1,
177.000=rain1.avi=1.000=0=0=1,
193.000=dance6.avi=1.000=0=0=1,
209.000=ring131.avi=1.000=0=0=1,
224.750=Phase Angel-bg.png=1.000=0=0=1,
99999=-nosongbg-=1.000=0=0=0 // don't automatically add -songbackground-
;

//---------------dance-single - ----------------
#NOTES:
     dance-single:
     :
     Easy:
     4:
     0.259,0.240,0.009,0.057,0.000:
0000
0000
0000
0000
,
0000
0000
0000
0000
,
0000
0000
0000
0000
,
0000
0000
0000
0000
,
1000
1000
1000
1000
,
0010
0010
0010
0010
,
0100
0100
0100
0100
,
0001
0001
0001
0001
,
1000
0010
1000
0010
,
0100
0001
0100
0001
,
1000
0010
1000
0010
,
0100
0001
0100
0001
,
1000
0100
0010
0001
,
1000
0001
0100
0010
,
1000
0100
0010
0001
,
1000
0001
0100
0010
,
2000
0000
0000
3000
,
0020
0000
0000
0030
,
0200
0000
0000
0000
,
0000
0000
0000
0300
,
0002
0000
0000
0003
,
2000
0000
0000
0000
0000
0000
0000
3000
,
0020
0000
0000
0000
,
0000
0000
0000
0030
,
0100
0001
1000
0001
,
0100
0010
1000
0001
,
0100
0010
1000
0001
,
0100
0010
1000
0001
,
1000
0100
0010
0001
,
1000
0100
0010
0001
,
1000
0010
1000
0001
,
0100
0001
1000
0001
,
1000
0010
0100
0010
,
0100
0001
1000
0001
,
1000
0010
0100
0010
,
1000
0001
0010
0100
,
1000
0001
0100
0010
,
1000
0001
0100
0001
,
0100
0010
1000
0010
,
1000
0001
0010
0100
,
1000
0001
0001
0100
,
0100
0010
0010
1000
,
1000
0001
0010
0100
,
1000
0010
0100
0001
,
1000
0010
0010
0100
,
0100
0001
0001
1000
,
1000
0010
0100
0001
,
0010
0100
1000
0010
,
0100
0001
0001
1000
,
1000
0010
0010
0100
,
0100
0001
1000
0001
,
1000
0010
0100
0010
,
0100
0001
0001
1000
,
1000
0010
0010
0100
,
0100
0001
0010
0100
,
1000
0001
0100
0010
,
1000
1001
0000
0000
;

//---------------dance-single - Copied from----------------
#NOTES:
     dance-single:
     Copied from:
     Hard:
     7:
     0.412,0.445,0.057,0.028,0.227: // measure 1
0000
0000
0000
0000
,  // measure 2
0000
0000
0000
0000
,  // measure 3
0000
0000
0000
0000
,  // measure 4
0000
0000
0000
0000
,  // measure 5
0010
1000
0010
0100
,  // measure 6
0001
1000
0010
0100
,  // measure 7
0001
1000
0010
0100
,  // measure 8
0001
1000
0010
0100
,  // measure 9
0001
1000
0010
1000
0000
0001
0100
0000
,  // measure 10
0010
1000
0010
0100
0000
0100
0001
0000
,  // measure 11
1000
0100
0010
0001
0000
0100
0010
0000
,  // measure 12
1000
0001
1000
0100
0000
0010
0001
0000
,  // measure 13
0001
0010
0100
1000
0000
0100
0100
0000
,  // measure 14
0010
0001
0010
0100
0000
1000
1000
0000
,  // measure 15
0010
0100
0001
1000
0000
0010
0100
0000
,  // measure 16
0001
0010
0100
1000
0000
0010
0010
0000
,  // measure 17
0100
0000
0000
0100
0000
0000
0100
0000
0000
0100
0000
0000
0100
0000
0000
0000
,  // measure 18
0001
0000
0000
0001
0000
0000
0001
0000
0000
0001
0000
0000
0001
0000
0000
0000
,  // measure 19
1000
0000
0000
0100
0000
0000
1000
0000
0000
0001
0000
0000
0100
0000
0000
0001
,  // measure 20
0000
0000
1000
0000
0000
0100
0000
0000
0010
0000
0000
0001
0000
0000
1000
0000
,  // measure 21
0010
0000
0000
1000
0000
0000
1000
0000
0000
1000
0000
0000
1000
0000
0000
0000
,  // measure 22
0010
0000
0000
0010
0000
0000
0010
0000
0000
0010
0000
0000
0010
0000
0000
0000
,  // measure 23
0100
0000
0000
0001
0000
0000
1000
0000
0000
0010
0000
0000
1000
0000
0000
0001
,  // measure 24
0000
0000
0010
0000
0000
0100
0000
0000
1000
0000
0000
0010
0000
0000
0100
0000
,  // measure 25
0001
0000
0000
1000
0000
0000
1000
0000
0000
0010
0000
0000
0010
0000
0000
0100
,  // measure 26
0000
0000
0100
0000
0000
0001
0000
0000
0001
0000
0000
1000
0000
0000
1000
0000
,  // measure 27
0000
0001
0000
0000
0100
0000
0000
0010
0000
0000
1000
0000
0000
0010
0000
0000
,  // measure 28
0100
0000
0000
0001
0000
0000
1000
0000
0000
0100
0000
0000
0010
0000
0000
0001
,  // measure 29
0000
0000
1000
0000
0000
0010
0000
0000
1000
0000
0000
0000
0000
0000
0110
0000
,  // measure 30
0000
0000
0011
0000
0000
1001
0000
0000
,  // measure 31
1000
0100
0010
0001
0100
0001
1000
0010
,  // measure 32
1000
0002
0000
0000
0000
0000
0000
0000
,  // measure 33
1003
0000
1000
0000
0001
0010
0100
1000
,  // measure 34
0010
0000
1000
0000
0001
0000
1000
0100
,  // measure 35
0010
0000
0001
1000
0100
1000
0100
0010
,  // measure 36
0001
0000
0000
1000
0000
0000
0010
0000
0000
1000
0000
0000
0001
0000
0000
0100
,  // measure 37
0000
0001
1000
0000
1000
0010
0100
0010
,  // measure 38
0100
0000
0001
0000
1000
0010
0100
0001
,  // measure 39
1000
0000
0000
0000
0010
0000
0000
0100
0000
0000
0010
0000
0000
1000
0000
0000
,  // measure 40
0001
0000
0000
0100
0000
0000
0010
0000
0000
1000
0000
0000
0001
0000
0010
0000
,  // measure 41
0100
1000
0010
0000
0100
0001
1000
0010
,  // measure 42
1000
0000
0001
0000
0100
0001
0010
0100
,  // measure 43
1000
0000
0010
0000
0100
0001
1000
0010
,  // measure 44
0100
0001
1000
0010
0100
0010
1000
0001
,  // measure 45
0100
0000
0010
0000
1000
0000
0000
0100
0000
0000
0010
0000
0000
0001
0000
0000
,  // measure 46
0101
0000
0000
0000
1000
0000
0000
1000
0000
0000
0001
0000
0000
1000
0000
0000
,  // measure 47
1001
0000
0000
0000
0010
0000
0000
0010
0000
0000
0100
0000
0000
0100
0000
0000
,  // measure 48
0001
0000
0000
0001
0000
0000
1000
0000
0000
0100
0000
0000
1000
0000
0000
0000
,  // measure 49
0001
0100
0001
0000
1000
0000
0010
0100
,  // measure 50
0010
0000
1000
0000
0001
0000
1000
0010
,  // measure 51
0100
0000
0100
0001
1000
0100
0010
0001
,  // measure 52
0100
0010
1000
0001
0010
0100
1000
0010
,  // measure 53
0100
0001
0100
0010
1000
0001
0010
0100
,  // measure 54
1000
0000
0010
1000
0010
0100
0001
0100
,  // measure 55
0010
0000
1000
0100
0010
0001
0100
0010
,  // measure 56
1000
0000
0001
0000
1000
0000
0000
0010
0000
0000
0100
0000
0000
0001
0000
0000
,  // measure 57
1000
0000
0000
2002
0000
0000
0000
0000
0000
0000
0000
0000
0000
0000
0000
0000
,  // measure 58
0000
0000
0000
0000
,  // measure 59
0000
0000
0000
3003
;

//---------------dance-single - Copied from----------------
#NOTES:
     dance-single:
     Copied from:
     Beginner:
     1:
     0.065,0.080,0.000,0.000,0.000:
0000
0000
0000
0000
,
0000
0000
0000
0000
,
0000
0000
0000
0000
,
0000
0000
0000
0000
,
0010
0000
0000
0000
,
0010
0000
0000
0000
,
0100
0000
0000
0000
,
0100
0000
0000
0000
,
0001
0000
0000
0000
,
0001
0000
0000
0000
,
1000
0000
0000
0000
,
1000
0000
0000
0000
,
0010
0000
0000
0000
,
0010
0000
0000
0000
,
0100
0000
0000
0000
,
0100
0000
0000
0000
,
0001
0000
0000
0000
,
0001
0000
0000
0000
,
0001
0000
0000
0000
,
0001
0000
0000
0000
,
1000
0000
0000
0000
,
1000
0000
0000
0000
,
1000
0000
0000
0000
,
1000
0000
0000
0000
,
0010
0000
0000
0000
,
0010
0000
0000
0000
,
0010
0000
0000
0000
,
0010
0000
0000
0000
,
0100
0000
0000
0000
,
0100
0000
0000
0000
,
0100
0000
0000
0000
,
0100
0000
0000
0000
,
0100
0010
0000
0000
,
0000
0010
0000
0000
,
0000
0010
0000
0000
,
0000
0000
0000
0000
,
0000
1000
0000
0000
,
0000
1000
0000
0000
,
0000
1000
0000
0000
,
0000
0000
0000
0000
,
0000
0001
0000
0000
,
0000
0001
0000
0000
,
0000
0001
0000
0000
,
0000
0000
0000
0000
,
0000
0100
0000
0000
,
0000
0100
0000
0000
,
0000
0100
0000
0000
,
0000
0000
0000
0000
,
0000
0010
0000
0000
,
0000
0010
0000
0000
,
0000
0010
0000
0000
,
0000
0000
0000
0000
,
0000
1000
0000
0000
,
0000
1000
0000
0000
,
0000
1000
0000
0000
,
0000
0000
0000
0000
,
0000
0001
0000
0000
;

//---------------dance-single - Copied from----------------
#NOTES:
     dance-single:
     Copied from:
     Medium:
     5:
     0.313,0.356,0.275,0.104,0.000:
0000
0000
0000
0000
,
0000
0000
0000
0000
,
0000
0000
0000
0000
,
0000
0000
0000
0000
,
0010
1000
0001
0100
,
0001
1000
0001
1000
,
0010
0100
0010
0100
,
0001
1000
0010
0100
,
0001
0000
0100
0010
0000
0000
1000
0000
,
0001
0000
1000
0010
0000
0000
0100
0000
,
0001
0000
1000
0001
0000
0000
1000
0000
,
0010
0000
0100
0100
0000
0000
0001
0000
,
1000
0000
0010
0010
0000
0000
0100
0000
,
0001
0000
1000
1000
0000
0000
0010
0000
,
0100
0000
0001
0001
0000
0000
1000
0000
,
0010
0000
0100
0100
0000
0000
0001
0000
,
2001
0000
0000
3000
,
1020
0000
0000
0030
,
2010
0000
3000
1002
,
0000
0000
0000
0003
0201
0000
0000
0300
,
0120
0000
0000
0030
,
2010
0000
0000
3000
,
1002
0000
0000
0000
0000
0003
0201
0000
,
0000
0000
0000
0300
,
0010
0000
0010
0000
1000
0010
1000
0000
,
0001
0000
0001
0000
0100
0001
0100
0000
,
0010
0000
0010
0000
1000
0001
1000
0000
,
0001
0000
0100
0000
0010
0000
1000
0100
,
1000
1000
0010
0100
,
0001
0100
0010
1000
,
0001
1000
0010
1000
,
0001
1000
0010
0100
,
1001
1000
0010
1000
,
1010
0001
0100
0001
,
0101
1000
0100
0010
,
0001
1000
0100
0010
,
0001
1001
0010
0100
,
0110
0001
1000
0010
,
0110
1000
0100
0010
,
0001
1000
0010
1000
,
0001
1100
0010
0001
,
0110
1000
0001
1000
,
1001
0010
0100
1000
,
0001
0100
0010
1000
,
0001
1001
1000
0010
,
0110
0001
0001
0100
,
0110
1000
1000
0001
,
0001
0100
0010
1000
,
0001
1100
0010
0001
,
1001
0011
0100
1000
,
1001
0010
0100
1000
,
0001
0100
0010
1000
,
0001
1010
0010
0100
,
0101
0010
1000
0001
,
1010
0100
0100
0001
,
0001
1000
0010
0100
,
0001
2002
0000
0000
,
0000
0000
0000
3003
;
