#TITLE:PARANOiA KCET ~clean mix~ (Extra Special);
#SUBTITLE:;
#ARTIST:2MB;
#TITLETRANSLIT:;
#SUBTITLETRANSLIT:;
#ARTISTTRANSLIT:;
#CREDIT:SupremeX;
#BANNER:PARANOiA KCET ~clean mix~.png;
#BACKGROUND:PARANOiA KCET ~clean mix~-bg.png;
#LYRICSPATH:;
#CDTITLE:CDTitle.png;
#MUSIC:PARANOiA KCET ~clean mix~.ogg;
#OFFSET:0.000;
#SAMPLESTART:62.655;
#SAMPLELENGTH:15.000;
#SELECTABLE:YES;
#BPMS:0.000=180.000,76.000=90.000,91.500=180.000,233.000=360.000;
#STOPS:95.500=0.160
,97.000=0.160
,99.500=0.500
,101.000=0.160
,104.500=0.180
;
#BGCHANGES:12.000=text10.avi=1.000=0=0=1,
28.000=bottle1.avi=1.000=0=0=1,
44.000=text10.avi=1.000=0=0=1,
60.000=bottle1.avi=1.000=0=0=1,
76.000=film5.avi=1.000=0=0=1,
91.500=text31.avi=1.000=0=0=1,
105.000=web1.avi=1.000=0=0=1,
137.000=fish2.avi=1.000=0=0=1,
169.500=text10.avi=1.000=0=0=1,
185.000=bottle1.avi=1.000=0=0=1,
201.000=text10.avi=1.000=0=0=1,
217.000=bottle1.avi=1.000=0=0=1,
233.000=circle1.avi=1.000=0=0=1,
295.000=PARANOiA KCET ~clean mix~-bg.png=1.000=0=0=1,
99999=-nosongbg-=1.000=0=0=0 // don't automatically add -songbackground-
;

//---------------dance-single - ----------------
#NOTES:
     dance-single:
     :
     Challenge:
     10:
     0.851,1.000,0.647,0.113,0.154: // measure 1
0000
0000
0000
0000
,  // measure 2
0000
0000
0000
0000
,  // measure 3
0000
0000
0000
0000
,  // measure 4
0110
0000
0001
1000
0010
0100
0110
0010
,  // measure 5
0110
0000
0000
0000
0001
0000
0010
0000
0100
0000
1000
0010
1000
0000
0010
0000
,  // measure 6
1000
0000
0001
0100
0001
1000
1100
1000
,  // measure 7
1100
0000
0000
0000
0010
0000
0001
0000
0010
0000
0100
1000
0100
0000
0010
0000
,  // measure 8
0002
0000
0103
0100
0001
1000
1001
1000
,  // measure 9
2001
0000
0000
0000
3001
0000
0010
0000
0100
0000
1000
0010
1000
0000
0010
0000
,  // measure 10
0200
0000
0301
0010
0100
1000
1010
0010
,  // measure 11
1020
0000
0000
0000
0130
0000
0001
0000
1000
0000
0010
0100
0010
0000
0100
0000
,  // measure 12
0101
0000
0000
0000
0010
0000
1000
0000
0001
0000
1000
0001
1000
0000
0001
0000
,  // measure 13
0110
0000
0000
0000
1000
0000
0001
0000
1000
0000
0010
1000
0010
0000
1000
0000
,  // measure 14
1001
0000
0000
0000
0001
0000
0010
0000
0100
0000
1000
0010
1000
0000
0010
0000
,  // measure 15
1010
0000
0100
0001
0010
0100
1100
0100
,  // measure 16
1100
0000
0000
0000
0010
0000
0001
0000
0010
0000
0100
1000
0100
0000
0010
0000
,  // measure 17
0001
0010
0100
1000
0010
0100
0110
0010
,  // measure 18
0120
0000
0000
0000
0130
0000
0001
0000
1000
0000
0001
0010
0100
0000
1000
0000
,  // measure 19
0010
0100
0001
0100
0010
1000
1010
1000
,  // measure 20
2010
0000
0010
0000
3100
1000
0100
1000
0100
0000
1001
0000
0101
0000
1010
0000
,  // measure 21
0102
0000
1000
0000
0103
0001
0100
0010
1000
0000
0101
0000
1010
0000
0101
0000
,  // measure 22
2001
0000
0001
0000
3001
1000
0010
1000
0010
0000
0100
0000
0101
0000
0100
0000
,  // measure 23
0102
0000
0100
0000
1003
0001
1000
0001
1000
0000
1001
0000
0110
0000
1001
0000
,  // measure 24
0000
0001
0010
0100
1000
0010
0100
0001
,  // measure 25
1000
0010
0100
0001
0010
0100
1000
0010
,  // measure 26
0100
0001
1000
0010
0100
0010
1000
0001
,  // measure 27
0100
0010
1000
0001
0010
0100
1000
0010
,  // measure 28
0100
0001
1000
0010
0100
0001
1000
0001
,  // measure 29
0100
0010
0100
0001
1000
0010
1000
0001
,  // measure 30
0100
0000
0010
1000
0000
1000
1001
0001
,  // measure 31
1001
0000
1000
0100
0010
0001
1000
0010
,  // measure 32
1000
0001
0100
0001
0010
0100
1000
1100
,  // measure 33
1100
0010
0001
0000
0100
0001
1000
0010
,  // measure 34
1000
0100
0010
0001
1000
1000
0001
0011
,  // measure 35
0011
0000
0100
1000
0100
0010
0001
0100
,  // measure 36
0010
1000
0001
0100
0010
1000
0001
1001
,  // measure 37
1001
0100
0010
1000
0010
0100
0001
0100
,  // measure 38
0010
1000
0010
0100
0001
1000
1001
0001
,  // measure 39
1001
1000
0001
0010
0100
1000
0010
0100
,  // measure 40
0001
0100
0010
1000
0001
1000
0001
0100
,  // measure 41
0110
0110
1000
0001
1000
0001
0100
0010
,  // measure 42
0100
0001
1000
0010
0100
0001
1000
0010
,  // measure 43
0100
0100
0000
1001
0000
0010
0100
0110
,  // measure 44
0010
1000
1001
0000
0001
1000
0010
0100
,  // measure 45
0010
0100
0110
0000
0001
0010
0100
1000
,  // measure 46
0010
1000
1010
0000
0100
0001
0100
0010
,  // measure 47
1000
0001
1001
0000
0100
0010
1000
0001
,  // measure 48
1000
0010
1010
0000
0100
0001
0100
0010
,  // measure 49
1000
0001
1002
0000
0103
0001
0010
0100
,  // measure 50
1000
0010
2010
0000
3001
1000
0010
1000
,  // measure 51
0001
0000
0100
0000
0101
0000
0100
0000
0010
0000
1000
0000
0010
1000
0010
0000
,  // measure 52
0100
0000
0001
0000
1000
0000
0001
0000
0010
0000
0100
0000
1000
0010
1000
0000
,  // measure 53
0010
0000
0100
0000
0001
0000
1000
0000
0100
0000
0010
0000
0001
0100
0001
0000
,  // measure 54
0100
0000
0010
0000
1000
0000
0100
0000
0010
0000
0001
0000
0100
0001
0100
0000
,  // measure 55
0001
0000
1000
0000
0100
0000
0010
0000
0001
0000
0100
0010
0100
0000
0010
1000
,  // measure 56
0010
1000
0001
0000
0010
0000
0100
0000
1000
0000
0010
0000
1000
0000
0010
0100
,  // measure 57
0001
0100
0010
0000
1000
0000
0100
0000
0010
0000
0001
0000
0100
0000
0010
1000
,  // measure 58
0001
0100
0010
0000
1000
0000
0001
0000
0100
0000
0010
0000
1000
0000
0001
0100
,  // measure 59
0010
1000
0001
0000
1001
0000
0000
0000
1001
0000
0000
0000
1000
0000
0000
0000
,  // measure 60
0100
0010
0001
0010
,  // measure 61
0100
1000
0100
0010
,  // measure 62
0001
0100
0010
1000
,  // measure 63
0001
1001
1001
0100
,  // measure 64
0010
1000
0001
1000
,  // measure 65
0010
0100
0010
1000
,  // measure 66
0001
0100
0010
1000
,  // measure 67
0001
1001
1001
0010
,  // measure 68
0100
1000
0100
0010
,  // measure 69
0001
0100
0001
1000
,  // measure 70
0010
0100
0001
1000
,  // measure 71
0001
1010
0101
0010
,  // measure 72
0100
1000
0100
0010
,  // measure 73
0001
1000
0010
0100
,  // measure 74
0001
1000
0010
1001
;
