#TITLE:PARA PARA;
#SUBTITLE:;
#ARTIST:KING & QUEEN;
#TITLETRANSLIT:;
#SUBTITLETRANSLIT:;
#ARTISTTRANSLIT:;
#GENRE:;
#CREDIT:SupremeX;
#BANNER:PARA PARA.png;
#BACKGROUND:PARA PARA-bg.png;
#LYRICSPATH:;
#CDTITLE:CDTitle.png;
#MUSIC:PARA PARA.ogg;
#OFFSET:-0.0792;
#SAMPLESTART:39.439999;
#SAMPLELENGTH:12.000000;
#SELECTABLE:YES;
#BPMS:0.000000=152.000000
;
#STOPS:
;
#BGCHANGES:4.000=ring12.avi=1.000=0=0=1=====,
20.000=text10.avi=1.000=0=0=1=====,
36.000=lady7.avi=1.000=0=0=1=====,
45.000=light7.avi=1.000=0=0=1=====,
52.000=Lady7R.avi=1.000=0=0=1=====,
61.000=light7.avi=1.000=0=0=1=====,
68.000=sheep1.avi=1.000=0=0=1=====,
75.500=ring12.avi=1.000=0=0=1=====,
83.500=sheep1.avi=1.000=0=0=1=====,
91.500=light7.avi=1.000=0=0=1=====,
95.500=PARA PARA-bg.png=1.000=0=0=1=====,
100.000=lady7.avi=1.000=0=0=1=====,
108.000=text10.avi=1.000=0=0=1=====,
116.000=Lady7R.avi=1.000=0=0=1=====,
124.000=ring12.avi=1.000=0=0=1=====,
132.000=lady7.avi=1.000=0=0=1=====,
140.000=text10.avi=1.000=0=0=1=====,
148.000=Lady7R.avi=1.000=0=0=1=====,
156.000=light7.avi=1.000=0=0=1=====,
164.000=ring12.avi=1.000=0=0=1=====,
180.000=text10.avi=1.000=0=0=1=====,
196.000=PARA PARA-bg.png=1.000=0=0=1=====,
99999=-nosongbg-=1.000=0=0=0 // don't automatically add -songbackground-
;
#KEYSOUNDS:;
#ATTACKS:;

//---------------dance-single - ----------------
#NOTES:
     dance-single:
     :
     Hard:
     8:
     0.510632,0.646515,0.239894,0.059974,0.203910,298.000000,278.000000,20.000000,5.000000,0.000000,0.000000,0.510632,0.646515,0.239894,0.059974,0.203910,298.000000,278.000000,20.000000,5.000000,0.000000,0.000000:
0000
0000
0000
0000
,
1000
0000
0000
0100
1000
0100
1000
0100
1000
0000
0000
0000
0000
0000
0001
0100
,
0001
0000
0000
0000
0000
0000
1000
0100
1000
0000
0000
0000
0101
0000
0000
0000
,
0000
0000
0001
0000
0000
1000
0001
0000
1000
0000
0000
0000
0000
0000
0001
0000
,
0100
0000
0010
1000
0000
1000
0010
0000
0100
0001
0100
0001
0100
0001
0100
0000
,
0010
0000
0000
1000
0100
1000
0100
1000
0100
0000
0000
0000
0000
0000
1000
0001
,
1000
0000
0000
0000
0000
0000
0010
0100
0010
0000
0000
0000
1000
0000
0000
0000
,
0000
0000
0010
0000
0000
0010
0100
0000
0100
0000
0000
0000
0000
0000
0001
0000
,
0010
0100
2000
0000
0000
0000
0000
3000
,
0010
1000
0001
1000
0010
0010
0000
0100
,
0000
0001
1000
0100
0010
0001
1000
0010
,
0000
0000
1000
1000
0000
0000
0001
0001
,
0000
0000
1000
0100
0000
1100
0000
0000
,
1000
0001
0010
0100
1000
1000
0000
0010
,
1000
0001
1000
0010
0100
0001
0100
0010
,
0000
0000
1000
1000
0000
0000
0001
0001
,
0000
0000
0010
0001
0000
0011
0000
0000
,
1000
0001
1000
0010
0100
0100
0000
0001
,
1000
0010
0100
0001
1000
1000
0000
0010
,
0000
0010
0100
0001
1000
0010
1000
0001
,
0000
1001
0000
0110
0000
1001
0000
0100
,
0000
0010
1000
0010
1000
0010
0000
0100
,
0000
0001
0100
0010
1000
0001
0000
1000
,
0000
0100
0010
0001
0001
1000
0001
0200
,
0000
0000
0000
0300
,
0010
0100
0010
0000
1000
0001
1000
0010
,
0000
1010
0000
1001
0000
0101
0000
0000
,
1000
0100
0010
0001
1000
0100
1000
0100
,
0000
0000
0010
0010
0000
0000
0000
0000
,
0001
0010
0100
0000
1000
0010
0100
0001
,
0000
1001
0000
0110
0000
1001
0000
0000
,
1000
0100
0010
0001
1000
0010
1000
0001
,
0100
0001
1000
0002
0000
0000
0000
0003
,
0001
0010
0100
0000
1000
0100
0010
0001
,
0000
0011
0000
0110
0000
1100
0000
0000
,
0010
0001
0010
0100
1000
0010
1000
0010
,
0000
0000
0100
0100
0000
0000
0000
0000
,
0001
0010
0100
0000
1000
0010
0100
0001
,
0000
0110
0000
1100
0000
0011
0000
0000
,
1000
0100
0010
0001
0100
0010
1000
0010
,
0100
0001
0100
0020
0000
0000
0000
0030
,
1000
0000
0000
0010
1000
0010
1000
0010
1000
0000
0000
0000
0000
0000
0001
0100
,
0001
0000
0000
0000
0000
0000
1000
0100
1000
0000
0000
0000
0001
0000
0000
0000
,
0000
0000
0100
0000
0000
0010
0100
0000
0010
0000
0000
0000
0000
0000
1000
0000
,
0010
0000
1000
0010
0000
0100
0001
0000
1000
0001
1000
0001
1000
0001
1000
0000
,
0010
0000
0000
0100
0001
0100
0001
0100
0001
0000
0000
0000
0000
0000
1000
0100
,
1000
0000
0000
0000
0000
0000
0001
0100
0001
0000
0000
0000
0101
0000
0000
0000
,
0000
0000
0010
0000
0000
1000
0010
0000
1000
0000
0000
0000
0000
0000
0100
0000
,
0010
0001
2000
0000
0000
0000
0000
3000
,
1001
0000
0000
0000
;

//---------------dance-single - ----------------
#NOTES:
     dance-single:
     :
     Medium:
     6:
     0.361555,0.381057,0.167926,0.047979,0.000000,211.000000,197.000000,14.000000,4.000000,0.000000,0.000000,0.361555,0.381057,0.167926,0.047979,0.000000,211.000000,197.000000,14.000000,4.000000,0.000000,0.000000:
0000
0000
0000
0000
,
1000
0000
0001
0100
0001
0000
0000
1000
,
1000
0000
0000
0001
0001
0000
0100
0000
,
0000
0010
0000
0010
1000
0000
0000
0000
,
0001
0010
0100
1000
,
0001
0000
0100
0001
0100
0000
0000
0010
,
0010
0000
0000
1000
1000
0000
0001
0000
,
0000
0100
0000
0000
0001
0000
0000
0000
,
1000
0010
2000
0000
0000
0000
3000
0000
,
0100
0010
0001
1000
0010
0000
0000
1000
,
0000
0001
0100
0000
0100
0000
0001
1000
,
0000
0010
0000
1001
,
0000
0000
1000
0010
0000
0010
0000
0000
,
0100
0000
0100
0000
0001
1000
0000
1000
,
0000
0001
0100
0000
0100
0000
0010
1000
,
0000
0000
0001
0001
0000
0000
0100
0100
,
0000
0000
0010
1000
0000
1000
0000
0000
,
0100
0000
0010
0000
0001
0100
0000
0100
,
0000
0000
0001
0000
0001
1000
0000
1000
,
0000
0000
0010
0000
0010
0000
0100
0001
,
0000
1000
0000
1001
0000
1001
0000
0010
,
0000
0010
0100
0000
0100
0000
0000
0001
,
0000
0000
1000
0000
1010
0000
0000
0100
,
0000
0001
1000
0000
1000
0100
0010
0001
,
0200
0000
0000
0000
0000
0300
0000
0000
,
0010
1000
0010
0000
1000
0100
0010
0001
,
0000
0100
0000
1010
0000
0101
0000
0000
,
1000
0000
1000
0000
0010
0100
0010
0100
,
0000
0000
0001
0001
0000
0000
0000
0000
,
1000
0100
1000
0000
0001
0100
0001
0100
,
0000
0010
0000
1010
0000
0101
0000
0000
,
1000
0000
1000
0000
0010
1000
0010
0000
,
0000
0100
0001
0000
0001
0000
1000
0000
,
0010
1000
0010
0000
0100
0001
0100
0001
,
0000
1000
0000
0001
0000
1001
0000
0000
,
0100
0000
0010
0000
1000
0100
0010
0001
,
0000
0100
0000
0000
,
0010
0000
0010
0000
1000
0000
1000
0001
,
0000
1001
0000
0110
0000
1001
0000
0000
,
1000
0000
0001
0000
1000
0100
0010
0001
,
0002
0000
0000
0000
0000
0000
0000
0003
,
1000
0000
1000
0000
0010
0000
0000
0100
,
0001
0000
0000
1000
0010
0000
1010
0000
,
0000
0001
0000
0001
0100
0000
0000
0010
,
1000
0000
1000
0000
0001
0010
0100
1000
,
0010
0000
0010
0000
1000
0001
0000
0001
,
1000
0000
0000
0010
0100
0000
1001
0000
,
0000
0010
0000
0100
0010
0000
0000
1000
,
0001
1000
0002
0000
0000
0000
0000
0003
;

//---------------dance-single - ----------------
#NOTES:
     dance-single:
     :
     Easy:
     3:
     0.257030,0.263809,0.059974,0.071968,0.000000,150.000000,145.000000,5.000000,6.000000,0.000000,0.000000,0.257030,0.263809,0.059974,0.071968,0.000000,150.000000,145.000000,5.000000,6.000000,0.000000,0.000000:
0000
0000
0000
0000
,
1000
0100
0010
0000
,
0001
0000
0001
0001
,
0000
1000
0010
0000
,
0100
0001
1000
1000
,
0010
0100
0001
0000
,
1000
0000
1000
0010
,
0000
0100
0100
0000
,
0001
2000
0000
3000
,
0010
0000
0010
0000
0100
0000
0000
0001
,
0000
0001
1000
0010
,
0000
0100
0000
0101
,
0000
0000
1000
0000
0000
0010
0000
0000
,
1000
0000
1000
0000
0001
0000
0000
0100
,
0000
0010
1000
0010
,
0000
0101
0000
1010
,
0000
0100
0002
0003
,
1000
0010
0100
0000
,
0001
1000
0010
0000
,
0100
0000
0100
0000
0001
0000
0001
1000
,
0000
0001
0000
1000
0000
0001
0000
0000
,
1000
0000
0010
0000
0100
0000
0000
0001
,
0000
0000
1000
0000
0010
0000
0000
0100
,
0000
0001
1000
0010
,
0200
0000
0000
0300
,
0001
0000
0001
0000
1000
0000
1000
0010
,
0000
0100
0000
0001
0000
0100
0000
0000
,
0010
1000
0010
0010
,
0000
0100
0000
0000
,
0001
0000
0001
0000
1000
0000
1000
0010
,
0000
0100
0000
0001
0000
1000
0000
0000
,
0010
0100
0001
0001
,
1000
0010
1000
0001
,
0100
0000
0001
0000
1000
0010
0000
0100
,
0000
0001
0000
1000
0000
0010
0000
0000
,
1000
1000
0001
0001
,
0000
0000
0100
0010
0000
0000
0000
0000
,
1000
0000
0001
0000
0100
0010
0000
0100
,
0000
0001
0000
1000
0000
0010
0000
0000
,
1000
0001
1000
0001
,
2000
0000
0000
3000
,
0010
0100
0010
0000
,
1000
0000
0001
1001
,
0000
1000
0010
0000
,
0100
0000
0001
0000
0200
0000
0000
0300
,
0000
0001
1000
0000
,
1001
0000
0001
0010
,
0000
0100
1000
0000
,
0001
0000
0002
0000
0000
0000
0000
0003
;

//---------------dance-single - Copied from----------------
#NOTES:
     dance-single:
     Copied from:
     Beginner:
     1:
     0.082250,0.086362,0.000000,0.000000,0.000000,48.000000,48.000000,0.000000,0.000000,0.000000,0.000000,0.082250,0.086362,0.000000,0.000000,0.000000,48.000000,48.000000,0.000000,0.000000,0.000000,0.000000:
0000
0000
0000
0000
,
1000
0000
0000
0000
,
0010
0000
0000
0000
,
1000
0000
0000
0000
,
0010
0000
0000
0000
,
0100
0000
0000
0000
,
0001
0000
0000
0000
,
0100
0000
0000
0000
,
0001
0000
0000
0000
,
1000
0000
0000
0000
0000
0000
0000
1000
,
0000
0000
0000
0000
,
0000
0010
0000
0000
,
0000
0000
0000
0010
0000
0000
0000
0000
,
0100
0000
0000
0000
0000
0000
0000
0100
,
0000
0000
0000
0000
,
0001
0000
0000
0000
,
0000
0000
0000
0001
0000
0000
0000
0000
,
1000
0000
0000
0000
0000
0000
0000
1000
,
0000
0000
0000
0000
0000
0000
0000
1000
,
0000
0000
0000
0000
0000
0000
0000
1000
,
0000
0000
0000
0000
0000
0000
0000
0010
,
0000
0000
0000
0000
0000
0000
0000
0010
,
0000
0000
0000
0000
0000
0000
0000
0010
,
0000
0000
0000
0000
,
0010
0000
0000
0000
,
0100
0000
0000
0000
0000
0000
0000
0100
,
0000
0000
0000
0000
,
0100
0000
0000
0000
,
0000
0100
0000
0000
,
0001
0000
0000
0000
0000
0000
0000
0001
,
0000
0000
0000
0000
,
0001
0000
0000
0000
,
0001
0000
0000
0000
,
1000
0000
0000
0000
0000
0000
0000
1000
,
0000
0000
0000
0000
,
1000
0000
0000
0000
,
0000
1000
0000
0000
,
0010
0000
0000
0000
0000
0000
0000
0010
,
0000
0000
0000
0000
,
0010
0000
0000
0000
,
0010
0000
0000
0000
,
0100
0000
0000
0000
,
0100
0000
0000
0000
,
0100
0000
0000
0000
,
0100
0000
0000
0000
,
0001
0000
0000
0000
,
0001
0000
0000
0000
,
0001
0000
0000
0000
,
0001
0000
0000
0000
;
